<svg xmlns="http://www.w3.org/2000/svg">
<defs>
<font horiz-adv-x="538" id="58ab5075-53ea-46e6-9783-cbb335665f88">
<font-face font-family="" panose-1="2 11 6 4 2 2 2 2 2 4" ascent="957" descent="-223" units-per-em="1000" alphabetic="0">
</font-face>
<missing-glyph horiz-adv-x="512" d="M222 117V184H278V117H222ZM225 234L223 251Q223 306 236 332T282 391Q314 422 323 438T332 474Q332 510 310 534T256 559Q225 559 203 537T174 464L124 472Q131 543 168 576T259 609Q312 609 347 573T383 478Q383 446 371 420T320 358Q283 325 277 306T271 234H225ZM462 50V667H50V50H462ZM512 718V0H0V718H512Z"  />

<glyph unicode="&#xA;" />
<glyph unicode="&#xD;" horiz-adv-x="0" />
<glyph unicode=" " horiz-adv-x="278" />
<glyph unicode="!" horiz-adv-x="278" d="M72 125H206V0H72V125ZM77 714H202V508L169 199H110L77 508V714Z"  />
<glyph unicode="&quot;" horiz-adv-x="444" d="M259 714H361V432H259V714ZM83 714H185V432H83V714Z"  />
<glyph unicode="#" horiz-adv-x="556" d="M237 415L219 285H330L348 415H237ZM495 210H400L370 0H290L319 210H209L179 0H99L128 210H34V285H139L157 415H63V490H167L196 700H277L247 490H358L387 700H468L438 490H524V415H428L410 285H495V210Z"  />
<glyph unicode="$" horiz-adv-x="556" d="M259 641Q205 641 176 619T146 543Q146 519 156 502T181 473T217 454T259 441V641ZM131 217Q130 151 160 113T259 73V315Q218 326 178 341T105 381T52 443T32 535Q32 583 50 619T100 680T173 718T259 731V809H302V731Q347 731 387 719T456 683T503 622T521 536H407Q405 587 381 614T302 641V430Q347 418 390 402T466 361T519 299T539 208Q539 152 521 111T470 42T395 0T302 -17V-95H259V-17Q205 -16 160 0T83 45T34 118T17 217H131ZM302 73Q356 77 390 104T425 192Q425 220 415 239T387 271T347 292T302 306V73Z"  />
<glyph unicode="%" horiz-adv-x="1000" d="M172 515Q172 487 176 463T189 420T212 392T248 381Q269 381 284 391T308 420T321 462T326 515Q326 540 323 564T310 607T286 637T248 649Q225 649 210 638T187 607T175 564T172 515ZM249 316Q204 316 172 332T120 375T91 438T82 515Q82 555 91 591T121 655T173 698T249 714Q293 714 324 698T376 655T406 592T416 515Q416 474 407 438T378 375T326 332T249 316ZM674 185Q674 157 678 133T691 90T714 62T750 51Q771 51 786 61T810 90T823 132T828 185Q828 210 825 234T812 277T788 307T750 319Q727 319 712 308T689 277T677 234T674 185ZM751 -14Q706 -14 674 2T622 45T593 108T584 185Q584 225 593 261T623 325T675 368T751 384Q795 384 826 368T878 325T908 262T918 185Q918 144 909 108T880 45T828 2T751 -14ZM649 724H725L338 -24H260L649 724Z"  />
<glyph unicode="&amp;" horiz-adv-x="648" d="M457 80Q417 31 369 9T257 -14Q208 -14 167 0T95 42T49 108T32 198Q32 236 46 267T83 323T135 369T196 405Q182 423 169 440T146 477T130 517T124 561Q124 600 137 631T175 684T231 719T299 731Q333 731 365 721T422 689T462 635T477 560Q477 528 467 501T439 452T398 411T348 379L459 245Q465 262 471 284T481 341H581Q576 294 563 249T525 166L662 0H522L457 80ZM256 330Q240 320 221 310T186 285T158 249T146 196Q146 138 178 107T261 76Q292 76 314 84T351 105T377 131T396 156L256 330ZM302 646Q270 646 248 625T226 567Q226 549 232 534T248 504T269 475T291 448Q307 459 322 470T349 495T368 526T375 564Q375 599 355 622T302 646Z"  />
<glyph unicode="&apos;" horiz-adv-x="278" d="M88 714H190V432H88V714Z"  />
<glyph unicode="(" horiz-adv-x="278" d="M193 -191Q163 -143 137 -92T91 15T60 135T49 270Q49 391 86 508T193 731H286Q226 623 195 510T163 270Q163 144 193 30T286 -191H193Z"  />
<glyph unicode=")" horiz-adv-x="278" d="M85 731Q115 683 141 632T186 524T217 404T229 269Q229 148 192 31T85 -191H-8Q52 -84 83 29T115 269Q115 395 85 509T-8 731H85Z"  />
<glyph unicode="*" horiz-adv-x="370" d="M19 572L41 637L151 594V714H219V594L328 637L352 572L238 534L308 440L255 401L184 499L116 401L60 440L130 534L19 572Z"  />
<glyph unicode="+" horiz-adv-x="600" d="M249 506H351V304H552V202H351V0H249V202H48V304H249V506Z"  />
<glyph unicode="&#x2c;" horiz-adv-x="278" d="M69 135H208V0Q207 -62 170 -104T73 -158V-97Q106 -89 122 -61T138 0H69V135Z"  />
<glyph unicode="-" horiz-adv-x="389" d="M49 326H340V218H49V326Z"  />
<glyph unicode="." horiz-adv-x="278" d="M69 135H208V0H69V135Z"  />
<glyph unicode="/" horiz-adv-x="352" d="M265 731H374L87 -17H-22L265 731Z"  />
<glyph unicode="0" horiz-adv-x="556" d="M278 714Q353 714 400 680T474 592T510 474T520 350Q520 290 511 226T475 109T401 21T278 -14Q203 -14 156 20T82 108T46 226T36 350Q36 410 45 474T81 591T155 679T278 714ZM278 81Q315 81 340 102T379 160T400 246T406 350Q406 405 400 453T380 539T340 597T278 619Q240 619 216 598T177 539T156 454T150 350Q150 295 156 246T176 161T215 103T278 81Z"  />
<glyph unicode="1" horiz-adv-x="556" d="M53 584Q89 584 123 590T184 610T231 646T257 700H350V0H225V494H53V584Z"  />
<glyph unicode="2" horiz-adv-x="556" d="M517 0H39Q40 87 81 152T193 265Q227 290 264 313T332 364T383 422T404 495Q404 514 400 535T382 575T346 606T286 619Q252 619 230 606T194 569T174 513T166 444H52Q52 502 67 551T114 637T189 693T293 714Q357 714 400 693T469 640T507 571T518 499Q518 457 505 423T470 361T420 308T362 263T302 223T247 185T202 146T176 102H517V0Z"  />
<glyph unicode="3" horiz-adv-x="556" d="M228 410Q256 409 284 414T334 431T369 466T383 520Q383 565 353 592T274 619Q244 619 222 607T186 575T164 529T158 476H44Q46 527 63 570T109 646T181 696T276 714Q317 714 356 702T427 667T478 609T497 527Q497 474 473 435T398 377V375Q458 363 491 316T525 200Q525 150 505 111T451 44T372 1T277 -14Q216 -14 171 3T95 53T48 130T31 230H145Q143 166 176 124T277 81Q334 81 372 113T411 206Q411 247 395 271T353 307T295 323T228 325V410Z"  />
<glyph unicode="4" horiz-adv-x="556" d="M112 256H324V564H322L112 256ZM522 166H432V0H324V166H24V279L324 700H432V256H522V166Z"  />
<glyph unicode="5" horiz-adv-x="556" d="M123 700H485V598H208L172 420L174 418Q197 444 232 457T303 471Q355 471 396 454T465 405T507 330T522 237Q522 195 509 151T466 70T390 10T280 -14Q229 -14 186 -1T109 40T57 106T35 199H149Q154 142 188 112T278 81Q314 81 339 93T379 126T401 175T408 235Q408 264 400 290T376 337T335 369T275 381Q239 381 208 368T162 317H48L123 700Z"  />
<glyph unicode="6" horiz-adv-x="556" d="M395 523Q391 566 365 592T293 619Q262 619 240 608T202 577T177 534T161 482T153 429T148 379L150 377Q173 419 213 439T301 460Q353 460 394 442T463 393T507 318T522 225Q522 174 506 131T458 55T384 4T289 -14Q212 -14 163 14T85 92T45 208T34 352Q34 415 47 479T92 595T173 681T298 714Q340 714 377 700T442 661T489 601T509 523H395ZM285 81Q316 81 339 93T377 126T400 172T408 227Q408 255 401 281T378 326T339 358T285 370Q254 370 231 359T191 328T167 282T159 227Q159 198 167 172T191 126T230 93T285 81Z"  />
<glyph unicode="7" horiz-adv-x="556" d="M35 700H514V605Q459 543 414 477T336 336T281 178T253 0H128Q134 83 156 164T214 321T297 467T398 598H35V700Z"  />
<glyph unicode="8" horiz-adv-x="556" d="M278 624Q232 624 200 597T168 517Q168 467 199 441T278 414Q326 414 357 440T388 517Q388 569 356 596T278 624ZM278 -14Q225 -14 180 1T101 44T50 114T31 206Q31 272 65 317T159 377V379Q111 397 86 434T60 523Q60 613 116 663T278 714Q383 714 439 664T496 523Q496 472 471 435T397 379V377Q456 362 490 317T525 206Q525 155 507 114T455 45T377 1T278 -14ZM278 76Q335 76 373 110T411 206Q411 264 373 296T278 329Q221 329 183 297T145 206Q145 144 183 110T278 76Z"  />
<glyph unicode="9" horiz-adv-x="556" d="M161 177Q165 134 191 108T263 81Q309 81 336 105T379 166T399 244T408 321L406 323Q383 282 343 261T255 239Q205 239 165 256T95 303T50 377T34 475Q34 526 50 569T97 645T173 696T275 714Q349 714 397 686T472 608T511 491T522 348Q522 285 509 221T464 105T383 19T258 -14Q216 -14 179 0T114 39T67 99T47 177H161ZM270 619Q239 619 216 608T178 576T156 530T148 476Q148 447 155 421T178 374T216 342T270 329Q302 329 326 341T365 373T389 420T397 476Q397 504 389 530T366 575T326 607T270 619Z"  />
<glyph unicode=":" horiz-adv-x="278" d="M69 135H208V0H69V135ZM69 506H208V371H69V506Z"  />
<glyph unicode=";" horiz-adv-x="278" d="M69 506H208V371H69V506ZM69 135H208V0Q207 -62 170 -104T73 -158V-97Q106 -89 122 -61T138 0H69V135Z"  />
<glyph unicode="&lt;" horiz-adv-x="600" d="M554 -8L46 217V289L554 514V412L180 253L554 94V-8Z"  />
<glyph unicode="=" horiz-adv-x="600" d="M552 101H48V203H552V101ZM552 303H48V405H552V303Z"  />
<glyph unicode="&gt;" horiz-adv-x="600" d="M420 253L46 412V514L554 289V217L46 -8V94L420 253Z"  />
<glyph unicode="?" horiz-adv-x="556" d="M208 125H342V0H208V125ZM49 487Q49 542 65 587T113 664T189 713T289 731Q335 731 374 718T443 679T490 615T507 529Q507 494 500 469T480 425T451 392T419 363Q400 347 384 332T356 299T338 255T331 194H223Q223 238 227 268T242 322T266 362T301 397Q317 411 331 423T357 449T375 482T382 525Q382 555 372 576T346 611T314 630T284 636Q222 636 193 596T163 487H49Z"  />
<glyph unicode="@" horiz-adv-x="800" d="M543 279Q539 267 537 255T534 233Q534 223 538 217T553 210Q576 210 599 226T641 272T671 340T683 426Q683 482 662 526T605 602T520 649T416 666Q352 666 300 643T209 579T150 484T129 366Q129 293 151 234T213 134T307 71T425 48Q491 48 550 74T650 147H720Q672 69 593 26T421 -17Q344 -17 276 11T158 91T78 213T49 370Q49 446 78 511T158 626T274 703T416 731Q483 731 543 710T650 649T723 556T751 438Q751 363 726 307T664 214T586 159T515 140Q492 140 475 154T456 198H454Q434 175 404 158T342 141Q311 141 284 153T238 187T207 237T196 298Q196 346 212 392T256 475T325 534T415 557Q450 557 479 540T527 485L545 542H615L543 279ZM361 216Q391 216 416 233T459 277T487 335T498 394Q498 412 492 428T475 456T450 475T419 482Q388 482 363 465T319 423T291 366T281 307Q281 267 302 242T361 216Z"  />
<glyph unicode="A" horiz-adv-x="667" d="M267 714H400L675 0H541L474 189H189L122 0H-7L267 714ZM223 284H441L334 591H331L223 284Z"  />
<glyph unicode="B" horiz-adv-x="704" d="M201 415H405Q450 415 480 440T510 514Q510 568 483 590T405 612H201V415ZM76 714H423Q519 714 577 670T635 537Q635 483 609 445T533 385V383Q599 369 633 321T667 199Q667 157 652 121T605 58T523 16T404 0H76V714ZM201 102H422Q479 102 510 131T542 215Q542 268 511 296T422 325H201V102Z"  />
<glyph unicode="C" horiz-adv-x="722" d="M558 487Q550 518 536 544T500 589T449 618T380 629Q323 629 282 606T214 545T176 457T163 357Q163 306 175 257T214 170T281 108T380 85Q422 85 454 99T509 139T545 199T562 272H684Q680 208 657 155T593 64T499 4T380 -17Q300 -17 237 12T129 93T62 212T38 357Q38 433 61 501T129 620T236 701T380 731Q440 731 493 715T586 667T652 590T683 487H558Z"  />
<glyph unicode="D" horiz-adv-x="722" d="M76 714H372Q454 714 514 686T612 610T668 496T687 357Q687 283 669 218T612 105T514 28T372 0H76V714ZM201 102H324Q397 102 443 121T516 175T552 256T562 357Q562 411 553 457T517 538T444 592T324 612H201V102Z"  />
<glyph unicode="E" horiz-adv-x="630" d="M76 714H590V606H201V419H561V317H201V108H597V0H76V714Z"  />
<glyph unicode="F" horiz-adv-x="593" d="M76 714H569V606H201V419H524V317H201V0H76V714Z"  />
<glyph unicode="G" horiz-adv-x="759" d="M699 0H619L600 84Q550 27 500 5T385 -17Q305 -17 242 12T134 93T67 212T43 357Q43 433 66 501T134 620T241 701T385 731Q443 731 495 716T589 670T657 593T691 487H569Q564 522 548 548T506 593T450 620T385 629Q328 629 287 606T219 545T181 457T168 357Q168 306 180 257T219 170T286 108T385 85Q433 84 470 97T532 136T571 199T585 281H395V376H699V0Z"  />
<glyph unicode="H" horiz-adv-x="722" d="M73 714H198V430H523V714H648V0H523V322H198V0H73V714Z"  />
<glyph unicode="I" horiz-adv-x="278" d="M76 714H201V0H76V714Z"  />
<glyph unicode="J" horiz-adv-x="537" d="M461 230Q461 183 453 139T421 60T350 4T226 -17Q169 -17 129 0T63 48T25 121T13 212V250H138V213Q138 152 158 119T236 85Q266 85 285 94T316 120T332 164T336 223V714H461V230Z"  />
<glyph unicode="K" horiz-adv-x="685" d="M76 714H201V389L519 714H673L388 429L693 0H537L303 341L201 240V0H76V714Z"  />
<glyph unicode="L" horiz-adv-x="574" d="M76 714H201V108H564V0H76V714Z"  />
<glyph unicode="M" horiz-adv-x="889" d="M74 714H250L447 155H449L641 714H815V0H696V551H694L496 0H393L195 551H193V0H74V714Z"  />
<glyph unicode="N" horiz-adv-x="722" d="M71 714H203L529 188H531V714H650V0H518L193 525H190V0H71V714Z"  />
<glyph unicode="O" horiz-adv-x="760" d="M380 629Q323 629 282 606T214 545T176 457T163 357Q163 306 175 257T214 170T281 108T380 85Q437 85 478 108T546 169T584 257T597 357Q597 408 585 457T546 544T479 606T380 629ZM380 731Q460 731 523 701T631 620T698 501T722 357Q722 280 699 212T631 93T524 13T380 -17Q300 -17 237 12T129 93T62 212T38 357Q38 433 61 501T129 620T236 701T380 731Z"  />
<glyph unicode="P" horiz-adv-x="667" d="M76 714H391Q467 714 515 692T589 637T624 565T634 493Q634 460 625 422T589 350T515 296T391 274H201V0H76V714ZM201 376H384Q405 376 427 382T467 401T497 437T509 494Q509 529 499 552T472 588T433 607T386 612H201V376Z"  />
<glyph unicode="Q" horiz-adv-x="760" d="M713 3L652 -65L548 26Q508 3 465 -7T380 -17Q300 -17 237 12T129 93T62 212T38 357Q38 433 61 501T129 620T236 701T380 731Q460 731 523 701T631 620T698 501T722 357Q722 320 716 283T698 209T667 141T621 83L713 3ZM388 165L448 234L535 158Q569 199 583 251T597 357Q597 408 585 457T546 544T479 606T380 629Q323 629 282 606T214 545T176 457T163 357Q163 306 175 257T214 170T281 108T380 85Q400 85 420 89T460 102L388 165Z"  />
<glyph unicode="R" horiz-adv-x="704" d="M76 714H417Q535 714 594 663T653 521Q653 470 638 437T603 383T564 353T535 341V339Q551 337 569 329T604 304T630 258T641 188Q641 125 650 74T680 0H546Q532 23 530 51T527 105Q527 154 521 189T499 248T456 283T385 294H201V0H76V714ZM201 389H406Q466 389 497 417T528 503Q528 537 518 558T491 592T451 608T404 612H201V389Z"  />
<glyph unicode="S" horiz-adv-x="648" d="M158 238Q158 197 172 168T211 121T268 94T339 85Q380 85 409 94T456 119T482 153T490 193Q490 234 472 253T431 281Q393 295 343 307T218 340Q172 352 142 371T93 415T68 466T60 521Q60 575 82 614T142 680T226 718T321 731Q377 731 426 717T513 673T573 602T595 503H470Q465 572 423 600T316 629Q294 629 271 625T229 610T198 581T185 536Q185 498 208 477T270 444Q274 443 301 436T363 419T429 402T476 389Q511 378 537 359T580 316T606 263T615 207Q615 147 591 105T526 35T435 -4T331 -17Q270 -17 216 -2T122 44T58 123T33 238H158Z"  />
<glyph unicode="T" horiz-adv-x="593" d="M8 714H586V606H359V0H234V606H8V714Z"  />
<glyph unicode="U" horiz-adv-x="722" d="M68 714H193V298Q193 262 196 225T216 159T266 110T361 91Q422 91 455 110T505 158T525 225T529 298V714H654V257Q654 188 633 137T574 52T481 0T361 -17Q295 -17 241 0T149 51T89 137T68 257V714Z"  />
<glyph unicode="V" horiz-adv-x="611" d="M-5 714H125L304 149H306L489 714H616L372 0H233L-5 714Z"  />
<glyph unicode="W" horiz-adv-x="944" d="M6 714H133L262 168H264L408 714H536L676 168H678L811 714H938L741 0H614L471 546H469L323 0H194L6 714Z"  />
<glyph unicode="X" horiz-adv-x="648" d="M14 714H163L325 462L494 714H634L398 370L651 0H499L321 273L140 0H-3L250 370L14 714Z"  />
<glyph unicode="Y" horiz-adv-x="648" d="M262 280L-6 714H139L328 394L514 714H654L387 280V0H262V280Z"  />
<glyph unicode="Z" horiz-adv-x="630" d="M55 714H598V619L182 108H608V0H23V102L439 606H55V714Z"  />
<glyph unicode="[" horiz-adv-x="296" d="M72 731H295V641H180V-101H295V-191H72V731Z"  />
<glyph unicode="\" horiz-adv-x="352" d="M374 -17H265L-22 731H87L374 -17Z"  />
<glyph unicode="]" horiz-adv-x="296" d="M224 -191H1V-101H116V641H1V731H224V-191Z"  />
<glyph unicode="^" horiz-adv-x="600" d="M84 335L264 700H336L516 335H414L300 582L186 335H84Z"  />
<glyph unicode="_" horiz-adv-x="500" d="M0 -125V-75H500V-125H0Z"  />
<glyph unicode="`" horiz-adv-x="241" d="M105 732L196 589H113L-29 732H105Z"  />
<glyph unicode="a" horiz-adv-x="556" d="M493 115Q493 94 498 85T520 76Q525 76 532 76Q539 76 548 78V-1Q542 -3 533 -5T513 -10T493 -13T476 -14Q441 -14 418 0T388 49Q354 16 305 1T209 -14Q174 -14 142 -5T86 23T47 70T32 137Q32 185 49 215T95 262T159 286T231 298Q262 304 290 306T339 315T373 333T386 371Q386 393 376 407T350 428T315 438T279 441Q231 441 200 421T165 359H51Q54 409 75 442T128 495T202 523T286 531Q324 531 361 523T427 497T475 451T493 381V115ZM379 259Q353 242 315 239T239 228Q221 225 204 220T174 205T154 180T146 142Q146 123 157 110T183 90T217 79T251 76Q270 76 292 81T333 98T366 128T379 174V259Z"  />
<glyph unicode="b" horiz-adv-x="611" d="M63 714H177V450H179Q191 469 208 484T245 509T288 525T333 531Q394 531 439 510T515 451T560 363T575 256Q575 204 562 155T521 69T451 9T352 -14Q326 -14 300 -11T249 3T206 29T173 71H171V0H63V714ZM461 258Q461 293 452 326T425 384T380 425T318 441Q246 441 210 391T173 258Q173 219 182 186T211 128T256 90T318 76Q357 76 384 92T428 133T453 191T461 258Z"  />
<glyph unicode="c" horiz-adv-x="556" d="M409 344Q402 392 371 416T291 441Q269 441 244 434T198 406T163 349T149 253Q149 221 156 189T180 132T223 92T286 76Q336 76 368 107T409 194H523Q507 93 447 40T286 -14Q225 -14 179 6T100 62T52 147T35 253Q35 311 51 362T99 450T178 509T290 531Q335 531 375 520T447 485T499 427T523 344H409Z"  />
<glyph unicode="d" horiz-adv-x="611" d="M547 0H439V70H437Q414 25 370 6T277 -14Q216 -14 171 7T95 66T50 153T35 262Q35 332 54 383T104 467T176 515T259 531Q283 531 308 527T356 512T398 487T431 450H433V714H547V0ZM149 253Q149 220 157 188T183 131T228 91T292 76Q330 76 357 92T402 134T428 192T437 259Q437 345 399 393T294 441Q254 441 227 425T182 382T157 322T149 253Z"  />
<glyph unicode="e" horiz-adv-x="556" d="M415 304Q413 331 404 356T378 399T338 429T285 441Q255 441 231 431T189 402T161 358T149 304H415ZM149 229Q149 199 157 171T183 122T226 89T288 76Q338 76 368 97T414 162H522Q513 120 491 87T438 32T369 -2T288 -14Q227 -14 180 6T101 62T52 148T35 258Q35 313 52 362T102 449T181 509T285 531Q346 531 394 506T475 438T521 342T529 229H149Z"  />
<glyph unicode="f" horiz-adv-x="315" d="M9 517H94V560Q94 609 106 639T138 686T183 708T237 714Q292 714 317 707V618Q306 621 294 622T264 624Q241 624 225 613T208 570V517H305V432H208V0H94V432H9V517Z"  />
<glyph unicode="g" horiz-adv-x="593" d="M538 27Q538 -90 473 -147T284 -205Q245 -205 206 -197T134 -170T79 -120T53 -44H167Q172 -68 184 -83T212 -106T249 -117T291 -120Q360 -120 392 -86T424 12V91H422Q398 48 357 24T267 0Q205 0 162 21T90 80T48 167T35 272Q35 324 51 371T97 453T170 510T269 531Q318 531 359 511T422 446H424V517H538V27ZM285 90Q323 90 349 105T392 146T416 204T424 270Q424 303 416 334T392 389T349 427T285 441Q247 441 221 425T179 384T156 326T149 261Q149 229 157 199T181 144T223 105T285 90Z"  />
<glyph unicode="h" horiz-adv-x="574" d="M60 714H174V449H176Q197 484 238 507T331 531Q416 531 465 487T514 355V0H400V325Q398 386 374 413T299 441Q270 441 247 431T208 402T183 358T174 305V0H60V714Z"  />
<glyph unicode="i" horiz-adv-x="241" d="M63 714H177V606H63V714ZM63 517H177V0H63V517Z"  />
<glyph unicode="j" horiz-adv-x="241" d="M63 714H177V606H63V714ZM63 517H177V-44Q177 -121 143 -163T29 -205Q12 -205 1 -204T-22 -201V-111Q-11 -113 -1 -114T17 -115Q48 -115 55 -96T63 -39V517Z"  />
<glyph unicode="k" horiz-adv-x="537" d="M63 714H177V308L383 517H523L325 327L542 0H403L245 251L177 185V0H63V714Z"  />
<glyph unicode="l" horiz-adv-x="241" d="M63 714H177V0H63V714Z"  />
<glyph unicode="m" horiz-adv-x="870" d="M60 517H168V445H171Q184 464 199 480T232 507T275 524T330 531Q377 531 417 510T475 445Q504 485 542 508T637 531Q719 531 764 491T810 357V0H696V302Q696 333 694 358T683 402T654 431T602 441Q544 441 518 405T492 303V0H378V332Q378 386 359 413T287 441Q265 441 245 432T209 406T184 364T174 307V0H60V517Z"  />
<glyph unicode="n" horiz-adv-x="574" d="M60 517H168V441L170 439Q196 482 238 506T331 531Q416 531 465 487T514 355V0H400V325Q398 386 374 413T299 441Q270 441 247 431T208 402T183 358T174 305V0H60V517Z"  />
<glyph unicode="o" horiz-adv-x="593" d="M297 -14Q235 -14 187 6T105 63T54 149T36 259Q36 318 53 368T104 454T186 510T297 531Q359 531 407 511T489 454T540 368T558 259Q558 199 541 149T490 63T408 7T297 -14ZM297 76Q335 76 363 92T409 134T435 192T444 259Q444 292 436 325T409 383T363 425T297 441Q259 441 231 425T185 384T159 325T150 259Q150 225 158 193T185 134T231 92T297 76Z"  />
<glyph unicode="p" horiz-adv-x="611" d="M63 517H171V447H173Q197 492 240 511T333 531Q394 531 439 510T515 451T560 363T575 256Q575 204 562 155T521 69T451 9T352 -14Q327 -14 302 -10T254 5T212 30T179 67H177V-191H63V517ZM461 258Q461 293 452 326T425 384T380 425T318 441Q246 441 210 391T173 258Q173 219 182 186T211 128T256 90T318 76Q357 76 384 92T428 133T453 191T461 258Z"  />
<glyph unicode="q" horiz-adv-x="611" d="M547 -191H433V67H431Q417 46 398 31T356 5T308 -9T258 -14Q201 -14 159 8T90 68T49 155T35 256Q35 313 50 363T95 450T170 509T277 531Q327 531 370 512T437 447H439V517H547V-191ZM149 258Q149 224 156 192T181 134T226 92T292 76Q366 76 401 126T437 258Q437 343 401 392T292 441Q257 441 230 426T185 385T158 326T149 258Z"  />
<glyph unicode="r" horiz-adv-x="352" d="M60 517H167V417H169Q174 438 188 458T223 494T269 521T320 531Q340 531 347 530T363 528V418Q351 420 339 421T314 423Q285 423 260 412T215 378T185 322T174 246V0H60V517Z"  />
<glyph unicode="s" horiz-adv-x="519" d="M146 166Q151 116 184 96T263 76Q279 76 299 78T338 88T367 108T378 144T362 180T324 202T270 217T209 230Q177 237 148 247T95 274T57 317T43 383Q43 425 63 453T115 499T185 524T259 531Q299 531 335 523T401 495T450 446T475 372H356Q348 413 319 427T251 441Q239 441 223 439T192 432T167 416T157 388Q157 367 171 354T209 333T263 318T325 305Q356 298 386 288T439 261T477 218T492 154Q492 108 471 76T417 24T342 -5T261 -14Q212 -14 171 -3T99 30T51 86T32 166H146Z"  />
<glyph unicode="t" horiz-adv-x="333" d="M8 517H94V672H208V517H311V432H208V156Q208 138 209 125T216 103T233 90T263 85Q275 85 287 85T311 89V1Q292 -1 274 -3T237 -5Q192 -5 165 3T122 28T101 70T94 127V432H8V517Z"  />
<glyph unicode="u" horiz-adv-x="574" d="M514 0H402V72H400Q379 33 338 10T253 -14Q151 -14 106 36T60 189V517H174V200Q174 132 200 104T273 76Q309 76 333 87T372 116T393 161T400 217V517H514V0Z"  />
<glyph unicode="v" horiz-adv-x="519" d="M9 517H133L264 120H266L392 517H510L325 0H197L9 517Z"  />
<glyph unicode="w" horiz-adv-x="778" d="M13 517H134L235 131H237L334 517H449L542 131H544L649 517H765L603 0H486L390 384H388L293 0H173L13 517Z"  />
<glyph unicode="x" horiz-adv-x="537" d="M199 272L20 517H158L266 358L379 517H511L335 278L533 0H396L265 191L138 0H4L199 272Z"  />
<glyph unicode="y" horiz-adv-x="519" d="M3 517H128L263 131H265L396 517H515L314 -28Q300 -63 287 -95T254 -151T205 -190T131 -205Q91 -205 52 -199V-103Q66 -105 79 -107T106 -110Q126 -110 139 -105T160 -91T175 -68T186 -38L199 2L3 517Z"  />
<glyph unicode="z" horiz-adv-x="500" d="M42 517H462V437L166 90H477V0H22V80L308 427H42V517Z"  />
<glyph unicode="{" horiz-adv-x="296" d="M-4 315Q6 315 22 318T53 329T79 352T90 388V594Q90 629 104 655T138 698T180 723T218 731H309V641H254Q235 641 224 635T207 618T200 595T198 571V376Q198 346 186 326T158 295T124 278T94 271V269Q106 268 123 264T157 249T186 216T198 158V-31Q198 -42 199 -54T207 -77T224 -94T254 -101H309V-191H218Q202 -191 180 -183T138 -158T104 -115T90 -54V144Q90 168 79 184T53 209T22 221T-4 225V315Z"  />
<glyph unicode="|" horiz-adv-x="222" d="M60 786H162V-214H60V786Z"  />
<glyph unicode="}" horiz-adv-x="296" d="M300 225Q289 225 273 222T242 210T217 188T206 152V-54Q206 -89 192 -115T158 -158T116 -183T78 -191H-13V-101H42Q61 -101 72 -95T89 -78T96 -55T98 -31V164Q98 194 110 214T138 245T172 262T202 269V271Q190 272 173 276T139 291T110 324T98 382V571Q98 582 97 594T89 617T72 634T42 641H-13V731H78Q94 731 116 723T158 698T192 655T206 594V396Q206 372 216 356T242 331T273 319T300 315V225Z"  />
<glyph unicode="~" horiz-adv-x="600" d="M531 254Q520 238 508 223T481 195T448 176T406 168Q378 168 354 177T304 201Q280 215 252 225T189 236Q172 236 160 230T137 214T119 192T105 168L69 252Q77 268 88 283T115 311T149 330T194 338Q220 338 248 329T305 306Q333 294 360 282T407 270Q422 270 434 276T457 292T477 314T495 338L531 254Z"  />
<glyph unicode="&#xA0;" horiz-adv-x="278" />
<glyph unicode="&#xA1;" horiz-adv-x="278" d="M206 406H72V531H206V406ZM202 -183H77V21L110 332H169L202 21V-183Z"  />
<glyph unicode="&#xA2;" horiz-adv-x="556" d="M268 -14Q214 -14 171 7T98 65T53 150T37 253Q37 316 54 367T102 455T175 511T268 531V621H311V531Q353 531 390 518T455 481T502 422T524 344H410Q405 387 378 414T311 441V76Q357 84 382 114T414 194H528Q511 99 458 43T311 -14V-104H268V-14ZM268 441Q235 438 213 420T177 375T157 316T151 253Q151 223 157 194T178 140T214 98T268 76V441Z"  />
<glyph unicode="&#xA3;" horiz-adv-x="556" d="M31 384H94Q71 412 59 450T47 525Q47 572 67 610T120 675T195 716T281 731Q396 731 463 670T532 484H418Q416 516 409 544T386 592T345 624T283 636Q237 636 205 606T172 519Q172 484 187 449T218 384H365V319H242Q258 289 258 252Q258 225 250 202T228 158T196 120T157 88L159 86Q182 95 204 104T251 113Q277 113 296 108T332 96Q349 89 366 84T406 78Q434 78 458 88T503 116L554 39Q516 7 480 -5T394 -17Q370 -17 346 -12T295 -2Q270 6 244 12T190 18Q164 18 136 9T89 -16L36 65Q54 77 73 95T108 135T134 180T144 227Q144 253 139 276T123 319H31V384Z"  />
<glyph unicode="&#xA4;" horiz-adv-x="556" d="M279 201Q309 201 335 213T379 245T408 293T419 351Q419 381 409 407T380 454T336 487T280 499Q249 499 223 487T177 455T146 408T135 349Q135 318 146 291T176 244T222 213T279 201ZM20 146L77 207Q53 234 40 270T27 349Q27 391 39 429T77 493L20 554L77 611L134 555Q159 576 198 588T280 601Q320 601 357 589T417 556L475 613L536 552L480 494Q503 470 515 432T527 351Q527 309 515 271T479 205L534 146L479 91L422 149Q397 125 359 112T279 99Q235 99 197 111T132 148L76 90L20 146Z"  />
<glyph unicode="&#xA5;" horiz-adv-x="556" d="M221 165H84V230H221V298H84V363H182L-5 714H122L278 394L437 714H561L373 363H472V298H335V230H472V165H335V0H221V165Z"  />
<glyph unicode="&#xA6;" horiz-adv-x="222" d="M60 661H162V411H60V661ZM60 161H162V-89H60V161Z"  />
<glyph unicode="&#xA7;" horiz-adv-x="556" d="M377 542Q375 584 351 612T283 641Q252 641 227 621T201 566Q201 542 215 524T253 489T306 458T367 427T428 393T482 353T520 302T535 238Q535 214 527 192T504 150T471 116T429 94Q456 71 470 42T484 -34Q484 -76 468 -108T424 -161T361 -194T286 -205Q240 -205 201 -192T134 -152T88 -88T70 0H178Q182 -53 207 -84T283 -115Q321 -115 345 -97T370 -34Q370 -7 355 14T316 53T261 87T198 120Q165 136 134 155T78 197T38 248T22 312Q22 368 51 404T130 461Q108 484 98 507T87 562Q87 602 104 633T149 686T212 719T284 731Q327 731 363 718T427 681T469 621T485 542H377ZM191 405Q164 397 147 376T130 325Q130 319 131 311T138 292T155 270T185 247L367 145Q393 156 410 176T427 227Q427 249 413 268T357 310L191 405Z"  />
<glyph unicode="&#xA8;" horiz-adv-x="241" d="M-23 602V710H91V602H-23ZM263 710V602H149V710H263Z"  />
<glyph unicode="&#xA9;" horiz-adv-x="800" d="M590 285Q584 249 568 221T528 172T476 142T413 131Q365 131 326 148T259 195T216 267T201 357Q201 402 215 441T257 509T323 555T411 572Q480 572 529 534T589 421H521Q513 459 484 483T411 507Q379 507 355 495T315 463T290 416T281 357Q281 324 290 295T316 244T358 209T413 196Q458 196 487 221T521 285H590ZM687 357Q687 425 665 482T604 580T513 643T401 666Q340 666 288 644T196 580T135 482T113 357Q113 293 133 237T190 139T281 73T401 48Q461 48 513 70T604 134T665 231T687 357ZM767 357Q767 273 738 204T658 86T541 10T401 -17Q320 -17 253 11T137 90T61 208T33 357Q33 441 62 510T142 628T260 704T401 731Q474 731 540 704T657 628T737 510T767 357Z"  />
<glyph unicode="&#xAA;" horiz-adv-x="380" d="M331 470Q331 459 334 453T348 448Q351 448 355 448Q359 448 364 449V381Q356 378 341 376T317 373Q291 373 276 383T255 422Q248 411 235 402T205 387T171 377T138 373Q114 373 92 379T53 396T26 425T16 466Q16 495 28 512T59 540T103 556T151 566Q170 569 187 572T217 578T237 588T244 604Q244 620 239 629T224 642T205 648T184 649Q155 649 136 641T114 607H29Q32 638 47 658T84 691T133 709T189 714Q215 714 240 709T286 692T318 664T331 621V470ZM244 535Q229 527 206 524T160 516T120 503T103 471Q103 450 119 444T159 438Q174 438 189 440T216 448T236 464T244 491V535Z"  />
<glyph unicode="&#xAB;" horiz-adv-x="463" d="M248 216V328L403 451V348L308 272L403 196V93L248 216ZM50 216V328L205 451V348L110 272L205 196V93L50 216Z"  />
<glyph unicode="&#xAC;" horiz-adv-x="600" d="M450 303H48V405H552V108H450V303Z"  />
<glyph unicode="&#xAD;" horiz-adv-x="389" d="M49 326H340V218H49V326Z"  />
<glyph unicode="&#xAE;" horiz-adv-x="800" d="M687 357Q687 425 665 482T604 580T513 643T401 666Q340 666 288 644T196 580T135 482T113 357Q113 293 133 237T190 139T281 73T401 48Q461 48 513 70T604 134T665 231T687 357ZM767 357Q767 273 738 204T658 86T541 10T401 -17Q320 -17 253 11T137 90T61 208T33 357Q33 441 62 510T142 628T260 704T401 731Q474 731 540 704T657 628T737 510T767 357ZM403 378Q422 378 439 379T470 388T491 407T499 443Q499 462 491 473T469 490T440 497T409 499H327V378H403ZM327 143H259V557H416Q491 557 529 529T567 438Q567 382 536 356T459 325L575 143H498L391 320H327V143Z"  />
<glyph unicode="&#xAF;" horiz-adv-x="241" d="M-23 624V689H265V624H-23Z"  />
<glyph unicode="&#xB0;" horiz-adv-x="400" d="M106 564Q106 544 113 527T133 498T163 478T200 470Q219 470 236 477T266 497T286 527T294 564Q294 583 287 600T267 630T237 650T200 658Q180 658 163 651T134 631T114 601T106 564ZM50 564Q50 595 62 622T94 670T141 702T200 714Q231 714 258 702T306 670T338 623T350 564Q350 533 338 506T306 458T259 426T200 414Q169 414 142 426T94 458T62 505T50 564Z"  />
<glyph unicode="&#xB1;" horiz-adv-x="600" d="M48 102H552V0H48V102ZM249 506H351V381H552V279H351V154H249V279H48V381H249V506Z"  />
<glyph unicode="&#xB2;" horiz-adv-x="360" d="M336 273H21Q22 334 48 374T121 444Q143 459 167 473T212 504T245 539T259 582Q259 614 237 629T186 644Q166 644 152 636T130 615T118 586T113 551H26Q26 627 70 670T190 714Q221 714 249 707T299 684T333 643T346 584Q346 559 338 539T315 501T282 470T244 443Q224 430 205 419T169 395T140 371T123 343H336V273Z"  />
<glyph unicode="&#xB3;" horiz-adv-x="360" d="M146 533Q165 532 183 535T215 545T238 564T247 594Q247 607 241 616T224 632T202 641T178 644Q145 644 124 623T105 568H25Q28 637 69 675T179 714Q207 714 233 708T281 688T314 652T327 598Q327 566 311 543T263 508V506Q301 499 323 471T345 401Q345 368 332 343T297 300T244 273T180 264Q98 264 58 305T16 419H96Q94 384 116 359T180 334Q215 334 240 353T265 405Q265 429 255 443T228 464T190 474T146 475V533Z"  />
<glyph unicode="&#xB4;" horiz-adv-x="241" d="M135 732H270L128 589H45L135 732Z"  />
<glyph unicode="&#xB5;" horiz-adv-x="574" d="M514 0H402V72H400Q389 52 373 37T339 10T301 -8T264 -14Q241 -14 216 -6T174 22V-191H60V517H174V200Q174 132 200 104T273 76Q309 76 333 87T372 116T393 161T400 217V517H514V0Z"  />
<glyph unicode="&#xB6;" horiz-adv-x="600" d="M246 344Q197 344 158 357T90 395T47 453T31 526Q31 576 48 612T95 670T169 703T264 714H523V-160H443V649H326V-160H246V344Z"  />
<glyph unicode="&#xB7;" horiz-adv-x="278" d="M64 302Q64 317 70 330T86 353T110 370T139 376Q154 376 167 370T191 354T208 330T214 302Q214 272 192 249T139 226Q108 226 86 249T64 302Z"  />
<glyph unicode="&#xB8;" horiz-adv-x="241" d="M27 -160Q45 -168 60 -172T92 -176Q102 -176 113 -175T133 -169T147 -156T153 -135Q153 -116 139 -107T107 -97Q85 -97 68 -107L46 -88L112 0H160L114 -59L115 -60Q121 -58 129 -57T148 -56Q163 -56 178 -60T205 -74T225 -98T233 -131Q233 -157 222 -174T194 -201T156 -217T112 -223Q84 -223 58 -218T9 -200L27 -160Z"  />
<glyph unicode="&#xB9;" horiz-adv-x="360" d="M36 635Q61 635 84 639T125 651T156 673T174 705H244V273H157V577H36V635Z"  />
<glyph unicode="&#xBA;" horiz-adv-x="380" d="M371 543Q371 466 326 420T193 373Q105 373 60 419T15 543Q15 620 60 667T193 714Q281 714 326 667T371 543ZM284 543Q284 562 279 581T262 615T233 639T193 649Q170 649 153 640T124 615T108 581T102 543Q102 524 107 506T124 472T152 448T193 438Q217 438 234 447T261 472T277 505T284 543Z"  />
<glyph unicode="&#xBB;" horiz-adv-x="463" d="M413 328V216L258 93V196L353 272L258 348V451L413 328ZM215 328V216L60 93V196L155 272L60 348V451L215 328Z"  />
<glyph unicode="&#xBC;" horiz-adv-x="834" d="M560 724H638L220 -24H141L560 724ZM37 635Q62 635 85 639T126 651T157 673T175 705H245V273H158V577H37V635ZM632 330H630L513 172H632V330ZM719 0H632V97H437V178L622 428H719V172H766V97H719V0Z"  />
<glyph unicode="&#xBD;" horiz-adv-x="834" d="M788 0H473Q473 37 483 65T510 115T548 153T592 184T635 210T673 236T700 267T711 309Q711 341 690 358T638 376Q617 376 603 368T581 345T570 314T565 278H478Q478 356 520 401T642 446Q674 446 702 438T752 413T785 371T798 311Q798 286 790 266T767 228T735 197T696 170Q676 158 657 147T621 123T592 98T575 70H788V0ZM36 635Q61 635 84 639T125 651T156 673T174 705H244V273H157V577H36V635ZM556 724H634L216 -24H137L556 724Z"  />
<glyph unicode="&#xBE;" horiz-adv-x="834" d="M146 532Q165 531 183 534T215 544T238 564T247 594Q247 607 241 616T224 632T202 641T178 644Q145 644 124 623T105 568H25Q28 637 69 675T179 714Q207 714 233 708T281 688T314 652T327 598Q327 566 311 543T263 508V506Q301 499 323 471T345 401Q345 368 332 343T297 300T244 273T180 264Q98 264 58 305T16 419H96Q94 384 116 359T180 334Q215 334 240 353T265 405Q265 429 255 443T228 464T190 473T146 474V532ZM615 724H693L275 -24H196L615 724ZM669 330H667L550 172H669V330ZM756 0H669V97H474V178L657 428H756V172H803V97H756V0Z"  />
<glyph unicode="&#xBF;" horiz-adv-x="556" d="M344 531V406H210V531H344ZM507 39Q507 -14 491 -58T443 -133T367 -182T267 -200Q221 -200 182 -187T113 -148T66 -87T49 -3Q49 32 56 57T76 101T104 134T137 163Q156 179 172 194T200 227T218 271T225 332H333Q333 288 329 258T314 204T290 164T255 129Q239 115 225 103T199 76T181 44T174 1Q174 -28 184 -48T209 -80T241 -99T272 -105Q334 -105 363 -65T393 39H507Z"  />
<glyph unicode="&#xC0;" horiz-adv-x="667" d="M267 714H400L675 0H541L474 189H189L122 0H-7L267 714ZM223 284H441L334 591H331L223 284ZM305 926L396 783H313L171 926H305Z"  />
<glyph unicode="&#xC1;" horiz-adv-x="667" d="M267 714H400L675 0H541L474 189H189L122 0H-7L267 714ZM223 284H441L334 591H331L223 284ZM364 926H499L357 783H274L364 926Z"  />
<glyph unicode="&#xC2;" horiz-adv-x="667" d="M267 714H400L675 0H541L474 189H189L122 0H-7L267 714ZM223 284H441L334 591H331L223 284ZM262 783H170L277 926H388L496 783H403L332 873L262 783Z"  />
<glyph unicode="&#xC3;" horiz-adv-x="667" d="M267 714H400L675 0H541L474 189H189L122 0H-7L267 714ZM223 284H441L334 591H331L223 284ZM511 914Q507 890 500 869T478 833Q465 817 446 808T400 799Q383 799 364 804T326 818Q303 828 289 832T258 836Q240 836 230 826T215 795H158Q161 814 169 834T190 870T221 897T262 908Q281 908 296 905T343 888Q364 879 377 875T405 870Q427 870 438 882T455 914H511Z"  />
<glyph unicode="&#xC4;" horiz-adv-x="667" d="M267 714H400L675 0H541L474 189H189L122 0H-7L267 714ZM223 284H441L334 591H331L223 284ZM190 796V904H304V796H190ZM476 904V796H362V904H476Z"  />
<glyph unicode="&#xC5;" horiz-adv-x="667" d="M267 714H400L675 0H541L474 189H189L122 0H-7L267 714ZM223 284H441L334 591H331L223 284ZM272 854Q272 828 289 811T332 793Q358 793 375 810T392 854Q392 881 375 898T332 915Q307 915 290 898T272 854ZM332 751Q311 751 292 758T259 779T236 812T228 854Q228 877 236 896T259 929T292 950T332 957Q353 957 371 950T405 929T428 896T436 854Q436 831 428 812T405 780T372 759T332 751Z"  />
<glyph unicode="&#xC6;" horiz-adv-x="963" d="M348 714H924V606H576V419H902V317H576V108H930V0H457V183H218L132 0H-7L348 714ZM264 278H457V606H421L264 278Z"  />
<glyph unicode="&#xC7;" horiz-adv-x="722" d="M684 272Q680 209 657 156T595 65T503 6T387 -16L355 -58V-60Q361 -58 369 -58T388 -57Q403 -57 418 -61T445 -75T465 -98T473 -131Q473 -157 462 -174T434 -201T396 -216T352 -221Q329 -221 299 -216T249 -200L267 -160Q283 -165 299 -170T332 -176Q342 -176 353 -175T373 -169T387 -156T393 -135Q393 -116 379 -107T347 -97Q325 -97 308 -107L286 -88L341 -15Q270 -8 214 24T118 106T59 221T38 357Q38 433 61 501T129 620T236 701T380 731Q440 731 493 715T586 667T652 590T683 487H558Q550 518 536 544T500 589T449 618T380 629Q323 629 282 606T214 545T176 457T163 357Q163 306 175 257T214 170T281 108T380 85Q422 85 454 99T509 139T545 199T562 272H684Z"  />
<glyph unicode="&#xC8;" horiz-adv-x="630" d="M76 714H590V606H201V419H561V317H201V108H597V0H76V714ZM323 926L414 783H331L189 926H323Z"  />
<glyph unicode="&#xC9;" horiz-adv-x="630" d="M76 714H590V606H201V419H561V317H201V108H597V0H76V714ZM367 926H502L360 783H277L367 926Z"  />
<glyph unicode="&#xCA;" horiz-adv-x="630" d="M76 714H590V606H201V419H561V317H201V108H597V0H76V714ZM263 783H171L278 926H389L497 783H404L333 873L263 783Z"  />
<glyph unicode="&#xCB;" horiz-adv-x="630" d="M76 714H590V606H201V419H561V317H201V108H597V0H76V714ZM193 796V904H307V796H193ZM479 904V796H365V904H479Z"  />
<glyph unicode="&#xCC;" horiz-adv-x="278" d="M76 714H201V0H76V714ZM110 926L201 783H118L-24 926H110Z"  />
<glyph unicode="&#xCD;" horiz-adv-x="278" d="M76 714H201V0H76V714ZM167 926H302L160 783H77L167 926Z"  />
<glyph unicode="&#xCE;" horiz-adv-x="278" d="M76 714H201V0H76V714ZM68 783H-24L83 926H194L302 783H209L138 873L68 783Z"  />
<glyph unicode="&#xCF;" horiz-adv-x="278" d="M76 714H201V0H76V714ZM-4 796V904H110V796H-4ZM282 904V796H168V904H282Z"  />
<glyph unicode="&#xD0;" horiz-adv-x="722" d="M201 419H396V317H201V102H324Q397 102 443 121T516 175T552 256T562 357Q562 411 553 457T517 538T444 592T324 612H201V419ZM76 317H9V419H76V714H372Q454 714 514 686T612 610T668 496T687 357Q687 283 669 218T612 105T514 28T372 0H76V317Z"  />
<glyph unicode="&#xD1;" horiz-adv-x="722" d="M71 714H203L529 188H531V714H650V0H518L193 525H190V0H71V714ZM538 914Q534 890 527 869T505 833Q492 817 473 808T427 799Q410 799 391 804T353 818Q330 828 316 832T285 836Q267 836 257 826T242 795H185Q188 814 196 834T217 870T248 897T289 908Q308 908 323 905T370 888Q391 879 404 875T432 870Q454 870 465 882T482 914H538Z"  />
<glyph unicode="&#xD2;" horiz-adv-x="760" d="M380 629Q323 629 282 606T214 545T176 457T163 357Q163 306 175 257T214 170T281 108T380 85Q437 85 478 108T546 169T584 257T597 357Q597 408 585 457T546 544T479 606T380 629ZM380 731Q460 731 523 701T631 620T698 501T722 357Q722 280 699 212T631 93T524 13T380 -17Q300 -17 237 12T129 93T62 212T38 357Q38 433 61 501T129 620T236 701T380 731ZM323 926L414 783H331L189 926H323Z"  />
<glyph unicode="&#xD3;" horiz-adv-x="760" d="M380 629Q323 629 282 606T214 545T176 457T163 357Q163 306 175 257T214 170T281 108T380 85Q437 85 478 108T546 169T584 257T597 357Q597 408 585 457T546 544T479 606T380 629ZM380 731Q460 731 523 701T631 620T698 501T722 357Q722 280 699 212T631 93T524 13T380 -17Q300 -17 237 12T129 93T62 212T38 357Q38 433 61 501T129 620T236 701T380 731ZM423 926H558L416 783H333L423 926Z"  />
<glyph unicode="&#xD4;" horiz-adv-x="760" d="M380 629Q323 629 282 606T214 545T176 457T163 357Q163 306 175 257T214 170T281 108T380 85Q437 85 478 108T546 169T584 257T597 357Q597 408 585 457T546 544T479 606T380 629ZM380 731Q460 731 523 701T631 620T698 501T722 357Q722 280 699 212T631 93T524 13T380 -17Q300 -17 237 12T129 93T62 212T38 357Q38 433 61 501T129 620T236 701T380 731ZM312 783H220L327 926H438L546 783H453L382 873L312 783Z"  />
<glyph unicode="&#xD5;" horiz-adv-x="760" d="M380 629Q323 629 282 606T214 545T176 457T163 357Q163 306 175 257T214 170T281 108T380 85Q437 85 478 108T546 169T584 257T597 357Q597 408 585 457T546 544T479 606T380 629ZM380 731Q460 731 523 701T631 620T698 501T722 357Q722 280 699 212T631 93T524 13T380 -17Q300 -17 237 12T129 93T62 212T38 357Q38 433 61 501T129 620T236 701T380 731ZM561 914Q557 890 550 869T528 833Q515 817 496 808T450 799Q433 799 414 804T376 818Q353 828 339 832T308 836Q290 836 280 826T265 795H208Q211 814 219 834T240 870T271 897T312 908Q331 908 346 905T393 888Q414 879 427 875T455 870Q477 870 488 882T505 914H561Z"  />
<glyph unicode="&#xD6;" horiz-adv-x="760" d="M380 629Q323 629 282 606T214 545T176 457T163 357Q163 306 175 257T214 170T281 108T380 85Q437 85 478 108T546 169T584 257T597 357Q597 408 585 457T546 544T479 606T380 629ZM380 731Q460 731 523 701T631 620T698 501T722 357Q722 280 699 212T631 93T524 13T380 -17Q300 -17 237 12T129 93T62 212T38 357Q38 433 61 501T129 620T236 701T380 731ZM238 796V904H352V796H238ZM524 904V796H410V904H524Z"  />
<glyph unicode="&#xD7;" horiz-adv-x="600" d="M55 427L141 483L299 324L459 483L545 427L370 253L545 79L459 23L299 183L141 23L55 79L229 253L55 427Z"  />
<glyph unicode="&#xD8;" horiz-adv-x="760" d="M720 698L641 609Q680 558 701 494T722 357Q722 280 699 212T631 93T524 13T380 -17Q311 -17 256 5T158 65L82 -20L40 16L119 106Q80 156 59 220T38 357Q38 433 61 501T129 620T236 701T380 731Q449 731 504 710T602 650L677 734L720 698ZM232 148Q259 119 295 102T380 85Q437 85 478 108T546 169T584 257T597 357Q597 400 589 441T560 518L232 148ZM528 566Q503 595 467 612T380 629Q323 629 282 606T214 545T176 457T163 357Q163 313 171 272T199 196L528 566Z"  />
<glyph unicode="&#xD9;" horiz-adv-x="722" d="M68 714H193V298Q193 262 196 225T216 159T266 110T361 91Q422 91 455 110T505 158T525 225T529 298V714H654V257Q654 188 633 137T574 52T481 0T361 -17Q295 -17 241 0T149 51T89 137T68 257V714ZM324 926L415 783H332L190 926H324Z"  />
<glyph unicode="&#xDA;" horiz-adv-x="722" d="M68 714H193V298Q193 262 196 225T216 159T266 110T361 91Q422 91 455 110T505 158T525 225T529 298V714H654V257Q654 188 633 137T574 52T481 0T361 -17Q295 -17 241 0T149 51T89 137T68 257V714ZM398 926H533L391 783H308L398 926Z"  />
<glyph unicode="&#xDB;" horiz-adv-x="722" d="M68 714H193V298Q193 262 196 225T216 159T266 110T361 91Q422 91 455 110T505 158T525 225T529 298V714H654V257Q654 188 633 137T574 52T481 0T361 -17Q295 -17 241 0T149 51T89 137T68 257V714ZM292 783H200L307 926H418L526 783H433L362 873L292 783Z"  />
<glyph unicode="&#xDC;" horiz-adv-x="722" d="M68 714H193V298Q193 262 196 225T216 159T266 110T361 91Q422 91 455 110T505 158T525 225T529 298V714H654V257Q654 188 633 137T574 52T481 0T361 -17Q295 -17 241 0T149 51T89 137T68 257V714ZM217 796V904H331V796H217ZM503 904V796H389V904H503Z"  />
<glyph unicode="&#xDD;" horiz-adv-x="648" d="M262 280L-6 714H139L328 394L514 714H654L387 280V0H262V280ZM373 926H508L366 783H283L373 926Z"  />
<glyph unicode="&#xDE;" horiz-adv-x="667" d="M201 268H384Q405 268 427 274T467 293T497 329T509 386Q509 421 499 444T472 480T433 499T386 504H201V268ZM76 714H201V606H391Q467 606 515 584T589 529T624 457T634 385Q634 352 625 314T589 242T515 188T391 166H201V0H76V714Z"  />
<glyph unicode="&#xDF;" horiz-adv-x="574" d="M63 523Q63 572 79 610T125 676T194 717T282 731Q322 731 360 719T429 684T477 628T495 551Q495 500 470 458T393 400V398Q424 394 449 379T491 340T518 287T527 227Q527 175 511 131T466 55T394 4T298 -14Q270 -14 242 -11V79Q250 77 258 77T281 76Q325 76 351 91T391 128T409 178T413 232Q413 269 398 292T358 330Q335 345 304 350T243 355V430Q273 430 299 436T342 456Q360 470 370 490T381 540Q381 641 280 641Q263 641 245 636T211 616T187 576T177 511V0H63V523Z"  />
<glyph unicode="&#xE0;" horiz-adv-x="556" d="M493 115Q493 94 498 85T520 76Q525 76 532 76Q539 76 548 78V-1Q542 -3 533 -5T513 -10T493 -13T476 -14Q441 -14 418 0T388 49Q354 16 305 1T209 -14Q174 -14 142 -5T86 23T47 70T32 137Q32 185 49 215T95 262T159 286T231 298Q262 304 290 306T339 315T373 333T386 371Q386 393 376 407T350 428T315 438T279 441Q231 441 200 421T165 359H51Q54 409 75 442T128 495T202 523T286 531Q324 531 361 523T427 497T475 451T493 381V115ZM379 259Q353 242 315 239T239 228Q221 225 204 220T174 205T154 180T146 142Q146 123 157 110T183 90T217 79T251 76Q270 76 292 81T333 98T366 128T379 174V259ZM263 732L354 589H271L129 732H263Z"  />
<glyph unicode="&#xE1;" horiz-adv-x="556" d="M493 115Q493 94 498 85T520 76Q525 76 532 76Q539 76 548 78V-1Q542 -3 533 -5T513 -10T493 -13T476 -14Q441 -14 418 0T388 49Q354 16 305 1T209 -14Q174 -14 142 -5T86 23T47 70T32 137Q32 185 49 215T95 262T159 286T231 298Q262 304 290 306T339 315T373 333T386 371Q386 393 376 407T350 428T315 438T279 441Q231 441 200 421T165 359H51Q54 409 75 442T128 495T202 523T286 531Q324 531 361 523T427 497T475 451T493 381V115ZM379 259Q353 242 315 239T239 228Q221 225 204 220T174 205T154 180T146 142Q146 123 157 110T183 90T217 79T251 76Q270 76 292 81T333 98T366 128T379 174V259ZM314 732H449L307 589H224L314 732Z"  />
<glyph unicode="&#xE2;" horiz-adv-x="556" d="M493 115Q493 94 498 85T520 76Q525 76 532 76Q539 76 548 78V-1Q542 -3 533 -5T513 -10T493 -13T476 -14Q441 -14 418 0T388 49Q354 16 305 1T209 -14Q174 -14 142 -5T86 23T47 70T32 137Q32 185 49 215T95 262T159 286T231 298Q262 304 290 306T339 315T373 333T386 371Q386 393 376 407T350 428T315 438T279 441Q231 441 200 421T165 359H51Q54 409 75 442T128 495T202 523T286 531Q324 531 361 523T427 497T475 451T493 381V115ZM379 259Q353 242 315 239T239 228Q221 225 204 220T174 205T154 180T146 142Q146 123 157 110T183 90T217 79T251 76Q270 76 292 81T333 98T366 128T379 174V259ZM214 589H122L229 732H340L448 589H355L284 679L214 589Z"  />
<glyph unicode="&#xE3;" horiz-adv-x="556" d="M493 115Q493 94 498 85T520 76Q525 76 532 76Q539 76 548 78V-1Q542 -3 533 -5T513 -10T493 -13T476 -14Q441 -14 418 0T388 49Q354 16 305 1T209 -14Q174 -14 142 -5T86 23T47 70T32 137Q32 185 49 215T95 262T159 286T231 298Q262 304 290 306T339 315T373 333T386 371Q386 393 376 407T350 428T315 438T279 441Q231 441 200 421T165 359H51Q54 409 75 442T128 495T202 523T286 531Q324 531 361 523T427 497T475 451T493 381V115ZM379 259Q353 242 315 239T239 228Q221 225 204 220T174 205T154 180T146 142Q146 123 157 110T183 90T217 79T251 76Q270 76 292 81T333 98T366 128T379 174V259ZM461 720Q457 696 450 675T428 639Q415 623 396 614T350 605Q333 605 314 610T276 624Q253 634 239 638T208 642Q190 642 180 632T165 601H108Q111 620 119 640T140 676T171 703T212 714Q231 714 246 711T293 694Q314 685 327 681T355 676Q377 676 388 688T405 720H461Z"  />
<glyph unicode="&#xE4;" horiz-adv-x="556" d="M493 115Q493 94 498 85T520 76Q525 76 532 76Q539 76 548 78V-1Q542 -3 533 -5T513 -10T493 -13T476 -14Q441 -14 418 0T388 49Q354 16 305 1T209 -14Q174 -14 142 -5T86 23T47 70T32 137Q32 185 49 215T95 262T159 286T231 298Q262 304 290 306T339 315T373 333T386 371Q386 393 376 407T350 428T315 438T279 441Q231 441 200 421T165 359H51Q54 409 75 442T128 495T202 523T286 531Q324 531 361 523T427 497T475 451T493 381V115ZM379 259Q353 242 315 239T239 228Q221 225 204 220T174 205T154 180T146 142Q146 123 157 110T183 90T217 79T251 76Q270 76 292 81T333 98T366 128T379 174V259ZM139 602V710H253V602H139ZM425 710V602H311V710H425Z"  />
<glyph unicode="&#xE5;" horiz-adv-x="556" d="M493 115Q493 94 498 85T520 76Q525 76 532 76Q539 76 548 78V-1Q542 -3 533 -5T513 -10T493 -13T476 -14Q441 -14 418 0T388 49Q354 16 305 1T209 -14Q174 -14 142 -5T86 23T47 70T32 137Q32 185 49 215T95 262T159 286T231 298Q262 304 290 306T339 315T373 333T386 371Q386 393 376 407T350 428T315 438T279 441Q231 441 200 421T165 359H51Q54 409 75 442T128 495T202 523T286 531Q324 531 361 523T427 497T475 451T493 381V115ZM379 259Q353 242 315 239T239 228Q221 225 204 220T174 205T154 180T146 142Q146 123 157 110T183 90T217 79T251 76Q270 76 292 81T333 98T366 128T379 174V259ZM222 674Q222 648 239 631T282 613Q308 613 325 630T342 674Q342 701 325 718T282 735Q257 735 240 718T222 674ZM282 571Q261 571 242 578T209 599T186 632T178 674Q178 697 186 716T209 749T242 770T282 777Q303 777 321 770T355 749T378 716T386 674Q386 651 378 632T355 600T322 579T282 571Z"  />
<glyph unicode="&#xE6;" horiz-adv-x="889" d="M858 163Q836 80 773 33T624 -14Q566 -14 515 7T434 81Q400 30 343 8T219 -14Q180 -14 146 -5T87 23T47 70T32 137Q32 185 49 215T95 262T159 286T231 298Q262 304 289 306T336 315T368 333T380 371Q380 393 371 407T347 428T314 438T279 441Q231 441 200 421T165 359H51Q54 409 75 442T128 495T201 523T283 531Q307 531 332 529T380 519T423 497T458 461Q487 499 531 515T622 531Q688 531 735 508T812 445T854 349T862 229H487Q487 199 494 172T518 123T561 89T622 76Q668 76 699 99T744 163H858ZM379 257Q370 248 355 244T321 238T281 233T240 228Q221 225 204 220T174 205T154 180T146 142Q146 122 155 110T180 90T213 79T250 76Q274 76 297 82T338 102T367 135T379 180V257ZM748 304Q749 366 715 403T617 441Q587 441 564 430T524 400T498 357T487 304H748Z"  />
<glyph unicode="&#xE7;" horiz-adv-x="556" d="M191 -160Q209 -168 224 -172T256 -176Q266 -176 277 -175T297 -169T311 -156T317 -135Q317 -116 303 -107T271 -97Q249 -97 232 -107L210 -88L266 -13Q217 -10 178 6Q132 27 100 62T52 147T35 253Q35 311 51 362T99 450T178 509T290 531Q335 531 375 520T447 485T499 427T523 344H409Q402 392 371 416T291 441Q269 441 244 434T198 406T163 349T149 253Q149 221 156 189T180 132T223 92T286 76Q336 76 368 107T409 194H523Q507 93 446 39Q395 -6 314 -13L278 -59L279 -60Q285 -58 293 -57T312 -56Q327 -56 342 -60T369 -74T389 -98T397 -131Q397 -157 386 -174T358 -201T320 -217T276 -223Q248 -223 222 -218T173 -200L191 -160Z"  />
<glyph unicode="&#xE8;" horiz-adv-x="556" d="M415 304Q413 331 404 356T378 399T338 429T285 441Q255 441 231 431T189 402T161 358T149 304H415ZM149 229Q149 199 157 171T183 122T226 89T288 76Q338 76 368 97T414 162H522Q513 120 491 87T438 32T369 -2T288 -14Q227 -14 180 6T101 62T52 148T35 258Q35 313 52 362T102 449T181 509T285 531Q346 531 394 506T475 438T521 342T529 229H149ZM251 732L342 589H259L117 732H251Z"  />
<glyph unicode="&#xE9;" horiz-adv-x="556" d="M415 304Q413 331 404 356T378 399T338 429T285 441Q255 441 231 431T189 402T161 358T149 304H415ZM149 229Q149 199 157 171T183 122T226 89T288 76Q338 76 368 97T414 162H522Q513 120 491 87T438 32T369 -2T288 -14Q227 -14 180 6T101 62T52 148T35 258Q35 313 52 362T102 449T181 509T285 531Q346 531 394 506T475 438T521 342T529 229H149ZM329 732H464L322 589H239L329 732Z"  />
<glyph unicode="&#xEA;" horiz-adv-x="556" d="M415 304Q413 331 404 356T378 399T338 429T285 441Q255 441 231 431T189 402T161 358T149 304H415ZM149 229Q149 199 157 171T183 122T226 89T288 76Q338 76 368 97T414 162H522Q513 120 491 87T438 32T369 -2T288 -14Q227 -14 180 6T101 62T52 148T35 258Q35 313 52 362T102 449T181 509T285 531Q346 531 394 506T475 438T521 342T529 229H149ZM216 589H124L231 732H342L450 589H357L286 679L216 589Z"  />
<glyph unicode="&#xEB;" horiz-adv-x="556" d="M415 304Q413 331 404 356T378 399T338 429T285 441Q255 441 231 431T189 402T161 358T149 304H415ZM149 229Q149 199 157 171T183 122T226 89T288 76Q338 76 368 97T414 162H522Q513 120 491 87T438 32T369 -2T288 -14Q227 -14 180 6T101 62T52 148T35 258Q35 313 52 362T102 449T181 509T285 531Q346 531 394 506T475 438T521 342T529 229H149ZM142 602V710H256V602H142ZM428 710V602H314V710H428Z"  />
<glyph unicode="&#xEC;" horiz-adv-x="241" d="M63 0V517H177V0H63ZM88 732L179 589H96L-46 732H88Z"  />
<glyph unicode="&#xED;" horiz-adv-x="241" d="M63 0V517H177V0H63ZM153 732H288L146 589H63L153 732Z"  />
<glyph unicode="&#xEE;" horiz-adv-x="241" d="M63 0V517H177V0H63ZM50 589H-42L65 732H176L284 589H191L120 679L50 589Z"  />
<glyph unicode="&#xEF;" horiz-adv-x="241" d="M63 0V517H177V0H63ZM-22 602V710H92V602H-22ZM264 710V602H150V710H264Z"  />
<glyph unicode="&#xF0;" horiz-adv-x="593" d="M144 590L240 636Q217 646 196 655T155 670L231 731Q286 713 335 681L440 731L489 682L395 637Q470 575 510 491T550 309Q550 243 536 184T489 81T405 12T281 -14Q224 -14 180 5T105 60T58 144T42 252Q42 301 57 347T102 428T172 484T265 506Q307 506 340 496T408 462H410Q393 501 364 533T302 593L194 541L144 590ZM299 416Q259 416 232 402T188 365T164 311T156 245Q156 211 163 181T187 127T228 90T288 76Q322 76 349 90T396 128T426 182T436 245Q436 277 428 308T404 363T361 401T299 416Z"  />
<glyph unicode="&#xF1;" horiz-adv-x="574" d="M60 517H168V441L170 439Q196 482 238 506T331 531Q416 531 465 487T514 355V0H400V325Q398 386 374 413T299 441Q270 441 247 431T208 402T183 358T174 305V0H60V517ZM463 720Q459 696 452 675T430 639Q417 623 398 614T352 605Q335 605 316 610T278 624Q255 634 241 638T210 642Q192 642 182 632T167 601H110Q113 620 121 640T142 676T173 703T214 714Q233 714 248 711T295 694Q316 685 329 681T357 676Q379 676 390 688T407 720H463Z"  />
<glyph unicode="&#xF2;" horiz-adv-x="593" d="M297 -14Q235 -14 187 6T105 63T54 149T36 259Q36 318 53 368T104 454T186 510T297 531Q359 531 407 511T489 454T540 368T558 259Q558 199 541 149T490 63T408 7T297 -14ZM297 76Q335 76 363 92T409 134T435 192T444 259Q444 292 436 325T409 383T363 425T297 441Q259 441 231 425T185 384T159 325T150 259Q150 225 158 193T185 134T231 92T297 76ZM258 732L349 589H266L124 732H258Z"  />
<glyph unicode="&#xF3;" horiz-adv-x="593" d="M297 -14Q235 -14 187 6T105 63T54 149T36 259Q36 318 53 368T104 454T186 510T297 531Q359 531 407 511T489 454T540 368T558 259Q558 199 541 149T490 63T408 7T297 -14ZM297 76Q335 76 363 92T409 134T435 192T444 259Q444 292 436 325T409 383T363 425T297 441Q259 441 231 425T185 384T159 325T150 259Q150 225 158 193T185 134T231 92T297 76ZM330 732H465L323 589H240L330 732Z"  />
<glyph unicode="&#xF4;" horiz-adv-x="593" d="M297 -14Q235 -14 187 6T105 63T54 149T36 259Q36 318 53 368T104 454T186 510T297 531Q359 531 407 511T489 454T540 368T558 259Q558 199 541 149T490 63T408 7T297 -14ZM297 76Q335 76 363 92T409 134T435 192T444 259Q444 292 436 325T409 383T363 425T297 441Q259 441 231 425T185 384T159 325T150 259Q150 225 158 193T185 134T231 92T297 76ZM228 589H136L243 732H354L462 589H369L298 679L228 589Z"  />
<glyph unicode="&#xF5;" horiz-adv-x="593" d="M297 -14Q235 -14 187 6T105 63T54 149T36 259Q36 318 53 368T104 454T186 510T297 531Q359 531 407 511T489 454T540 368T558 259Q558 199 541 149T490 63T408 7T297 -14ZM297 76Q335 76 363 92T409 134T435 192T444 259Q444 292 436 325T409 383T363 425T297 441Q259 441 231 425T185 384T159 325T150 259Q150 225 158 193T185 134T231 92T297 76ZM476 720Q472 696 465 675T443 639Q430 623 411 614T365 605Q348 605 329 610T291 624Q268 634 254 638T223 642Q205 642 195 632T180 601H123Q126 620 134 640T155 676T186 703T227 714Q246 714 261 711T308 694Q329 685 342 681T370 676Q392 676 403 688T420 720H476Z"  />
<glyph unicode="&#xF6;" horiz-adv-x="593" d="M297 -14Q235 -14 187 6T105 63T54 149T36 259Q36 318 53 368T104 454T186 510T297 531Q359 531 407 511T489 454T540 368T558 259Q558 199 541 149T490 63T408 7T297 -14ZM297 76Q335 76 363 92T409 134T435 192T444 259Q444 292 436 325T409 383T363 425T297 441Q259 441 231 425T185 384T159 325T150 259Q150 225 158 193T185 134T231 92T297 76ZM156 602V710H270V602H156ZM442 710V602H328V710H442Z"  />
<glyph unicode="&#xF7;" horiz-adv-x="600" d="M301 -25Q272 -25 250 -4T228 47Q228 77 249 98T300 119Q329 119 350 98T372 47Q372 33 366 21T351 -2T328 -19T301 -25ZM301 387Q272 387 250 408T228 459Q228 489 249 510T300 531Q329 531 350 510T372 459Q372 445 366 433T351 410T328 393T301 387ZM48 202V304H552V202H48Z"  />
<glyph unicode="&#xF8;" horiz-adv-x="593" d="M396 399Q378 419 354 430T297 441Q259 441 231 425T185 384T159 325T150 259Q150 232 155 205T173 155L396 399ZM32 0L97 72Q36 145 36 259Q36 318 53 368T104 454T186 510T297 531Q350 531 392 517T467 476L530 545L562 517L497 446Q558 371 558 259Q558 199 541 149T490 63T408 7T297 -14Q245 -14 203 0T128 42L64 -28L32 0ZM198 118Q216 98 240 87T297 76Q335 76 363 92T409 134T435 192T444 259Q444 286 439 312T421 362L198 118Z"  />
<glyph unicode="&#xF9;" horiz-adv-x="574" d="M514 0H402V72H400Q379 33 338 10T253 -14Q151 -14 106 36T60 189V517H174V200Q174 132 200 104T273 76Q309 76 333 87T372 116T393 161T400 217V517H514V0ZM247 732L338 589H255L113 732H247Z"  />
<glyph unicode="&#xFA;" horiz-adv-x="574" d="M514 0H402V72H400Q379 33 338 10T253 -14Q151 -14 106 36T60 189V517H174V200Q174 132 200 104T273 76Q309 76 333 87T372 116T393 161T400 217V517H514V0ZM331 732H466L324 589H241L331 732Z"  />
<glyph unicode="&#xFB;" horiz-adv-x="574" d="M514 0H402V72H400Q379 33 338 10T253 -14Q151 -14 106 36T60 189V517H174V200Q174 132 200 104T273 76Q309 76 333 87T372 116T393 161T400 217V517H514V0ZM217 589H125L232 732H343L451 589H358L287 679L217 589Z"  />
<glyph unicode="&#xFC;" horiz-adv-x="574" d="M514 0H402V72H400Q379 33 338 10T253 -14Q151 -14 106 36T60 189V517H174V200Q174 132 200 104T273 76Q309 76 333 87T372 116T393 161T400 217V517H514V0ZM143 602V710H257V602H143ZM429 710V602H315V710H429Z"  />
<glyph unicode="&#xFD;" horiz-adv-x="519" d="M3 517H128L263 131H265L396 517H515L314 -28Q300 -63 287 -95T254 -151T205 -190T131 -205Q91 -205 52 -199V-103Q66 -105 79 -107T106 -110Q126 -110 139 -105T160 -91T175 -68T186 -38L199 2L3 517ZM311 732H446L304 589H221L311 732Z"  />
<glyph unicode="&#xFE;" horiz-adv-x="611" d="M461 258Q461 293 452 326T425 384T380 425T318 441Q246 441 210 391T173 258Q173 219 182 186T211 128T256 90T318 76Q357 76 384 92T428 133T453 191T461 258ZM63 714H177V450H179Q191 469 208 484T245 509T288 525T333 531Q394 531 439 510T515 451T560 363T575 256Q575 204 562 155T521 69T451 9T352 -14Q328 -14 303 -10T255 4T212 29T179 67H177V-191H63V714Z"  />
<glyph unicode="&#xFF;" horiz-adv-x="519" d="M3 517H128L263 131H265L396 517H515L314 -28Q300 -63 287 -95T254 -151T205 -190T131 -205Q91 -205 52 -199V-103Q66 -105 79 -107T106 -110Q126 -110 139 -105T160 -91T175 -68T186 -38L199 2L3 517ZM122 602V710H236V602H122ZM408 710V602H294V710H408Z"  />
<glyph unicode="&#x100;" horiz-adv-x="667" d="M267 714H400L675 0H541L474 189H189L122 0H-7L267 714ZM223 284H441L334 591H331L223 284ZM189 818V883H477V818H189Z"  />
<glyph unicode="&#x101;" horiz-adv-x="556" d="M493 115Q493 94 498 85T520 76Q525 76 532 76Q539 76 548 78V-1Q542 -3 533 -5T513 -10T493 -13T476 -14Q441 -14 418 0T388 49Q354 16 305 1T209 -14Q174 -14 142 -5T86 23T47 70T32 137Q32 185 49 215T95 262T159 286T231 298Q262 304 290 306T339 315T373 333T386 371Q386 393 376 407T350 428T315 438T279 441Q231 441 200 421T165 359H51Q54 409 75 442T128 495T202 523T286 531Q324 531 361 523T427 497T475 451T493 381V115ZM379 259Q353 242 315 239T239 228Q221 225 204 220T174 205T154 180T146 142Q146 123 157 110T183 90T217 79T251 76Q270 76 292 81T333 98T366 128T379 174V259ZM137 624V689H425V624H137Z"  />
<glyph unicode="&#x102;" horiz-adv-x="667" d="M267 714H400L675 0H541L474 189H189L122 0H-7L267 714ZM223 284H441L334 591H331L223 284ZM230 925Q238 883 267 866T337 849Q375 849 402 868T438 925H495Q487 854 443 819T329 784Q260 784 219 820T172 925H230Z"  />
<glyph unicode="&#x103;" horiz-adv-x="556" d="M493 115Q493 94 498 85T520 76Q525 76 532 76Q539 76 548 78V-1Q542 -3 533 -5T513 -10T493 -13T476 -14Q441 -14 418 0T388 49Q354 16 305 1T209 -14Q174 -14 142 -5T86 23T47 70T32 137Q32 185 49 215T95 262T159 286T231 298Q262 304 290 306T339 315T373 333T386 371Q386 393 376 407T350 428T315 438T279 441Q231 441 200 421T165 359H51Q54 409 75 442T128 495T202 523T286 531Q324 531 361 523T427 497T475 451T493 381V115ZM379 259Q353 242 315 239T239 228Q221 225 204 220T174 205T154 180T146 142Q146 123 157 110T183 90T217 79T251 76Q270 76 292 81T333 98T366 128T379 174V259ZM177 731Q185 689 214 672T284 655Q322 655 349 674T385 731H442Q434 660 390 625T276 590Q207 590 166 626T119 731H177Z"  />
<glyph unicode="&#x104;" horiz-adv-x="667" d="M595 0Q567 -22 549 -39T520 -72T505 -101T501 -129Q501 -149 513 -161T540 -173Q555 -173 567 -166T592 -139L633 -148Q627 -170 616 -184T590 -207T559 -219T528 -223Q521 -223 505 -221T471 -210T440 -183T427 -133Q427 -125 429 -113T442 -84T476 -46T541 0L474 189H189L122 0H-7L267 714H400L675 0H595ZM223 284H441L334 591H331L223 284Z"  />
<glyph unicode="&#x105;" horiz-adv-x="556" d="M493 115Q493 94 498 85T520 76H532Q539 76 548 78V-1Q542 -3 533 -5T513 -10T493 -13T476 -14H475Q459 -28 446 -39Q428 -57 418 -72T403 -101T399 -129Q399 -149 411 -161T438 -173Q453 -173 465 -166T490 -139L531 -148Q525 -170 514 -184T488 -207T457 -219T426 -223Q419 -223 403 -221T369 -210T338 -183T325 -133Q325 -125 327 -113T340 -84T374 -46Q394 -27 429 -6Q423 -3 418 0Q395 14 388 49Q354 16 305 1T209 -14Q174 -14 142 -5T86 23T47 70T32 137Q32 185 49 215T95 262T159 286T231 298Q262 304 290 306T339 315T373 333T386 371Q386 393 376 407T350 428T315 438T279 441Q231 441 200 421T165 359H51Q54 409 75 442T128 495T202 523T286 531Q324 531 361 523T427 497T475 451T493 381V115ZM379 259Q353 242 315 239T239 228Q221 225 204 220T174 205T154 180T146 142Q146 123 157 110T183 90T217 79T251 76Q270 76 292 81T333 98T366 128T379 174V259Z"  />
<glyph unicode="&#x106;" horiz-adv-x="722" d="M558 487Q550 518 536 544T500 589T449 618T380 629Q323 629 282 606T214 545T176 457T163 357Q163 306 175 257T214 170T281 108T380 85Q422 85 454 99T509 139T545 199T562 272H684Q680 208 657 155T593 64T499 4T380 -17Q300 -17 237 12T129 93T62 212T38 357Q38 433 61 501T129 620T236 701T380 731Q440 731 493 715T586 667T652 590T683 487H558ZM419 926H554L412 783H329L419 926Z"  />
<glyph unicode="&#x107;" horiz-adv-x="556" d="M409 344Q402 392 371 416T291 441Q269 441 244 434T198 406T163 349T149 253Q149 221 156 189T180 132T223 92T286 76Q336 76 368 107T409 194H523Q507 93 447 40T286 -14Q225 -14 179 6T100 62T52 147T35 253Q35 311 51 362T99 450T178 509T290 531Q335 531 375 520T447 485T499 427T523 344H409ZM331 732H466L324 589H241L331 732Z"  />
<glyph unicode="&#x108;" horiz-adv-x="722" d="M558 487Q550 518 536 544T500 589T449 618T380 629Q323 629 282 606T214 545T176 457T163 357Q163 306 175 257T214 170T281 108T380 85Q422 85 454 99T509 139T545 199T562 272H684Q680 208 657 155T593 64T499 4T380 -17Q300 -17 237 12T129 93T62 212T38 357Q38 433 61 501T129 620T236 701T380 731Q440 731 493 715T586 667T652 590T683 487H558ZM311 783H219L326 926H437L545 783H452L381 873L311 783Z"  />
<glyph unicode="&#x109;" horiz-adv-x="556" d="M409 344Q402 392 371 416T291 441Q269 441 244 434T198 406T163 349T149 253Q149 221 156 189T180 132T223 92T286 76Q336 76 368 107T409 194H523Q507 93 447 40T286 -14Q225 -14 179 6T100 62T52 147T35 253Q35 311 51 362T99 450T178 509T290 531Q335 531 375 520T447 485T499 427T523 344H409ZM221 589H129L236 732H347L455 589H362L291 679L221 589Z"  />
<glyph unicode="&#x10A;" horiz-adv-x="722" d="M558 487Q550 518 536 544T500 589T449 618T380 629Q323 629 282 606T214 545T176 457T163 357Q163 306 175 257T214 170T281 108T380 85Q422 85 454 99T509 139T545 199T562 272H684Q680 208 657 155T593 64T499 4T380 -17Q300 -17 237 12T129 93T62 212T38 357Q38 433 61 501T129 620T236 701T380 731Q440 731 493 715T586 667T652 590T683 487H558ZM322 796V904H436V796H322Z"  />
<glyph unicode="&#x10B;" horiz-adv-x="556" d="M409 344Q402 392 371 416T291 441Q269 441 244 434T198 406T163 349T149 253Q149 221 156 189T180 132T223 92T286 76Q336 76 368 107T409 194H523Q507 93 447 40T286 -14Q225 -14 179 6T100 62T52 147T35 253Q35 311 51 362T99 450T178 509T290 531Q335 531 375 520T447 485T499 427T523 344H409ZM231 602V710H345V602H231Z"  />
<glyph unicode="&#x10C;" horiz-adv-x="722" d="M558 487Q550 518 536 544T500 589T449 618T380 629Q323 629 282 606T214 545T176 457T163 357Q163 306 175 257T214 170T281 108T380 85Q422 85 454 99T509 139T545 199T562 272H684Q680 208 657 155T593 64T499 4T380 -17Q300 -17 237 12T129 93T62 212T38 357Q38 433 61 501T129 620T236 701T380 731Q440 731 493 715T586 667T652 590T683 487H558ZM433 783H322L215 926H307L377 837L448 926H541L433 783Z"  />
<glyph unicode="&#x10D;" horiz-adv-x="556" d="M409 344Q402 392 371 416T291 441Q269 441 244 434T198 406T163 349T149 253Q149 221 156 189T180 132T223 92T286 76Q336 76 368 107T409 194H523Q507 93 447 40T286 -14Q225 -14 179 6T100 62T52 147T35 253Q35 311 51 362T99 450T178 509T290 531Q335 531 375 520T447 485T499 427T523 344H409ZM345 589H234L127 732H219L289 643L360 732H453L345 589Z"  />
<glyph unicode="&#x10E;" horiz-adv-x="722" d="M76 714H372Q454 714 514 686T612 610T668 496T687 357Q687 283 669 218T612 105T514 28T372 0H76V714ZM201 102H324Q397 102 443 121T516 175T552 256T562 357Q562 411 553 457T517 538T444 592T324 612H201V102ZM382 783H271L164 926H256L326 837L397 926H490L382 783Z"  />
<glyph unicode="&#x10F;" horiz-adv-x="687" d="M547 0H439V70H437Q414 25 370 6T277 -14Q216 -14 171 7T95 66T50 153T35 262Q35 332 54 383T104 467T176 515T259 531Q283 531 308 527T356 512T398 487T431 450H433V714H547V0ZM149 253Q149 220 157 188T183 131T228 91T292 76Q330 76 357 92T402 134T428 192T437 259Q437 345 399 393T294 441Q254 441 227 425T182 382T157 322T149 253ZM628 714H753L672 571H596L628 714Z"  />
<glyph unicode="&#x110;" horiz-adv-x="722" d="M201 419H396V317H201V102H324Q397 102 443 121T516 175T552 256T562 357Q562 411 553 457T517 538T444 592T324 612H201V419ZM76 317H9V419H76V714H372Q454 714 514 686T612 610T668 496T687 357Q687 283 669 218T612 105T514 28T372 0H76V317Z"  />
<glyph unicode="&#x111;" horiz-adv-x="620" d="M547 0H439V70H437Q414 25 370 6T277 -14Q216 -14 171 7T95 66T50 153T35 262Q35 332 54 383T104 467T176 515T259 531Q283 531 308 527T356 512T398 487T431 450H433V584H280V649H433V714H547V649H626V584H547V0ZM149 253Q149 220 157 188T183 131T228 91T292 76Q330 76 357 92T402 134T428 192T437 259Q437 345 399 393T294 441Q254 441 227 425T182 382T157 322T149 253Z"  />
<glyph unicode="&#x112;" horiz-adv-x="630" d="M76 714H590V606H201V419H561V317H201V108H597V0H76V714ZM190 818V883H478V818H190Z"  />
<glyph unicode="&#x113;" horiz-adv-x="556" d="M415 304Q413 331 404 356T378 399T338 429T285 441Q255 441 231 431T189 402T161 358T149 304H415ZM149 229Q149 199 157 171T183 122T226 89T288 76Q338 76 368 97T414 162H522Q513 120 491 87T438 32T369 -2T288 -14Q227 -14 180 6T101 62T52 148T35 258Q35 313 52 362T102 449T181 509T285 531Q346 531 394 506T475 438T521 342T529 229H149ZM141 624V689H429V624H141Z"  />
<glyph unicode="&#x114;" horiz-adv-x="630" d="M76 714H590V606H201V419H561V317H201V108H597V0H76V714ZM227 925Q235 883 264 866T334 849Q372 849 399 868T435 925H492Q484 854 440 819T326 784Q257 784 216 820T169 925H227Z"  />
<glyph unicode="&#x115;" horiz-adv-x="556" d="M415 304Q413 331 404 356T378 399T338 429T285 441Q255 441 231 431T189 402T161 358T149 304H415ZM149 229Q149 199 157 171T183 122T226 89T288 76Q338 76 368 97T414 162H522Q513 120 491 87T438 32T369 -2T288 -14Q227 -14 180 6T101 62T52 148T35 258Q35 313 52 362T102 449T181 509T285 531Q346 531 394 506T475 438T521 342T529 229H149ZM180 731Q188 689 217 672T287 655Q325 655 352 674T388 731H445Q437 660 393 625T279 590Q210 590 169 626T122 731H180Z"  />
<glyph unicode="&#x116;" horiz-adv-x="630" d="M76 714H590V606H201V419H561V317H201V108H597V0H76V714ZM276 796V904H390V796H276Z"  />
<glyph unicode="&#x117;" horiz-adv-x="556" d="M415 304Q413 331 404 356T378 399T338 429T285 441Q255 441 231 431T189 402T161 358T149 304H415ZM149 229Q149 199 157 171T183 122T226 89T288 76Q338 76 368 97T414 162H522Q513 120 491 87T438 32T369 -2T288 -14Q227 -14 180 6T101 62T52 148T35 258Q35 313 52 362T102 449T181 509T285 531Q346 531 394 506T475 438T521 342T529 229H149ZM230 602V710H344V602H230Z"  />
<glyph unicode="&#x118;" horiz-adv-x="630" d="M559 0Q531 -22 513 -39T484 -72T469 -101T465 -129Q465 -149 477 -161T504 -173Q519 -173 531 -166T556 -139L597 -148Q591 -170 580 -184T554 -207T523 -219T492 -223Q485 -223 469 -221T435 -210T404 -183T391 -133Q391 -125 393 -113T406 -84T440 -46T505 0H76V714H590V606H201V419H561V317H201V108H597V0H559Z"  />
<glyph unicode="&#x119;" horiz-adv-x="556" d="M149 229Q149 199 157 171T183 122T226 89T288 76Q338 76 368 97T414 162H522Q513 120 491 87T438 32T368 -2Q351 -7 333 -10Q314 -26 300 -39Q282 -57 272 -72T257 -101T253 -129Q253 -149 265 -161T292 -173Q307 -173 319 -166T344 -139L385 -148Q379 -170 368 -184T342 -207T311 -219T280 -223Q273 -223 257 -221T223 -210T192 -183T179 -133Q179 -125 181 -113T194 -84T228 -46Q244 -31 270 -13Q220 -11 180 6Q133 26 101 62T52 148T35 258Q35 313 52 362T102 449T181 509T285 531Q346 531 394 506T475 438T521 342T529 229H149ZM415 304Q413 331 404 356T378 399T338 429T285 441Q255 441 231 431T189 402T161 358T149 304H415Z"  />
<glyph unicode="&#x11A;" horiz-adv-x="630" d="M76 714H590V606H201V419H561V317H201V108H597V0H76V714ZM387 783H276L169 926H261L331 837L402 926H495L387 783Z"  />
<glyph unicode="&#x11B;" horiz-adv-x="556" d="M415 304Q413 331 404 356T378 399T338 429T285 441Q255 441 231 431T189 402T161 358T149 304H415ZM149 229Q149 199 157 171T183 122T226 89T288 76Q338 76 368 97T414 162H522Q513 120 491 87T438 32T369 -2T288 -14Q227 -14 180 6T101 62T52 148T35 258Q35 313 52 362T102 449T181 509T285 531Q346 531 394 506T475 438T521 342T529 229H149ZM338 589H227L120 732H212L282 643L353 732H446L338 589Z"  />
<glyph unicode="&#x11C;" horiz-adv-x="759" d="M699 0H619L600 84Q550 27 500 5T385 -17Q305 -17 242 12T134 93T67 212T43 357Q43 433 66 501T134 620T241 701T385 731Q443 731 495 716T589 670T657 593T691 487H569Q564 522 548 548T506 593T450 620T385 629Q328 629 287 606T219 545T181 457T168 357Q168 306 180 257T219 170T286 108T385 85Q433 84 470 97T532 136T571 199T585 281H395V376H699V0ZM318 783H226L333 926H444L552 783H459L388 873L318 783Z"  />
<glyph unicode="&#x11D;" horiz-adv-x="593" d="M538 27Q538 -90 473 -147T284 -205Q245 -205 206 -197T134 -170T79 -120T53 -44H167Q172 -68 184 -83T212 -106T249 -117T291 -120Q360 -120 392 -86T424 12V91H422Q398 48 357 24T267 0Q205 0 162 21T90 80T48 167T35 272Q35 324 51 371T97 453T170 510T269 531Q318 531 359 511T422 446H424V517H538V27ZM285 90Q323 90 349 105T392 146T416 204T424 270Q424 303 416 334T392 389T349 427T285 441Q247 441 221 425T179 384T156 326T149 261Q149 229 157 199T181 144T223 105T285 90ZM233 589H141L248 732H359L467 589H374L303 679L233 589Z"  />
<glyph unicode="&#x11E;" horiz-adv-x="759" d="M699 0H619L600 84Q550 27 500 5T385 -17Q305 -17 242 12T134 93T67 212T43 357Q43 433 66 501T134 620T241 701T385 731Q443 731 495 716T589 670T657 593T691 487H569Q564 522 548 548T506 593T450 620T385 629Q328 629 287 606T219 545T181 457T168 357Q168 306 180 257T219 170T286 108T385 85Q433 84 470 97T532 136T571 199T585 281H395V376H699V0ZM286 925Q294 883 323 866T393 849Q431 849 458 868T494 925H551Q543 854 499 819T385 784Q316 784 275 820T228 925H286Z"  />
<glyph unicode="&#x11F;" horiz-adv-x="593" d="M538 27Q538 -90 473 -147T284 -205Q245 -205 206 -197T134 -170T79 -120T53 -44H167Q172 -68 184 -83T212 -106T249 -117T291 -120Q360 -120 392 -86T424 12V91H422Q398 48 357 24T267 0Q205 0 162 21T90 80T48 167T35 272Q35 324 51 371T97 453T170 510T269 531Q318 531 359 511T422 446H424V517H538V27ZM285 90Q323 90 349 105T392 146T416 204T424 270Q424 303 416 334T392 389T349 427T285 441Q247 441 221 425T179 384T156 326T149 261Q149 229 157 199T181 144T223 105T285 90ZM190 731Q198 689 227 672T297 655Q335 655 362 674T398 731H455Q447 660 403 625T289 590Q220 590 179 626T132 731H190Z"  />
<glyph unicode="&#x120;" horiz-adv-x="759" d="M699 0H619L600 84Q550 27 500 5T385 -17Q305 -17 242 12T134 93T67 212T43 357Q43 433 66 501T134 620T241 701T385 731Q443 731 495 716T589 670T657 593T691 487H569Q564 522 548 548T506 593T450 620T385 629Q328 629 287 606T219 545T181 457T168 357Q168 306 180 257T219 170T286 108T385 85Q433 84 470 97T532 136T571 199T585 281H395V376H699V0ZM329 796V904H443V796H329Z"  />
<glyph unicode="&#x121;" horiz-adv-x="593" d="M538 27Q538 -90 473 -147T284 -205Q245 -205 206 -197T134 -170T79 -120T53 -44H167Q172 -68 184 -83T212 -106T249 -117T291 -120Q360 -120 392 -86T424 12V91H422Q398 48 357 24T267 0Q205 0 162 21T90 80T48 167T35 272Q35 324 51 371T97 453T170 510T269 531Q318 531 359 511T422 446H424V517H538V27ZM285 90Q323 90 349 105T392 146T416 204T424 270Q424 303 416 334T392 389T349 427T285 441Q247 441 221 425T179 384T156 326T149 261Q149 229 157 199T181 144T223 105T285 90ZM237 602V710H351V602H237Z"  />
<glyph unicode="&#x122;" horiz-adv-x="759" d="M699 0H619L600 84Q550 27 500 5T385 -17Q305 -17 242 12T134 93T67 212T43 357Q43 433 66 501T134 620T241 701T385 731Q443 731 495 716T589 670T657 593T691 487H569Q564 522 548 548T506 593T450 620T385 629Q328 629 287 606T219 545T181 457T168 357Q168 306 180 257T219 170T286 108T385 85Q433 84 470 97T532 136T571 199T585 281H395V376H699V0ZM320 -50H451V-139Q451 -159 441 -178T407 -209T335 -223V-185Q356 -182 366 -174T380 -149H320V-50Z"  />
<glyph unicode="&#x123;" horiz-adv-x="593" d="M538 27Q538 -90 473 -147T284 -205Q245 -205 206 -197T134 -170T79 -120T53 -44H167Q172 -68 184 -83T212 -106T249 -117T291 -120Q360 -120 392 -86T424 12V91H422Q398 48 357 24T267 0Q205 0 162 21T90 80T48 167T35 272Q35 324 51 371T97 453T170 510T269 531Q318 531 359 511T422 446H424V517H538V27ZM285 90Q323 90 349 105T392 146T416 204T424 270Q424 303 416 334T392 389T349 427T285 441Q247 441 221 425T179 384T156 326T149 261Q149 229 157 199T181 144T223 105T285 90ZM361 615H230V704Q230 724 240 743T274 774T346 788V750Q325 747 315 739T301 714H361V615Z"  />
<glyph unicode="&#x124;" horiz-adv-x="722" d="M73 714H198V430H523V714H648V0H523V322H198V0H73V714ZM292 783H200L307 926H418L526 783H433L362 873L292 783Z"  />
<glyph unicode="&#x125;" horiz-adv-x="574" d="M60 714H174V449H176Q197 484 238 507T331 531Q416 531 465 487T514 355V0H400V325Q398 386 374 413T299 441Q270 441 247 431T208 402T183 358T174 305V0H60V714ZM216 783H124L231 926H342L450 783H357L286 873L216 783Z"  />
<glyph unicode="&#x126;" horiz-adv-x="722" d="M73 714H198V542H523V714H648V0H523V297H198V0H73V714ZM523 405V477H198V405H523Z"  />
<glyph unicode="&#x127;" horiz-adv-x="584" d="M70 714H184V649H310V584H184V449H186Q207 484 248 507T341 531Q426 531 475 487T524 355V0H410V325Q408 386 384 413T309 441Q280 441 257 431T218 402T193 358T184 305V0H70V584H-6V649H70V714Z"  />
<glyph unicode="&#x128;" horiz-adv-x="278" d="M76 714H201V0H76V714ZM316 914Q312 890 305 869T283 833Q270 817 251 808T205 799Q188 799 169 804T131 818Q108 828 94 832T63 836Q45 836 35 826T20 795H-37Q-34 814 -26 834T-5 870T26 897T67 908Q86 908 101 905T148 888Q169 879 182 875T210 870Q232 870 243 882T260 914H316Z"  />
<glyph unicode="&#x129;" horiz-adv-x="241" d="M63 0V517H177V0H63ZM298 720Q294 696 287 675T265 639Q252 623 233 614T187 605Q170 605 151 610T113 624Q90 634 76 638T45 642Q27 642 17 632T2 601H-55Q-52 620 -44 640T-23 676T8 703T49 714Q68 714 83 711T130 694Q151 685 164 681T192 676Q214 676 225 688T242 720H298Z"  />
<glyph unicode="&#x12A;" horiz-adv-x="278" d="M76 714H201V0H76V714ZM-6 818V883H282V818H-6Z"  />
<glyph unicode="&#x12B;" horiz-adv-x="241" d="M63 0V517H177V0H63ZM-23 624V689H265V624H-23Z"  />
<glyph unicode="&#x12E;" horiz-adv-x="278" d="M201 0Q176 -22 160 -39T134 -72T121 -101T117 -129Q117 -149 127 -161T152 -173Q165 -173 176 -166T199 -139L236 -148Q230 -170 220 -184T196 -207T169 -219T141 -223Q135 -223 120 -221T90 -210T62 -183T50 -133Q50 -125 52 -113T64 -84T94 -46T153 0H76V714H201V0Z"  />
<glyph unicode="&#x12F;" horiz-adv-x="241" d="M176 0Q151 -22 134 -39T108 -72T95 -101T91 -129Q91 -149 102 -161T126 -173Q140 -173 151 -166T173 -139L210 -148Q205 -170 195 -184T171 -207T144 -219T116 -223Q109 -223 94 -221T64 -210T36 -183T24 -133Q24 -125 26 -113T38 -84T68 -46T127 0H63V517H177V0H176ZM63 714H177V606H63V714Z"  />
<glyph unicode="&#x130;" horiz-adv-x="278" d="M76 714H201V0H76V714ZM82 796V904H196V796H82Z"  />
<glyph unicode="&#x131;" horiz-adv-x="241" d="M63 0V517H177V0H63Z"  />
<glyph unicode="&#x132;" horiz-adv-x="821" d="M76 714H201V0H76V714ZM745 230Q745 183 737 139T705 60T634 4T510 -17Q453 -17 413 0T347 48T309 121T297 212V250H422V213Q422 152 442 119T520 85Q550 85 569 94T600 120T616 164T620 223V714H745V230Z"  />
<glyph unicode="&#x133;" horiz-adv-x="474" d="M63 714H177V606H63V714ZM63 517H177V0H63V517ZM296 714H410V606H296V714ZM296 517H410V-44Q410 -121 376 -163T262 -205Q245 -205 234 -204T211 -201V-111Q222 -113 232 -114T250 -115Q281 -115 288 -96T296 -39V517Z"  />
<glyph unicode="&#x134;" horiz-adv-x="537" d="M461 230Q461 183 453 139T421 60T350 4T226 -17Q169 -17 129 0T63 48T25 121T13 212V250H138V213Q138 152 158 119T236 85Q266 85 285 94T316 120T332 164T336 223V714H461V230ZM323 783H231L338 926H449L557 783H464L393 873L323 783Z"  />
<glyph unicode="&#x135;" horiz-adv-x="241" d="M63 517H177V-44Q177 -121 143 -163T29 -205Q12 -205 1 -204T-22 -201V-111Q-11 -113 -1 -114T17 -115Q48 -115 55 -96T63 -39V517ZM50 589H-42L65 732H176L284 589H191L120 679L50 589Z"  />
<glyph unicode="&#x136;" horiz-adv-x="685" d="M76 714H201V389L519 714H673L388 429L693 0H537L303 341L201 240V0H76V714ZM276 -50H407V-139Q407 -159 397 -178T363 -209T291 -223V-185Q312 -182 322 -174T336 -149H276V-50Z"  />
<glyph unicode="&#x137;" horiz-adv-x="537" d="M63 714H177V308L383 517H523L325 327L542 0H403L245 251L177 185V0H63V714ZM214 -50H345V-139Q345 -159 335 -178T301 -209T229 -223V-185Q250 -182 260 -174T274 -149H214V-50Z"  />
<glyph unicode="&#x139;" horiz-adv-x="574" d="M76 714H201V108H564V0H76V714ZM186 926H321L179 783H96L186 926Z"  />
<glyph unicode="&#x13A;" horiz-adv-x="241" d="M63 714H177V0H63V714ZM153 926H288L146 783H63L153 926Z"  />
<glyph unicode="&#x13B;" horiz-adv-x="574" d="M76 714H201V108H564V0H76V714ZM256 -50H387V-139Q387 -159 377 -178T343 -209T271 -223V-185Q292 -182 302 -174T316 -149H256V-50Z"  />
<glyph unicode="&#x13C;" horiz-adv-x="241" d="M63 714H177V0H63V714ZM56 -50H187V-139Q187 -159 177 -178T143 -209T71 -223V-185Q92 -182 102 -174T116 -149H56V-50Z"  />
<glyph unicode="&#x13D;" horiz-adv-x="574" d="M76 714H201V108H564V0H76V714ZM328 714H453L372 571H296L328 714Z"  />
<glyph unicode="&#x13E;" horiz-adv-x="319" d="M63 714H177V0H63V714ZM260 714H385L304 571H228L260 714Z"  />
<glyph unicode="&#x13F;" horiz-adv-x="574" d="M76 714H201V108H564V0H76V714ZM322 411V519H436V411H322Z"  />
<glyph unicode="&#x140;" horiz-adv-x="363" d="M63 714H177V0H63V714ZM231 411V519H345V411H231Z"  />
<glyph unicode="&#x141;" horiz-adv-x="574" d="M76 714H201V408L401 550V457L201 315V108H564V0H76V227L0 173V263L76 317V714Z"  />
<glyph unicode="&#x142;" horiz-adv-x="241" d="M63 319L-5 266V337L63 390V714H177V479L245 533V461L177 407V0H63V319Z"  />
<glyph unicode="&#x143;" horiz-adv-x="722" d="M71 714H203L529 188H531V714H650V0H518L193 525H190V0H71V714ZM399 926H534L392 783H309L399 926Z"  />
<glyph unicode="&#x144;" horiz-adv-x="574" d="M60 517H168V441L170 439Q196 482 238 506T331 531Q416 531 465 487T514 355V0H400V325Q398 386 374 413T299 441Q270 441 247 431T208 402T183 358T174 305V0H60V517ZM320 732H455L313 589H230L320 732Z"  />
<glyph unicode="&#x145;" horiz-adv-x="722" d="M71 714H203L529 188H531V714H650V0H518L193 525H190V0H71V714ZM285 -50H416V-139Q416 -159 406 -178T372 -209T300 -223V-185Q321 -182 331 -174T345 -149H285V-50Z"  />
<glyph unicode="&#x146;" horiz-adv-x="574" d="M60 517H168V441L170 439Q196 482 238 506T331 531Q416 531 465 487T514 355V0H400V325Q398 386 374 413T299 441Q270 441 247 431T208 402T183 358T174 305V0H60V517ZM220 -50H351V-139Q351 -159 341 -178T307 -209T235 -223V-185Q256 -182 266 -174T280 -149H220V-50Z"  />
<glyph unicode="&#x147;" horiz-adv-x="722" d="M71 714H203L529 188H531V714H650V0H518L193 525H190V0H71V714ZM413 783H302L195 926H287L357 837L428 926H521L413 783Z"  />
<glyph unicode="&#x148;" horiz-adv-x="574" d="M60 517H168V441L170 439Q196 482 238 506T331 531Q416 531 465 487T514 355V0H400V325Q398 386 374 413T299 441Q270 441 247 431T208 402T183 358T174 305V0H60V517ZM344 589H233L126 732H218L288 643L359 732H452L344 589Z"  />
<glyph unicode="&#x149;" horiz-adv-x="574" d="M60 517H168V441L170 439Q196 482 238 506T331 531Q416 531 465 487T514 355V0H400V325Q398 386 374 413T299 441Q270 441 247 431T208 402T183 358T174 305V0H60V517ZM-17 813H114V724Q114 704 104 685T70 654T-2 640V678Q19 681 29 689T43 714H-17V813Z"  />
<glyph unicode="&#x14C;" horiz-adv-x="760" d="M380 629Q323 629 282 606T214 545T176 457T163 357Q163 306 175 257T214 170T281 108T380 85Q437 85 478 108T546 169T584 257T597 357Q597 408 585 457T546 544T479 606T380 629ZM380 731Q460 731 523 701T631 620T698 501T722 357Q722 280 699 212T631 93T524 13T380 -17Q300 -17 237 12T129 93T62 212T38 357Q38 433 61 501T129 620T236 701T380 731ZM239 818V883H527V818H239Z"  />
<glyph unicode="&#x14D;" horiz-adv-x="593" d="M297 -14Q235 -14 187 6T105 63T54 149T36 259Q36 318 53 368T104 454T186 510T297 531Q359 531 407 511T489 454T540 368T558 259Q558 199 541 149T490 63T408 7T297 -14ZM297 76Q335 76 363 92T409 134T435 192T444 259Q444 292 436 325T409 383T363 425T297 441Q259 441 231 425T185 384T159 325T150 259Q150 225 158 193T185 134T231 92T297 76ZM156 624V689H444V624H156Z"  />
<glyph unicode="&#x14E;" horiz-adv-x="760" d="M380 629Q323 629 282 606T214 545T176 457T163 357Q163 306 175 257T214 170T281 108T380 85Q437 85 478 108T546 169T584 257T597 357Q597 408 585 457T546 544T479 606T380 629ZM380 731Q460 731 523 701T631 620T698 501T722 357Q722 280 699 212T631 93T524 13T380 -17Q300 -17 237 12T129 93T62 212T38 357Q38 433 61 501T129 620T236 701T380 731ZM275 925Q283 883 312 866T382 849Q420 849 447 868T483 925H540Q532 854 488 819T374 784Q305 784 264 820T217 925H275Z"  />
<glyph unicode="&#x14F;" horiz-adv-x="593" d="M297 -14Q235 -14 187 6T105 63T54 149T36 259Q36 318 53 368T104 454T186 510T297 531Q359 531 407 511T489 454T540 368T558 259Q558 199 541 149T490 63T408 7T297 -14ZM297 76Q335 76 363 92T409 134T435 192T444 259Q444 292 436 325T409 383T363 425T297 441Q259 441 231 425T185 384T159 325T150 259Q150 225 158 193T185 134T231 92T297 76ZM195 731Q203 689 232 672T302 655Q340 655 367 674T403 731H460Q452 660 408 625T294 590Q225 590 184 626T137 731H195Z"  />
<glyph unicode="&#x150;" horiz-adv-x="760" d="M380 629Q323 629 282 606T214 545T176 457T163 357Q163 306 175 257T214 170T281 108T380 85Q437 85 478 108T546 169T584 257T597 357Q597 408 585 457T546 544T479 606T380 629ZM380 731Q460 731 523 701T631 620T698 501T722 357Q722 280 699 212T631 93T524 13T380 -17Q300 -17 237 12T129 93T62 212T38 357Q38 433 61 501T129 620T236 701T380 731ZM525 926H661L517 783H435L525 926ZM326 926H462L318 783H236L326 926Z"  />
<glyph unicode="&#x151;" horiz-adv-x="593" d="M297 -14Q235 -14 187 6T105 63T54 149T36 259Q36 318 53 368T104 454T186 510T297 531Q359 531 407 511T489 454T540 368T558 259Q558 199 541 149T490 63T408 7T297 -14ZM297 76Q335 76 363 92T409 134T435 192T444 259Q444 292 436 325T409 383T363 425T297 441Q259 441 231 425T185 384T159 325T150 259Q150 225 158 193T185 134T231 92T297 76ZM438 732H574L430 589H348L438 732ZM239 732H375L231 589H149L239 732Z"  />
<glyph unicode="&#x152;" horiz-adv-x="1093" d="M671 419H1014V317H671V108H1052V0H557V64Q521 22 472 3T369 -17Q289 -17 228 13T126 94T63 212T41 354Q41 429 63 497T129 618T234 700T377 731Q431 731 475 715T557 657V714H1045V606H671V419ZM552 485Q552 513 542 539T510 585T456 617T381 629Q324 629 284 605T217 543T179 455T166 356Q166 306 178 258T217 171T283 109T381 85Q422 85 454 97T507 129T540 173T552 219V485Z"  />
<glyph unicode="&#x153;" horiz-adv-x="907" d="M281 441Q245 441 220 425T179 383T156 325T149 262Q149 228 155 195T176 136T216 93T281 76Q320 76 345 92T386 135T407 195T413 262Q413 293 406 325T384 382T343 424T281 441ZM635 441Q606 441 583 430T542 400T516 356T505 304H769Q765 367 733 404T635 441ZM505 229Q505 197 513 169T538 121T580 88T640 76Q661 76 681 81T718 98T747 125T763 164H877Q856 76 794 31T642 -14Q613 -14 586 -10T535 6T491 35T457 81Q428 26 380 6T273 -14Q213 -14 169 8T94 67T50 154T35 260Q35 315 51 364T99 451T177 509T282 531Q309 531 335 527T385 512T429 486T463 444Q492 490 541 510T644 531Q711 531 757 507T831 441T871 344T883 229H505Z"  />
<glyph unicode="&#x154;" horiz-adv-x="704" d="M76 714H417Q535 714 594 663T653 521Q653 470 638 437T603 383T564 353T535 341V339Q551 337 569 329T604 304T630 258T641 188Q641 125 650 74T680 0H546Q532 23 530 51T527 105Q527 154 521 189T499 248T456 283T385 294H201V0H76V714ZM201 389H406Q466 389 497 417T528 503Q528 537 518 558T491 592T451 608T404 612H201V389ZM376 926H511L369 783H286L376 926Z"  />
<glyph unicode="&#x155;" horiz-adv-x="352" d="M60 517H167V417H169Q174 438 188 458T223 494T269 521T320 531Q340 531 347 530T363 528V418Q351 420 339 421T314 423Q285 423 260 412T215 378T185 322T174 246V0H60V517ZM172 732H307L165 589H82L172 732Z"  />
<glyph unicode="&#x156;" horiz-adv-x="704" d="M76 714H417Q535 714 594 663T653 521Q653 470 638 437T603 383T564 353T535 341V339Q551 337 569 329T604 304T630 258T641 188Q641 125 650 74T680 0H546Q532 23 530 51T527 105Q527 154 521 189T499 248T456 283T385 294H201V0H76V714ZM201 389H406Q466 389 497 417T528 503Q528 537 518 558T491 592T451 608T404 612H201V389ZM289 -50H420V-139Q420 -159 410 -178T376 -209T304 -223V-185Q325 -182 335 -174T349 -149H289V-50Z"  />
<glyph unicode="&#x157;" horiz-adv-x="352" d="M60 517H167V417H169Q174 438 188 458T223 494T269 521T320 531Q340 531 347 530T363 528V418Q351 420 339 421T314 423Q285 423 260 412T215 378T185 322T174 246V0H60V517ZM53 -50H184V-139Q184 -159 174 -178T140 -209T68 -223V-185Q89 -182 99 -174T113 -149H53V-50Z"  />
<glyph unicode="&#x158;" horiz-adv-x="704" d="M76 714H417Q535 714 594 663T653 521Q653 470 638 437T603 383T564 353T535 341V339Q551 337 569 329T604 304T630 258T641 188Q641 125 650 74T680 0H546Q532 23 530 51T527 105Q527 154 521 189T499 248T456 283T385 294H201V0H76V714ZM201 389H406Q466 389 497 417T528 503Q528 537 518 558T491 592T451 608T404 612H201V389ZM391 783H280L173 926H265L335 837L406 926H499L391 783Z"  />
<glyph unicode="&#x159;" horiz-adv-x="352" d="M60 517H167V417H169Q174 438 188 458T223 494T269 521T320 531Q340 531 347 530T363 528V418Q351 420 339 421T314 423Q285 423 260 412T215 378T185 322T174 246V0H60V517ZM266 589H155L48 732H140L210 643L281 732H374L266 589Z"  />
<glyph unicode="&#x15A;" horiz-adv-x="648" d="M158 238Q158 197 172 168T211 121T268 94T339 85Q380 85 409 94T456 119T482 153T490 193Q490 234 472 253T431 281Q393 295 343 307T218 340Q172 352 142 371T93 415T68 466T60 521Q60 575 82 614T142 680T226 718T321 731Q377 731 426 717T513 673T573 602T595 503H470Q465 572 423 600T316 629Q294 629 271 625T229 610T198 581T185 536Q185 498 208 477T270 444Q274 443 301 436T363 419T429 402T476 389Q511 378 537 359T580 316T606 263T615 207Q615 147 591 105T526 35T435 -4T331 -17Q270 -17 216 -2T122 44T58 123T33 238H158ZM366 926H501L359 783H276L366 926Z"  />
<glyph unicode="&#x15B;" horiz-adv-x="519" d="M146 166Q151 116 184 96T263 76Q279 76 299 78T338 88T367 108T378 144T362 180T324 202T270 217T209 230Q177 237 148 247T95 274T57 317T43 383Q43 425 63 453T115 499T185 524T259 531Q299 531 335 523T401 495T450 446T475 372H356Q348 413 319 427T251 441Q239 441 223 439T192 432T167 416T157 388Q157 367 171 354T209 333T263 318T325 305Q356 298 386 288T439 261T477 218T492 154Q492 108 471 76T417 24T342 -5T261 -14Q212 -14 171 -3T99 30T51 86T32 166H146ZM282 732H417L275 589H192L282 732Z"  />
<glyph unicode="&#x15C;" horiz-adv-x="648" d="M158 238Q158 197 172 168T211 121T268 94T339 85Q380 85 409 94T456 119T482 153T490 193Q490 234 472 253T431 281Q393 295 343 307T218 340Q172 352 142 371T93 415T68 466T60 521Q60 575 82 614T142 680T226 718T321 731Q377 731 426 717T513 673T573 602T595 503H470Q465 572 423 600T316 629Q294 629 271 625T229 610T198 581T185 536Q185 498 208 477T270 444Q274 443 301 436T363 419T429 402T476 389Q511 378 537 359T580 316T606 263T615 207Q615 147 591 105T526 35T435 -4T331 -17Q270 -17 216 -2T122 44T58 123T33 238H158ZM260 783H168L275 926H386L494 783H401L330 873L260 783Z"  />
<glyph unicode="&#x15D;" horiz-adv-x="519" d="M146 166Q151 116 184 96T263 76Q279 76 299 78T338 88T367 108T378 144T362 180T324 202T270 217T209 230Q177 237 148 247T95 274T57 317T43 383Q43 425 63 453T115 499T185 524T259 531Q299 531 335 523T401 495T450 446T475 372H356Q348 413 319 427T251 441Q239 441 223 439T192 432T167 416T157 388Q157 367 171 354T209 333T263 318T325 305Q356 298 386 288T439 261T477 218T492 154Q492 108 471 76T417 24T342 -5T261 -14Q212 -14 171 -3T99 30T51 86T32 166H146ZM196 589H104L211 732H322L430 589H337L266 679L196 589Z"  />
<glyph unicode="&#x15E;" horiz-adv-x="648" d="M218 -160Q236 -168 251 -172T283 -176Q293 -176 304 -175T324 -169T338 -156T344 -135Q344 -116 330 -107T298 -97Q276 -97 259 -107L237 -88L291 -15Q252 -12 216 -2Q162 13 122 44T58 123T33 238H158Q158 197 172 168T211 121T268 94T339 85Q380 85 409 94T456 119T482 153T490 193Q490 234 472 253T431 281Q393 295 343 307T218 340Q172 352 142 371T93 415T68 466T60 521Q60 575 82 614T142 680T226 718T321 731Q377 731 426 717T513 673T573 602T595 503H470Q465 572 423 600T316 629Q294 629 271 625T229 610T198 581T185 536Q185 498 208 477T270 444Q274 443 301 436T363 419T429 402T476 389Q511 378 537 359T580 316T606 263T615 207Q615 147 591 105T526 35T435 -4Q387 -16 337 -17L305 -59L306 -60Q312 -58 320 -57T339 -56Q354 -56 369 -60T396 -74T416 -98T424 -131Q424 -157 413 -174T385 -201T347 -217T303 -223Q275 -223 249 -218T200 -200L218 -160Z"  />
<glyph unicode="&#x15F;" horiz-adv-x="519" d="M156 -160Q174 -168 189 -172T221 -176Q231 -176 242 -175T262 -169T276 -156T282 -135Q282 -116 268 -107T236 -97Q214 -97 197 -107L175 -88L231 -13Q199 -10 170 -3Q129 8 99 30T51 86T32 166H146Q151 116 184 96T263 76Q279 76 299 78T338 88T367 108T378 144T362 180T324 202T270 217T209 230Q177 237 148 247T95 274T57 317T43 383Q43 425 63 453T115 499T185 524T259 531Q299 531 335 523T401 495T450 446T475 372H356Q348 413 319 427T251 441Q239 441 223 439T192 432T167 416T157 388Q157 367 171 354T209 333T263 318T325 305Q356 298 386 288T439 261T477 218T492 154Q492 108 471 76T417 24T342 -5Q310 -12 278 -13L243 -59L244 -60Q250 -58 258 -57T277 -56Q292 -56 307 -60T334 -74T354 -98T362 -131Q362 -157 351 -174T323 -201T285 -217T241 -223Q213 -223 187 -218T138 -200L156 -160Z"  />
<glyph unicode="&#x160;" horiz-adv-x="648" d="M158 238Q158 197 172 168T211 121T268 94T339 85Q380 85 409 94T456 119T482 153T490 193Q490 234 472 253T431 281Q393 295 343 307T218 340Q172 352 142 371T93 415T68 466T60 521Q60 575 82 614T142 680T226 718T321 731Q377 731 426 717T513 673T573 602T595 503H470Q465 572 423 600T316 629Q294 629 271 625T229 610T198 581T185 536Q185 498 208 477T270 444Q274 443 301 436T363 419T429 402T476 389Q511 378 537 359T580 316T606 263T615 207Q615 147 591 105T526 35T435 -4T331 -17Q270 -17 216 -2T122 44T58 123T33 238H158ZM383 783H272L165 926H257L327 837L398 926H491L383 783Z"  />
<glyph unicode="&#x161;" horiz-adv-x="519" d="M146 166Q151 116 184 96T263 76Q279 76 299 78T338 88T367 108T378 144T362 180T324 202T270 217T209 230Q177 237 148 247T95 274T57 317T43 383Q43 425 63 453T115 499T185 524T259 531Q299 531 335 523T401 495T450 446T475 372H356Q348 413 319 427T251 441Q239 441 223 439T192 432T167 416T157 388Q157 367 171 354T209 333T263 318T325 305Q356 298 386 288T439 261T477 218T492 154Q492 108 471 76T417 24T342 -5T261 -14Q212 -14 171 -3T99 30T51 86T32 166H146ZM319 589H208L101 732H193L263 643L334 732H427L319 589Z"  />
<glyph unicode="&#x162;" horiz-adv-x="593" d="M8 714H586V606H359V0H234V606H8V714ZM230 -50H361V-139Q361 -159 351 -178T317 -209T245 -223V-185Q266 -182 276 -174T290 -149H230V-50Z"  />
<glyph unicode="&#x163;" horiz-adv-x="333" d="M8 517H94V672H208V517H311V432H208V156Q208 138 209 125T216 103T233 90T263 85Q275 85 287 85T311 89V1Q292 -1 274 -3T237 -5Q192 -5 165 3T122 28T101 70T94 127V432H8V517ZM139 -50H270V-139Q270 -159 260 -178T226 -209T154 -223V-185Q175 -182 185 -174T199 -149H139V-50Z"  />
<glyph unicode="&#x164;" horiz-adv-x="593" d="M8 714H586V606H359V0H234V606H8V714ZM353 783H242L135 926H227L297 837L368 926H461L353 783Z"  />
<glyph unicode="&#x165;" horiz-adv-x="391" d="M332 714H457L376 571H300L332 714ZM8 517H94V672H208V517H311V432H208V156Q208 138 209 125T216 103T233 90T263 85Q275 85 287 85T311 89V1Q292 -1 274 -3T237 -5Q192 -5 165 3T122 28T101 70T94 127V432H8V517Z"  />
<glyph unicode="&#x166;" horiz-adv-x="593" d="M8 714H586V606H359V468H523V403H359V0H234V403H75V468H234V606H8V714Z"  />
<glyph unicode="&#x167;" horiz-adv-x="333" d="M8 517H94V672H208V517H311V432H208V346H320V281H208V156Q208 138 209 125T216 103T233 90T263 85Q275 85 287 85T311 89V1Q292 -1 274 -3T237 -5Q192 -5 165 3T122 28T101 70T94 127V281H0V346H94V432H8V517Z"  />
<glyph unicode="&#x168;" horiz-adv-x="722" d="M68 714H193V298Q193 262 196 225T216 159T266 110T361 91Q422 91 455 110T505 158T525 225T529 298V714H654V257Q654 188 633 137T574 52T481 0T361 -17Q295 -17 241 0T149 51T89 137T68 257V714ZM540 914Q536 890 529 869T507 833Q494 817 475 808T429 799Q412 799 393 804T355 818Q332 828 318 832T287 836Q269 836 259 826T244 795H187Q190 814 198 834T219 870T250 897T291 908Q310 908 325 905T372 888Q393 879 406 875T434 870Q456 870 467 882T484 914H540Z"  />
<glyph unicode="&#x169;" horiz-adv-x="574" d="M514 0H402V72H400Q379 33 338 10T253 -14Q151 -14 106 36T60 189V517H174V200Q174 132 200 104T273 76Q309 76 333 87T372 116T393 161T400 217V517H514V0ZM465 720Q461 696 454 675T432 639Q419 623 400 614T354 605Q337 605 318 610T280 624Q257 634 243 638T212 642Q194 642 184 632T169 601H112Q115 620 123 640T144 676T175 703T216 714Q235 714 250 711T297 694Q318 685 331 681T359 676Q381 676 392 688T409 720H465Z"  />
<glyph unicode="&#x16A;" horiz-adv-x="722" d="M68 714H193V298Q193 262 196 225T216 159T266 110T361 91Q422 91 455 110T505 158T525 225T529 298V714H654V257Q654 188 633 137T574 52T481 0T361 -17Q295 -17 241 0T149 51T89 137T68 257V714ZM218 818V883H506V818H218Z"  />
<glyph unicode="&#x16B;" horiz-adv-x="574" d="M514 0H402V72H400Q379 33 338 10T253 -14Q151 -14 106 36T60 189V517H174V200Q174 132 200 104T273 76Q309 76 333 87T372 116T393 161T400 217V517H514V0ZM148 624V689H436V624H148Z"  />
<glyph unicode="&#x16C;" horiz-adv-x="722" d="M68 714H193V298Q193 262 196 225T216 159T266 110T361 91Q422 91 455 110T505 158T525 225T529 298V714H654V257Q654 188 633 137T574 52T481 0T361 -17Q295 -17 241 0T149 51T89 137T68 257V714ZM259 925Q267 883 296 866T366 849Q404 849 431 868T467 925H524Q516 854 472 819T358 784Q289 784 248 820T201 925H259Z"  />
<glyph unicode="&#x16D;" horiz-adv-x="574" d="M514 0H402V72H400Q379 33 338 10T253 -14Q151 -14 106 36T60 189V517H174V200Q174 132 200 104T273 76Q309 76 333 87T372 116T393 161T400 217V517H514V0ZM189 731Q197 689 226 672T296 655Q334 655 361 674T397 731H454Q446 660 402 625T288 590Q219 590 178 626T131 731H189Z"  />
<glyph unicode="&#x16E;" horiz-adv-x="722" d="M68 714H193V298Q193 262 196 225T216 159T266 110T361 91Q422 91 455 110T505 158T525 225T529 298V714H654V257Q654 188 633 137T574 52T481 0T361 -17Q295 -17 241 0T149 51T89 137T68 257V714ZM303 854Q303 828 320 811T363 793Q389 793 406 810T423 854Q423 881 406 898T363 915Q338 915 321 898T303 854ZM363 751Q342 751 323 758T290 779T267 812T259 854Q259 877 267 896T290 929T323 950T363 957Q384 957 402 950T436 929T459 896T467 854Q467 831 459 812T436 780T403 759T363 751Z"  />
<glyph unicode="&#x16F;" horiz-adv-x="574" d="M514 0H402V72H400Q379 33 338 10T253 -14Q151 -14 106 36T60 189V517H174V200Q174 132 200 104T273 76Q309 76 333 87T372 116T393 161T400 217V517H514V0ZM232 674Q232 648 249 631T292 613Q318 613 335 630T352 674Q352 701 335 718T292 735Q267 735 250 718T232 674ZM292 571Q271 571 252 578T219 599T196 632T188 674Q188 697 196 716T219 749T252 770T292 777Q313 777 331 770T365 749T388 716T396 674Q396 651 388 632T365 600T332 579T292 571Z"  />
<glyph unicode="&#x170;" horiz-adv-x="722" d="M68 714H193V298Q193 262 196 225T216 159T266 110T361 91Q422 91 455 110T505 158T525 225T529 298V714H654V257Q654 188 633 137T574 52T481 0T361 -17Q295 -17 241 0T149 51T89 137T68 257V714ZM509 926H645L501 783H419L509 926ZM310 926H446L302 783H220L310 926Z"  />
<glyph unicode="&#x171;" horiz-adv-x="574" d="M514 0H402V72H400Q379 33 338 10T253 -14Q151 -14 106 36T60 189V517H174V200Q174 132 200 104T273 76Q309 76 333 87T372 116T393 161T400 217V517H514V0ZM434 732H570L426 589H344L434 732ZM235 732H371L227 589H145L235 732Z"  />
<glyph unicode="&#x172;" horiz-adv-x="722" d="M68 714H193V298Q193 262 196 225T216 159T266 110T361 91Q422 91 455 110T505 158T525 225T529 298V714H654V257Q654 188 633 137T574 52T481 0Q443 -12 400 -15Q385 -28 373 -39Q355 -57 345 -72T330 -101T326 -129Q326 -149 338 -161T365 -173Q380 -173 392 -166T417 -139L458 -148Q452 -170 441 -184T415 -207T384 -219T353 -223Q346 -223 330 -221T296 -210T265 -183T252 -133Q252 -125 254 -113T267 -84T301 -46Q316 -32 339 -16Q286 -14 241 0Q187 17 149 51T89 137T68 257V714Z"  />
<glyph unicode="&#x173;" horiz-adv-x="574" d="M453 0Q427 -22 409 -39T381 -72T368 -101T364 -129Q364 -149 375 -161T401 -173Q415 -173 426 -166T450 -139L489 -148Q484 -170 473 -184T448 -207T419 -219T390 -223Q383 -223 368 -221T335 -210T306 -183T294 -133Q294 -125 295 -113T307 -84T340 -46T402 0V72H400Q379 33 338 10T253 -14Q151 -14 106 36T60 189V517H174V200Q174 132 200 104T273 76Q309 76 333 87T372 116T393 161T400 217V517H514V0H453Z"  />
<glyph unicode="&#x174;" horiz-adv-x="944" d="M6 714H133L262 168H264L408 714H536L676 168H678L811 714H938L741 0H614L471 546H469L323 0H194L6 714ZM402 783H310L417 926H528L636 783H543L472 873L402 783Z"  />
<glyph unicode="&#x175;" horiz-adv-x="778" d="M13 517H134L235 131H237L334 517H449L542 131H544L649 517H765L603 0H486L390 384H388L293 0H173L13 517ZM324 589H232L339 732H450L558 589H465L394 679L324 589Z"  />
<glyph unicode="&#x176;" horiz-adv-x="648" d="M262 280L-6 714H139L328 394L514 714H654L387 280V0H262V280ZM260 783H168L275 926H386L494 783H401L330 873L260 783Z"  />
<glyph unicode="&#x177;" horiz-adv-x="519" d="M3 517H128L263 131H265L396 517H515L314 -28Q300 -63 287 -95T254 -151T205 -190T131 -205Q91 -205 52 -199V-103Q66 -105 79 -107T106 -110Q126 -110 139 -105T160 -91T175 -68T186 -38L199 2L3 517ZM193 589H101L208 732H319L427 589H334L263 679L193 589Z"  />
<glyph unicode="&#x178;" horiz-adv-x="648" d="M262 280L-6 714H139L328 394L514 714H654L387 280V0H262V280ZM186 796V904H300V796H186ZM472 904V796H358V904H472Z"  />
<glyph unicode="&#x179;" horiz-adv-x="630" d="M55 714H598V619L182 108H608V0H23V102L439 606H55V714ZM360 926H495L353 783H270L360 926Z"  />
<glyph unicode="&#x17A;" horiz-adv-x="500" d="M42 517H462V437L166 90H477V0H22V80L308 427H42V517ZM295 732H430L288 589H205L295 732Z"  />
<glyph unicode="&#x17B;" horiz-adv-x="630" d="M55 714H598V619L182 108H608V0H23V102L439 606H55V714ZM266 796V904H380V796H266Z"  />
<glyph unicode="&#x17C;" horiz-adv-x="500" d="M42 517H462V437L166 90H477V0H22V80L308 427H42V517ZM195 602V710H309V602H195Z"  />
<glyph unicode="&#x17D;" horiz-adv-x="630" d="M55 714H598V619L182 108H608V0H23V102L439 606H55V714ZM378 783H267L160 926H252L322 837L393 926H486L378 783Z"  />
<glyph unicode="&#x17E;" horiz-adv-x="500" d="M42 517H462V437L166 90H477V0H22V80L308 427H42V517ZM308 589H197L90 732H182L252 643L323 732H416L308 589Z"  />
<glyph unicode="&#x192;" horiz-adv-x="556" d="M131 438H223L255 606Q272 673 318 702T431 731Q449 731 467 730T504 726L487 636Q476 638 467 639T446 641Q404 641 388 624T363 568L338 438H440L425 353H323L250 -28Q244 -57 229 -82T191 -127T140 -158T79 -170Q59 -170 40 -169T0 -165L15 -75Q27 -77 39 -78T63 -80Q90 -80 107 -69T132 -24L207 353H116L131 438Z"  />
<glyph unicode="&#x218;" horiz-adv-x="648" d="M158 238Q158 197 172 168T211 121T268 94T339 85Q380 85 409 94T456 119T482 153T490 193Q490 234 472 253T431 281Q393 295 343 307T218 340Q172 352 142 371T93 415T68 466T60 521Q60 575 82 614T142 680T226 718T321 731Q377 731 426 717T513 673T573 602T595 503H470Q465 572 423 600T316 629Q294 629 271 625T229 610T198 581T185 536Q185 498 208 477T270 444Q274 443 301 436T363 419T429 402T476 389Q511 378 537 359T580 316T606 263T615 207Q615 147 591 105T526 35T435 -4T331 -17Q270 -17 216 -2T122 44T58 123T33 238H158ZM258 -50H389V-139Q389 -159 379 -178T345 -209T273 -223V-185Q294 -182 304 -174T318 -149H258V-50Z"  />
<glyph unicode="&#x219;" horiz-adv-x="519" d="M146 166Q151 116 184 96T263 76Q279 76 299 78T338 88T367 108T378 144T362 180T324 202T270 217T209 230Q177 237 148 247T95 274T57 317T43 383Q43 425 63 453T115 499T185 524T259 531Q299 531 335 523T401 495T450 446T475 372H356Q348 413 319 427T251 441Q239 441 223 439T192 432T167 416T157 388Q157 367 171 354T209 333T263 318T325 305Q356 298 386 288T439 261T477 218T492 154Q492 108 471 76T417 24T342 -5T261 -14Q212 -14 171 -3T99 30T51 86T32 166H146ZM191 -50H322V-139Q322 -159 312 -178T278 -209T206 -223V-185Q227 -182 237 -174T251 -149H191V-50Z"  />
<glyph unicode="&#x21A;" horiz-adv-x="593" d="M8 714H586V606H359V0H234V606H8V714ZM230 -50H361V-139Q361 -159 351 -178T317 -209T245 -223V-185Q266 -182 276 -174T290 -149H230V-50Z"  />
<glyph unicode="&#x21B;" horiz-adv-x="333" d="M8 517H94V672H208V517H311V432H208V156Q208 138 209 125T216 103T233 90T263 85Q275 85 287 85T311 89V1Q292 -1 274 -3T237 -5Q192 -5 165 3T122 28T101 70T94 127V432H8V517ZM139 -50H270V-139Q270 -159 260 -178T226 -209T154 -223V-185Q175 -182 185 -174T199 -149H139V-50Z"  />
<glyph unicode="&#x2C6;" horiz-adv-x="241" d="M50 589H-42L65 732H176L284 589H191L120 679L50 589Z"  />
<glyph unicode="&#x2C7;" horiz-adv-x="241" d="M175 589H64L-43 732H49L119 643L190 732H283L175 589Z"  />
<glyph unicode="&#x2C9;" horiz-adv-x="241" d="M-23 624V689H265V624H-23Z"  />
<glyph unicode="&#x2D8;" horiz-adv-x="241" d="M17 731Q25 689 54 672T124 655Q162 655 189 674T225 731H282Q274 660 230 625T116 590Q47 590 6 626T-41 731H17Z"  />
<glyph unicode="&#x2D9;" horiz-adv-x="241" d="M64 602V710H178V602H64Z"  />
<glyph unicode="&#x2DA;" horiz-adv-x="241" d="M61 674Q61 648 78 631T121 613Q147 613 164 630T181 674Q181 701 164 718T121 735Q96 735 79 718T61 674ZM121 571Q100 571 81 578T48 599T25 632T17 674Q17 697 25 716T48 749T81 770T121 777Q142 777 160 770T194 749T217 716T225 674Q225 651 217 632T194 600T161 579T121 571Z"  />
<glyph unicode="&#x2DB;" horiz-adv-x="241" d="M216 0Q188 -22 170 -39T141 -72T126 -101T122 -129Q122 -149 134 -161T161 -173Q176 -173 188 -166T213 -139L254 -148Q248 -170 237 -184T211 -207T180 -219T149 -223Q142 -223 126 -221T92 -210T61 -183T48 -133Q48 -125 50 -113T63 -84T97 -46T162 0H216Z"  />
<glyph unicode="&#x2DC;" horiz-adv-x="241" d="M297 720Q293 696 286 675T264 639Q251 623 232 614T186 605Q169 605 150 610T112 624Q89 634 75 638T44 642Q26 642 16 632T1 601H-56Q-53 620 -45 640T-24 676T7 703T48 714Q67 714 82 711T129 694Q150 685 163 681T191 676Q213 676 224 688T241 720H297Z"  />
<glyph unicode="&#x2DD;" horiz-adv-x="241" d="M254 732H390L246 589H164L254 732ZM55 732H191L47 589H-35L55 732Z"  />
<glyph unicode="&#x394;" horiz-adv-x="683" d="M334 588L154 98H524L334 588ZM9 0L281 712H391L675 0H9Z"  />
<glyph unicode="&#x3A9;" horiz-adv-x="757" d="M426 0V188Q465 196 495 215T545 263T575 326T586 400Q586 446 571 486T527 557T460 604T373 622Q325 622 286 605T219 557T175 485T159 398Q159 317 198 262T317 188V0H46V91H229V138Q183 153 149 179T92 240T58 317T46 406Q46 475 71 533T141 632T245 697T372 721Q440 721 499 699T603 635T672 537T698 409Q698 362 687 319T653 241T596 179T514 138V91H698V0H426Z"  />
<glyph unicode="&#x3BC;" horiz-adv-x="574" d="M514 0H402V72H400Q389 52 373 37T339 10T301 -8T264 -14Q241 -14 216 -6T174 22V-191H60V517H174V200Q174 132 200 104T273 76Q309 76 333 87T372 116T393 161T400 217V517H514V0Z"  />
<glyph unicode="&#x3C0;" horiz-adv-x="589" d="M566 13Q545 3 526 -2T483 -7Q450 -7 430 3T400 30T386 72T383 123V387H172V0H71V387H1V483H563V387H484V138Q484 127 484 117T489 98T500 84T522 79Q543 79 566 89V13H566Z"  />
<glyph unicode="&#x2013;" horiz-adv-x="500" d="M0 326H500V218H0V326Z"  />
<glyph unicode="&#x2014;" horiz-adv-x="1000" d="M130 326H870V218H130V326Z"  />
<glyph unicode="&#x2018;" horiz-adv-x="278" d="M202 656Q172 645 157 622T141 567H202V432H77V567Q77 595 87 619T114 661T153 693T202 714V656Z"  />
<glyph unicode="&#x2019;" horiz-adv-x="278" d="M77 490Q113 495 125 520T138 579H77V714H202V579Q202 521 169 481T77 432V490Z"  />
<glyph unicode="&#x201A;" horiz-adv-x="278" d="M77 -89Q108 -78 123 -55T138 0H77V135H202V0Q202 -29 192 -52T165 -94T126 -126T77 -147V-89Z"  />
<glyph unicode="&#x201C;" horiz-adv-x="444" d="M384 656Q354 645 339 622T323 567H384V432H259V567Q259 595 269 619T296 661T335 693T384 714V656ZM185 656Q155 645 140 622T124 567H185V432H60V567Q60 595 70 619T97 661T136 693T185 714V656Z"  />
<glyph unicode="&#x201D;" horiz-adv-x="444" d="M259 490Q290 501 305 524T320 579H259V714H384V579Q384 550 374 527T347 485T308 453T259 432V490ZM60 490Q91 501 106 524T121 579H60V714H185V579Q185 550 175 527T148 485T109 453T60 432V490Z"  />
<glyph unicode="&#x201E;" horiz-adv-x="444" d="M259 -89Q290 -78 305 -55T320 0H259V135H384V0Q384 -29 374 -52T347 -94T308 -126T259 -147V-89ZM60 -89Q91 -78 106 -55T121 0H60V135H185V0Q185 -29 175 -52T148 -94T109 -126T60 -147V-89Z"  />
<glyph unicode="&#x2020;" horiz-adv-x="556" d="M221 422H30V517H221V714H335V517H526V422H335V-160H221V422Z"  />
<glyph unicode="&#x2021;" horiz-adv-x="556" d="M221 37H30V132H221V422H30V517H221V714H335V517H526V422H335V132H526V37H335V-160H221V37Z"  />
<glyph unicode="&#x2022;" horiz-adv-x="500" d="M72 357Q72 394 86 426T124 483T180 521T250 535Q287 535 319 521T376 483T415 427T429 357Q429 320 415 288T377 231T320 192T250 178Q213 178 181 192T124 230T86 287T72 357Z"  />
<glyph unicode="&#x2026;" horiz-adv-x="1000" d="M763 135H902V0H763V135ZM430 135H569V0H430V135ZM97 135H236V0H97V135Z"  />
<glyph unicode="&#x2030;" horiz-adv-x="1148" d="M917 46Q938 46 950 56T970 82T979 116T981 151Q981 167 980 187T972 226T952 256T917 269Q895 269 882 257T863 226T855 188T853 151Q853 134 855 116T864 82T883 56T917 46ZM917 -14Q875 -14 847 1T801 41T776 95T768 154Q768 190 776 222T803 277T850 315T917 329Q956 329 984 315T1030 278T1057 222T1066 154Q1066 125 1059 95T1034 41T988 2T917 -14ZM576 46Q597 46 609 56T629 82T638 116T640 151Q640 167 639 187T631 226T611 256T576 269Q554 269 541 257T522 226T514 188T512 151Q512 135 514 117T523 83T542 57T576 46ZM576 -14Q539 -14 511 -1T465 35T437 88T427 154Q427 190 435 221T462 277T509 315T576 329Q615 329 643 315T689 277T716 222T725 154Q725 119 716 89T688 35T641 -1T576 -14ZM563 724H636L236 -24H165L563 724ZM231 654Q209 654 196 641T177 609T169 569T167 532Q167 515 169 498T178 465T197 441T231 431Q252 431 264 440T284 465T293 497T295 532Q295 548 294 569T286 609T266 641T231 654ZM231 714Q270 714 298 700T344 661T371 604T380 535Q380 506 373 477T348 425T302 386T231 371Q189 371 161 386T115 424T90 477T82 535Q82 571 90 603T117 660T164 699T231 714Z"  />
<glyph unicode="&#x2039;" horiz-adv-x="259" d="M50 216V328L205 451V348L110 272L205 196V93L50 216Z"  />
<glyph unicode="&#x203A;" horiz-adv-x="259" d="M209 328V216L54 93V196L149 272L54 348V451L209 328Z"  />
<glyph unicode="&#x2044;" horiz-adv-x="167" d="M254 724H332L-86 -24H-165L254 724Z"  />
<glyph unicode="&#x20AC;" horiz-adv-x="556" d="M567 652L521 561Q457 625 381 625Q314 625 269 572Q231 525 218 455H482L456 391H211Q210 386 210 377Q210 368 210 354Q210 328 211 323H442L417 260H216Q228 179 267 133Q312 76 389 76Q439 76 472 92Q502 107 540 142V31Q472 -13 389 -13Q255 -13 180 69Q115 140 99 260H22L49 323H94Q93 330 93 338T92 355Q92 362 92 371T94 391H22L48 455H101Q126 570 192 637Q269 714 389 714Q476 714 567 652Z"  />
<glyph unicode="&#x2113;" horiz-adv-x="500" d="M440 48Q369 -14 285 -14Q215 -14 175 23T135 125V195L78 142H76L37 202L134 287V533Q134 575 146 609T180 668T231 707T295 721Q356 721 392 683T429 579Q429 503 384 428T246 269V143Q246 121 252 107T267 84T288 72T312 68Q353 68 400 106H402L440 48H440ZM338 572Q338 604 326 625T294 646Q274 646 260 623T246 554V364Q294 416 316 469T338 572Z"  />
<glyph unicode="&#x2122;" horiz-adv-x="990" d="M704 422L816 714H931V302H856V624H854L731 302H675L552 624H550V302H475V714H591L704 422ZM391 649H265V302H185V649H59V714H391V649Z"  />
<glyph unicode="&#x2126;" horiz-adv-x="757" d="M426 0V188Q465 196 495 215T545 263T575 326T586 400Q586 446 571 486T527 557T460 604T373 622Q325 622 286 605T219 557T175 485T159 398Q159 317 198 262T317 188V0H46V91H229V138Q183 153 149 179T92 240T58 317T46 406Q46 475 71 533T141 632T245 697T372 721Q440 721 499 699T603 635T672 537T698 409Q698 362 687 319T653 241T596 179T514 138V91H698V0H426Z"  />
<glyph unicode="&#x212E;" horiz-adv-x="600" d="M157 259V78Q216 19 302 19Q365 19 411 47T495 139L530 118Q507 82 484 57T433 15T373 -9T302 -17Q243 -17 196 4T114 63T62 151T44 259Q44 317 62 367T114 455T195 513T302 535Q360 535 407 515T489 458T542 371T561 259H157ZM448 295V440Q385 500 301 500Q217 500 157 440V295H448Z"  />
<glyph unicode="&#x2202;" horiz-adv-x="548" d="M396 287Q370 318 340 336T267 354Q235 354 212 342T173 310T150 264T142 209Q142 182 149 157T170 112T206 80T259 68Q295 68 321 87T365 135T390 199T397 264L396 287ZM507 359Q507 296 497 230T459 111T382 23T255 -12Q206 -12 166 5T98 53T55 125T39 215Q39 262 54 302T97 371T164 417T251 434Q294 434 330 419T398 376L399 406Q400 443 393 483T367 558T318 615T242 638Q208 638 179 624T124 590L67 656Q108 688 146 704T238 721Q315 721 366 689T449 605T494 489T507 359Z"  />
<glyph unicode="&#x2206;" horiz-adv-x="683" d="M334 588L154 98H524L334 588ZM9 0L281 712H391L675 0H9Z"  />
<glyph unicode="&#x220F;" horiz-adv-x="737" d="M566 -214V688H170V-214H63V786H674V-214H566Z"  />
<glyph unicode="&#x2211;" horiz-adv-x="643" d="M25 -214V-128L331 291L38 702V786H605V688H181L460 292L163 -117H618V-214H25Z"  />
<glyph unicode="&#x2212;" horiz-adv-x="600" d="M48 202V304H552V202H48Z"  />
<glyph unicode="&#x2215;" horiz-adv-x="167" d="M254 724H332L-86 -24H-165L254 724Z"  />
<glyph unicode="&#x2219;" horiz-adv-x="278" d="M64 302Q64 317 70 330T86 353T110 370T139 376Q154 376 167 370T191 354T208 330T214 302Q214 272 192 249T139 226Q108 226 86 249T64 302Z"  />
<glyph unicode="&#x221A;" horiz-adv-x="531" d="M332 -214H231L78 105L28 82L-12 167L131 232L264 -49L434 786H543L332 -214Z"  />
<glyph unicode="&#x221E;" horiz-adv-x="806" d="M348 258Q335 271 319 286T285 314T247 335T208 344Q172 344 151 319T130 259Q130 222 151 199T211 176Q230 176 249 183T286 203T320 229T348 258ZM675 259Q675 296 654 320T595 345Q575 345 556 337T520 315T487 286T458 257Q471 243 487 229T520 202T557 183T598 175Q635 175 655 199T675 259ZM761 262Q761 224 750 192T718 135T666 97T596 83Q565 83 539 92T489 118T444 154T403 195Q382 174 362 154T319 119T270 95T211 85Q173 85 142 98T89 135T56 190T44 260Q44 297 55 329T88 385T139 422T208 436Q240 436 267 426T318 400T362 362T403 318Q422 340 443 361T488 399T539 426T597 437Q635 437 665 424T717 387T749 331T761 262Z"  />
<glyph unicode="&#x222B;" horiz-adv-x="600" d="M474 713Q474 692 459 678T423 664Q401 664 391 674T376 696T366 719T352 729Q339 729 336 718T333 697Q333 664 334 631T335 564L336 40Q336 1 335 -43T320 -126T278 -189T195 -214Q179 -214 161 -210T128 -197T103 -175T93 -142Q93 -121 106 -107T141 -93Q162 -93 172 -103T188 -126T198 -149T211 -160Q220 -160 224 -155T229 -141T231 -125T230 -111Q230 -87 229 -63T227 -14V521Q227 561 227 607T240 693T282 759T369 786Q385 786 403 782T437 769T463 746T474 713Z"  />
<glyph unicode="&#x2248;" horiz-adv-x="593" d="M563 241Q560 209 551 179T524 126T481 88T418 74Q388 74 352 85T281 108T215 132T161 143Q132 143 116 122T96 74H28Q31 105 40 135T67 189T109 227T171 242Q203 242 236 232T303 209T369 186T432 175Q461 175 476 195T496 241H563H563ZM565 444Q562 412 553 382T526 329T483 291T420 277Q390 277 354 288T283 311T217 335T163 346Q134 346 119 325T98 277H30Q33 308 42 338T68 392T111 430T173 445Q204 445 238 435T305 412T372 389T434 378Q463 378 477 398T497 444H565H565Z"  />
<glyph unicode="&#x2260;" horiz-adv-x="593" d="M271 99L193 -53L104 -7L159 99H37V201H210L271 318H37V419H322L399 571L488 526L434 419H556V318H382L322 201H556V99H271Z"  />
<glyph unicode="&#x2264;" horiz-adv-x="593" d="M37 -35V66H556V-35H37ZM37 272V375L556 554V447L175 324L556 207V100L37 272Z"  />
<glyph unicode="&#x2265;" horiz-adv-x="593" d="M37 -35V66H556V-35H37ZM37 100V207L417 324L37 447V554L556 375V272L37 100Z"  />
<glyph unicode="&#x25CA;" horiz-adv-x="593" d="M295 646L176 356L295 65L417 356L295 646ZM343 -35H248L72 356L248 747H343L520 356L343 -35Z"  />
<glyph unicode="&#xF8FF;" horiz-adv-x="512" d="M222 117V184H278V117H222ZM225 234L223 251Q223 306 236 332T282 391Q314 422 323 438T332 474Q332 510 310 534T256 559Q225 559 203 537T174 464L124 472Q131 543 168 576T259 609Q312 609 347 573T383 478Q383 446 371 420T320 358Q283 325 277 306T271 234H225ZM462 50V667H50V50H462ZM512 718V0H0V718H512Z"  />
<glyph unicode="&#xFB01;" horiz-adv-x="556" d="M378 714H492V606H378V714ZM9 517H94V560Q94 609 106 639T138 686T183 708T237 714Q292 714 317 707V618Q306 621 294 622T264 624Q241 624 225 613T208 570V517H305V432H208V0H94V432H9V517ZM378 517H492V0H378V517Z"  />
<glyph unicode="&#xFB02;" horiz-adv-x="556" d="M378 714H492V0H378V714ZM9 517H94V560Q94 609 106 639T138 686T183 708T237 714Q292 714 317 707V618Q306 621 294 622T264 624Q241 624 225 613T208 570V517H305V432H208V0H94V432H9V517Z"  />

</font>
</defs>
</svg>
