<svg xmlns="http://www.w3.org/2000/svg">
<defs>
<font horiz-adv-x="447" id="df234d87-eada-4058-aa80-5871e7fbe1c3">
<font-face font-family="" panose-1="2 11 6 4 2 2 2 2 2 4" ascent="975" descent="-286" units-per-em="1000" alphabetic="0">
</font-face>
<missing-glyph horiz-adv-x="278" />

<glyph unicode="&#xA;" />
<glyph unicode="&#xD;" horiz-adv-x="0" />
<glyph unicode=" " horiz-adv-x="278" />
<glyph unicode="!" horiz-adv-x="259" d="M82 494V714H177V494L152 183H107L82 494ZM74 111H185V0H74V111Z"  />
<glyph unicode="&quot;" horiz-adv-x="426" d="M249 714H317V456H249V714ZM109 714H177V456H109V714Z"  />
<glyph unicode="#" horiz-adv-x="556" d="M131 206H34V274H141L162 424H60V492H171L200 697H269L240 492H364L393 697H462L433 492H522V424H424L403 274H494V206H393L364 0H295L324 206H200L171 0H102L131 206ZM334 274L355 424H231L210 274H334Z"  />
<glyph unicode="$" horiz-adv-x="556" d="M110 218Q112 151 151 112T251 63V328Q198 341 160 356T96 393T58 446T46 521Q46 566 62 603T105 668T170 712T251 731V797H306V730Q387 720 435 670T503 532H418Q398 631 306 648V402L366 386Q385 381 412 369T465 334T507 279T525 200Q525 152 509 114T463 48T394 4T306 -17V-99H251V-17Q151 -7 92 53T25 218H110ZM251 651Q203 646 170 617T136 530Q136 504 144 486T168 455T205 433T251 417V651ZM306 63Q362 67 398 96T435 191Q435 219 425 239T398 273T357 296T306 314V63Z"  />
<glyph unicode="%" horiz-adv-x="1000" d="M726 722H811L274 -22H188L726 722ZM254 308Q209 308 178 323T128 366T101 429T92 506Q92 546 100 583T127 648T177 692T254 709Q300 709 331 693T380 650T406 587T414 509Q414 470 406 434T378 370T328 325T254 308ZM251 363Q279 363 296 377T323 412T336 460T339 509Q339 531 337 556T325 603T299 639T254 654Q226 654 209 640T183 604T170 556T167 508Q167 486 169 461T181 414T206 378T251 363ZM586 186Q586 226 594 263T621 328T671 372T748 389Q794 389 825 373T874 330T900 267T908 189Q908 150 900 114T872 50T822 5T748 -12Q703 -12 672 3T622 46T595 109T586 186ZM661 188Q661 166 663 141T675 94T700 58T745 43Q773 43 790 57T817 92T830 140T833 189Q833 211 831 236T819 283T793 319T748 334Q720 334 703 320T677 284T664 236T661 188Z"  />
<glyph unicode="&amp;" horiz-adv-x="630" d="M33 183Q33 225 46 257T82 314T135 360T200 399Q185 420 171 438T146 476T128 518T121 567Q121 596 131 622T162 669T213 702T282 714Q315 714 346 705T402 678T440 632T455 568Q455 536 444 509T414 458T371 417T321 383L450 226Q470 282 473 337H554Q551 305 548 283T539 241T525 204T506 161L645 0H534L458 89Q442 64 420 45T371 14T315 -5T256 -12Q184 -12 140 10T72 64T41 128T33 183ZM275 439Q290 449 307 461T338 488T361 521T370 563Q370 594 348 616T288 639Q258 639 232 621T206 563Q206 547 212 531T229 500T251 469T275 439ZM123 184Q123 157 134 135T165 97T208 72T259 63Q308 63 346 86T411 148L247 345Q222 331 200 316T160 282T133 239T123 184Z"  />
<glyph unicode="&apos;" horiz-adv-x="278" d="M105 714H173V456H105V714Z"  />
<glyph unicode="(" horiz-adv-x="259" d="M47 270Q47 388 86 508T204 731H269Q197 617 167 505T137 270Q137 144 167 31T269 -198H204Q168 -142 139 -87T90 26T58 144T47 270Z"  />
<glyph unicode=")" horiz-adv-x="259" d="M-10 -198Q62 -84 92 28T122 263Q122 389 92 502T-10 731H55Q91 675 120 620T169 507T201 389T212 263Q212 145 173 25T55 -198H-10H-10Z"  />
<glyph unicode="*" horiz-adv-x="352" d="M65 464L130 555L24 593L42 641L148 601V714H201V601L308 641L328 593L219 555L285 464L244 433L175 529L110 433L65 464Z"  />
<glyph unicode="+" horiz-adv-x="600" d="M48 287H266V506H334V287H552V219H334V0H266V219H48V287Z"  />
<glyph unicode="&#x2c;" horiz-adv-x="278" d="M83 111H194V10Q194 -47 168 -88T84 -147V-97Q100 -91 112 -80T131 -55T140 -27T142 0H83V111Z"  />
<glyph unicode="-" horiz-adv-x="389" d="M50 318H339V238H50V318Z"  />
<glyph unicode="." horiz-adv-x="278" d="M83 111H194V0H83V111Z"  />
<glyph unicode="/" horiz-adv-x="333" d="M278 731H351L55 -17H-18L278 731Z"  />
<glyph unicode="0" horiz-adv-x="556" d="M278 -12Q223 -12 184 4T118 47T77 109T54 185T44 267T42 348Q42 387 44 429T54 511T77 587T118 650T183 693T278 709Q333 709 372 693T438 650T479 587T502 511T512 429T514 348Q514 309 512 267T502 185T479 110T438 47T373 4T278 -12ZM278 63Q332 63 362 93T405 166T421 259T424 349Q424 375 424 406T419 469T406 531T381 583T339 620T278 634Q242 634 217 620T176 584T151 531T138 470T133 407T132 349Q132 309 134 260T150 167T194 93T278 63Z"  />
<glyph unicode="1" horiz-adv-x="556" d="M271 508H87V576Q123 576 157 581T218 602T265 642T291 709H356V0H271V508Z"  />
<glyph unicode="2" horiz-adv-x="556" d="M24 0Q29 63 46 107T91 185T151 242T223 290Q268 318 302 341T358 389T392 441T404 506Q404 535 393 558T364 599T320 625T267 634Q230 634 204 619T160 578T136 522T129 458H44Q41 512 55 558T98 637T172 690T272 709Q318 709 358 696T429 657T476 593T494 505Q494 458 480 422T441 358T386 306T322 262Q289 242 256 223T196 181T149 134T123 75H487V0H24H24Z"  />
<glyph unicode="3" horiz-adv-x="556" d="M115 219Q117 150 155 107T266 63Q297 63 325 72T374 99T407 142T420 200Q420 233 408 258T376 301T328 327T269 336Q242 336 218 333V405Q223 404 227 404T237 404H255Q282 404 306 411T349 433T379 469T390 520Q390 577 354 605T264 634Q229 634 204 622T163 588T138 539T130 480H45Q47 531 61 573T103 645T170 692T264 709Q310 709 349 698T418 663T463 604T480 519Q480 471 452 434T382 378V376Q447 362 478 315T510 204Q510 151 491 111T438 43T361 2T266 -12Q212 -12 168 3T93 48T46 121T30 219H115Z"  />
<glyph unicode="4" horiz-adv-x="556" d="M28 248L351 709H419V241H515V166H419V0H339V166H28V248ZM339 241V588H337L101 241H339Z"  />
<glyph unicode="5" horiz-adv-x="556" d="M120 191Q122 164 133 141T164 100T210 73T269 63Q299 63 326 73T374 105T407 157T419 231Q419 266 408 295T375 346T325 380T259 392Q217 392 185 374T127 325L54 329L120 697H470V622H184L146 418L148 416Q171 442 207 454T280 467Q327 467 369 452T442 407T491 331T509 224Q509 179 494 137T447 61T370 8T261 -12Q215 -12 175 1T103 41T54 105T35 191H120Z"  />
<glyph unicode="6" horiz-adv-x="556" d="M282 -12Q203 -12 155 20T81 103T47 213T38 329Q38 402 50 470T93 592T173 677T299 709Q387 709 439 663T499 528H414Q408 576 377 605T295 634Q241 634 208 608T157 541T131 453T123 365L125 363Q155 412 199 434T302 456Q353 456 393 439T461 390T504 317T519 226Q519 187 507 145T468 68T395 11T282 -12ZM139 221Q139 188 149 159T177 109T223 76T286 63Q320 63 347 75T392 110T419 160T429 220Q429 253 421 282T394 333T349 368T286 381Q250 381 223 369T177 335T149 284T139 221Z"  />
<glyph unicode="7" horiz-adv-x="556" d="M142 0Q148 90 171 175T232 339T317 488T422 617H50V697H509V624Q455 571 408 498T325 342T265 171T237 0H142H142Z"  />
<glyph unicode="8" horiz-adv-x="556" d="M40 204Q40 267 72 313T164 381Q119 399 92 439T65 528Q65 571 82 605T128 662T194 697T273 709Q331 709 372 694T438 653T476 595T488 528Q488 480 462 441T390 381Q454 361 485 316T516 204Q516 153 498 113T448 45T373 3T281 -12Q230 -12 186 1T110 42T59 109T40 204ZM281 411Q332 411 365 441T398 525Q398 579 365 606T279 634Q253 634 231 627T192 606T165 572T155 525Q155 496 165 475T192 439T232 418T281 411ZM130 200Q130 136 172 100T281 63Q313 63 339 73T385 102T415 146T426 201Q426 229 415 254T383 297T337 325T280 336Q248 336 221 327T174 299T142 256T130 200Z"  />
<glyph unicode="9" horiz-adv-x="556" d="M134 171Q139 119 176 91T264 63Q342 63 381 130T424 337L422 339Q398 294 354 268T258 241Q204 241 162 258T92 307T49 381T34 478Q34 529 51 571T99 644T173 692T267 709Q316 709 360 694T438 640T490 536T510 370Q510 186 452 87T264 -12Q219 -12 182 -1T116 34T71 91T49 171H134ZM264 316Q297 316 324 328T370 362T399 412T409 472Q409 505 400 534T372 585T326 621T263 634Q225 634 199 620T156 583T132 529T124 466Q124 437 134 410T163 362T207 329T264 316Z"  />
<glyph unicode=":" horiz-adv-x="278" d="M83 517H194V406H83V517ZM83 111H194V0H83V111Z"  />
<glyph unicode=";" horiz-adv-x="278" d="M83 517H194V406H83V517ZM83 111H194V10Q195 -47 169 -88T84 -147V-97Q100 -91 112 -80T131 -55T140 -27T142 0H83V111Z"  />
<glyph unicode="&lt;" horiz-adv-x="600" d="M46 284L554 514V446L129 253L554 60V-8L46 222V284Z"  />
<glyph unicode="=" horiz-adv-x="600" d="M48 388H552V320H48V388ZM48 186H552V118H48V186Z"  />
<glyph unicode="&gt;" horiz-adv-x="600" d="M46 60L471 253L46 446V514L554 284V222L46 -8V60Z"  />
<glyph unicode="?" horiz-adv-x="556" d="M232 221Q234 263 247 292T280 345T321 387T361 428T391 476T400 539Q396 594 365 625T279 656Q243 656 217 643T174 608T148 556T140 491H55Q54 542 69 586T113 662T185 713T279 731Q325 731 364 718T431 679T474 616T490 531Q490 500 483 476T463 431T436 394T404 361Q388 346 373 331T345 298T325 259T317 213V174H232V221ZM218 111H329V0H218V111Z"  />
<glyph unicode="@" horiz-adv-x="800" d="M185 289Q185 341 202 392T249 483T323 548T420 573Q455 573 485 555T532 491L555 554H618L534 270Q530 257 527 244T523 219Q523 188 547 188Q570 188 594 209T639 263T672 337T685 418Q685 477 663 525T602 606T515 658T414 676Q350 676 295 651T198 581T134 479T110 355Q110 288 134 230T201 130T300 63T419 38Q491 38 557 71T667 159H730Q706 118 672 85T598 30T511 -5T417 -17Q338 -17 270 12T151 92T71 211T42 360Q42 437 71 504T151 622T269 702T413 731Q482 731 544 708T652 645T726 547T753 423Q753 358 730 305T671 213T595 154T519 133Q493 133 475 149T455 198H452Q429 172 397 152T328 131Q296 131 270 143T225 177T196 227T185 289ZM260 296Q260 254 284 227T346 199Q379 199 407 220T456 274T489 344T501 412Q501 430 494 447T476 476T451 497T420 505Q385 505 356 485T305 433T272 366T260 296Z"  />
<glyph unicode="A" horiz-adv-x="648" d="M272 714H377L656 0H551L473 215H171L91 0H-7L272 714ZM443 295L324 628H322L201 295H443Z"  />
<glyph unicode="B" horiz-adv-x="685" d="M78 714H337Q360 714 386 714T439 711T487 703T526 688Q561 667 585 630T610 539Q610 482 583 441T504 379V377Q570 363 605 317T640 205Q640 166 626 129T585 64T517 18T423 0H78V714ZM363 407Q444 407 479 435T515 521Q515 558 503 580T470 615T422 630T363 634H173V407H363ZM411 80Q474 80 509 114T545 208Q545 243 532 266T498 302T448 321T390 327H173V80H411Z"  />
<glyph unicode="C" horiz-adv-x="722" d="M43 355Q43 433 65 501T129 621T235 701T381 731Q437 731 487 716T576 672T641 600T675 499H580Q564 575 510 613T380 651Q316 651 271 627T196 563T152 470T138 362Q138 301 152 247T195 152T271 87T381 63Q427 63 464 78T527 121T569 187T587 269H682Q668 134 589 59T373 -17Q290 -17 228 12T125 91T64 209T43 355Z"  />
<glyph unicode="D" horiz-adv-x="704" d="M78 714H323Q488 714 577 630T666 374Q666 284 646 215T584 98T477 25T323 0H78V714ZM331 80Q347 80 371 82T422 94T475 122T523 171T557 248T571 361Q571 425 559 475T518 561T444 615T333 634H173V80H331Z"  />
<glyph unicode="E" horiz-adv-x="611" d="M78 714H571V634H173V407H544V327H173V80H574V0H78V714Z"  />
<glyph unicode="F" horiz-adv-x="574" d="M78 714H547V634H173V407H501V327H173V0H78V714Z"  />
<glyph unicode="G" horiz-adv-x="759" d="M43 343Q43 421 64 491T128 615T234 699T383 731Q441 731 492 718T584 675T652 602T690 494H595Q588 534 569 564T522 613T459 641T383 651Q318 651 272 625T196 557T152 460T138 348Q138 292 154 241T201 150T277 87T383 63Q438 63 481 81T554 130T599 204T612 296H384V376H697V0H637L612 89Q591 61 565 41T508 8T446 -11T383 -17Q303 -17 240 13T133 93T66 208T43 343Z"  />
<glyph unicode="H" horiz-adv-x="722" d="M78 714H173V407H549V714H644V0H549V327H173V0H78V714Z"  />
<glyph unicode="I" horiz-adv-x="259" d="M82 714H177V0H82V714Z"  />
<glyph unicode="J" horiz-adv-x="519" d="M22 235H117V205Q117 174 122 148T139 103T174 74T232 63Q297 63 321 98T346 192V714H441V178Q441 142 431 107T396 45T331 0T230 -17Q130 -17 76 36T22 191V235Z"  />
<glyph unicode="K" horiz-adv-x="667" d="M78 714H173V358L535 714H658L357 426L670 0H550L292 361L173 250V0H78V714Z"  />
<glyph unicode="L" horiz-adv-x="556" d="M78 714H173V80H551V0H78V714Z"  />
<glyph unicode="M" horiz-adv-x="871" d="M80 714H210L435 114L661 714H791V0H701V594H699L476 0H395L172 594H170V0H80V714Z"  />
<glyph unicode="N" horiz-adv-x="722" d="M77 714H178L554 135H556V714H646V0H542L169 573H167V0H77V714Z"  />
<glyph unicode="O" horiz-adv-x="760" d="M38 357Q38 430 59 497T124 617T231 700T380 731Q465 731 529 700T636 617T700 498T722 357Q722 284 701 217T636 97T529 14T380 -17Q295 -17 231 14T124 97T60 216T38 357ZM133 357Q133 303 147 251T191 156T268 89T380 63Q445 63 492 88T569 156T613 250T627 357Q627 411 613 463T569 558T492 625T380 651Q315 651 268 626T191 558T147 464T133 357Z"  />
<glyph unicode="P" horiz-adv-x="648" d="M78 714H391Q499 714 554 659T610 503Q610 403 555 347T391 292H173V0H78V714ZM173 372H359Q440 371 477 405T515 503Q515 567 478 600T359 634H173V372Z"  />
<glyph unicode="Q" horiz-adv-x="760" d="M660 -62L551 26Q480 -17 380 -17Q295 -17 231 14T124 97T60 216T38 357Q38 430 59 497T124 617T231 700T380 731Q465 731 529 700T636 617T700 498T722 357Q722 275 695 201T614 73L708 -2L660 -62ZM450 204L545 128Q587 170 607 230T627 357Q627 411 613 463T569 558T492 625T380 651Q315 651 268 626T191 558T147 464T133 357Q133 303 147 251T191 156T268 89T380 63Q431 63 479 83L400 146L450 204Z"  />
<glyph unicode="R" horiz-adv-x="685" d="M78 714H414Q516 714 573 664T631 527Q631 462 602 413T507 346V344Q538 338 557 324T588 291T605 247T614 197Q616 171 617 144T622 91T633 42T656 0H550Q540 11 537 30T532 72T530 123T524 176Q520 202 514 225T495 266T461 294T405 305H173V0H78V714ZM371 385Q404 385 434 390T486 409T522 448T536 512Q536 566 506 600T409 634H173V385H371Z"  />
<glyph unicode="S" horiz-adv-x="648" d="M491 505Q483 582 436 616T314 651Q284 651 255 645T204 625T168 588T154 529Q154 496 173 476T225 442T299 421T382 402T466 379T539 342T591 284T611 196Q611 139 586 99T520 33T431 -5T332 -17Q272 -17 219 -2T125 44T61 122T37 235H127Q127 190 144 158T190 104T256 73T335 63Q367 63 399 69T458 89T500 129T516 193Q516 230 497 253T445 290T371 314T288 332T204 354T131 387T79 440T59 522Q59 576 81 615T139 680T222 718T318 731Q373 731 420 718T502 677T558 607T581 505H491Z"  />
<glyph unicode="T" horiz-adv-x="574" d="M240 634H2V714H573V634H335V0H240V634Z"  />
<glyph unicode="U" horiz-adv-x="722" d="M648 258Q648 121 575 52T367 -17Q298 -17 244 -1T152 49T94 135T74 258V714H169V258Q169 162 220 113T367 63Q458 63 505 112T553 258V714H648V258Z"  />
<glyph unicode="V" horiz-adv-x="611" d="M359 0H251L-1 714H102L306 95H308L514 714H613L359 0Z"  />
<glyph unicode="W" horiz-adv-x="926" d="M723 0H624L461 600H459L294 0H195L12 714H109L249 120H251L411 714H514L672 120H674L819 714H914L723 0Z"  />
<glyph unicode="X" horiz-adv-x="611" d="M248 367L13 714H127L305 435L491 714H597L361 367L612 0H496L304 295L106 0H-1L248 367Z"  />
<glyph unicode="Y" horiz-adv-x="648" d="M373 292V0H278V292L2 714H115L329 374L538 714H646L373 292Z"  />
<glyph unicode="Z" horiz-adv-x="611" d="M22 80L466 634H56V714H578V634L135 80H590V0H22V80Z"  />
<glyph unicode="[" horiz-adv-x="259" d="M259 663H152V-130H259V-198H72V731H259V663Z"  />
<glyph unicode="\" horiz-adv-x="333" d="M351 -17H278L-18 731H55L351 -17Z"  />
<glyph unicode="]" horiz-adv-x="259" d="M0 -130H107V663H0V731H187V-198H0V-130Z"  />
<glyph unicode="^" horiz-adv-x="600" d="M268 697H332L550 264H480L299 624L121 264H50L268 697Z"  />
<glyph unicode="_" horiz-adv-x="500" d="M0 -75H500V-125H0V-75Z"  />
<glyph unicode="`" horiz-adv-x="222" d="M-23 732H86L172 589H108L-23 732Z"  />
<glyph unicode="a" horiz-adv-x="537" d="M522 2Q499 -12 461 -12Q428 -12 409 7T389 68Q354 26 308 7T207 -12Q172 -12 141 -4T86 21T50 66T36 133Q36 177 51 205T90 250T146 277T211 292Q246 299 277 302T333 312T371 331T385 368Q385 396 375 413T348 439T311 451T270 454Q216 454 180 434T141 356H56Q58 404 76 437T124 490T192 520T275 529Q310 529 344 524T407 504T452 460T469 387V121Q469 91 472 77T496 63Q507 63 522 68V2ZM384 267Q368 255 342 250T288 241T230 233T178 218T141 190T126 139Q126 118 134 104T156 80T188 67T226 63Q268 63 298 74T347 103T375 141T384 180V267Z"  />
<glyph unicode="b" horiz-adv-x="593" d="M67 714H152V447H154Q175 490 220 509T319 529Q379 529 423 507T497 448T542 361T557 257Q557 202 543 153T499 68T425 10T321 -12Q301 -12 278 -8T232 5T189 30T154 69H152V0H67V714ZM467 263Q467 299 458 333T429 395T379 438T307 454Q264 454 234 437T185 393T158 330T149 259Q149 221 158 186T186 123T237 80T312 63Q355 63 385 80T433 125T459 189T467 263Z"  />
<glyph unicode="c" horiz-adv-x="537" d="M415 351Q405 400 373 427T287 454Q241 454 210 437T161 392T134 328T126 252Q126 216 134 182T161 122T207 79T277 63Q340 63 375 96T419 189H506Q492 93 435 41T278 -12Q219 -12 174 7T98 62T52 145T36 252Q36 310 51 360T96 448T172 507T280 529Q324 529 362 519T430 486T479 431T503 351H415Z"  />
<glyph unicode="d" horiz-adv-x="593" d="M526 0H441V70H439Q418 27 373 8T274 -12Q214 -12 170 10T96 69T51 156T36 260Q36 315 50 363T94 449T168 507T272 529Q291 529 314 525T361 512T404 487T439 448H441V714H526V0ZM126 254Q126 218 135 184T164 122T214 79T286 63Q329 63 359 80T408 124T435 187T444 258Q444 296 435 331T407 394T356 437T281 454Q237 454 208 437T160 392T134 328T126 254Z"  />
<glyph unicode="e" horiz-adv-x="537" d="M505 164Q488 77 430 33T284 -12Q222 -12 177 8T100 65T54 151T36 260Q36 318 54 367T104 453T181 509T279 529Q348 529 393 501T466 428T504 332T513 233H126Q125 199 134 169T163 115T214 77T287 63Q341 63 375 88T421 164H505ZM423 308Q421 338 410 365T379 411T333 442T274 454Q241 454 215 443T169 411T139 365T126 308H423Z"  />
<glyph unicode="f" horiz-adv-x="296" d="M99 442H12V517H99V594Q99 657 135 689T242 722Q254 722 269 720T297 714V640Q286 644 273 645T249 647Q218 647 201 635T184 589V517H284V442H184V0H99V442Z"  />
<glyph unicode="g" horiz-adv-x="574" d="M510 44Q510 -84 452 -147T270 -210Q234 -210 197 -202T129 -176T78 -129T56 -58H141Q142 -81 155 -97T188 -123T231 -137T275 -142Q317 -142 346 -128T394 -88T421 -26T430 54V88H428Q406 40 362 17T267 -6Q209 -6 166 15T94 72T51 155T36 256Q36 302 48 350T88 438T161 503T275 529Q324 529 365 508T429 443H430V517H510V44ZM272 69Q314 69 343 86T391 132T417 197T426 269Q426 303 418 336T393 395T347 438T279 454Q238 454 209 439T162 397T135 337T126 266Q126 231 133 196T157 133T202 87T272 69Z"  />
<glyph unicode="h" horiz-adv-x="556" d="M64 714H149V441H151Q161 465 179 481T219 508T266 524T314 529Q365 529 399 515T454 476T483 417T492 340V0H407V350Q407 398 379 426T302 454Q263 454 235 442T187 408T159 357T149 292V0H64V714Z"  />
<glyph unicode="i" horiz-adv-x="222" d="M154 610H69V714H154V610ZM69 517H154V0H69V517Z"  />
<glyph unicode="j" horiz-adv-x="222" d="M154 610H69V714H154V610ZM154 -66Q154 -135 121 -166T30 -198Q6 -198 -14 -194V-121Q-9 -122 -5 -122T3 -123H21Q49 -123 59 -108T69 -52V517H154V-66Z"  />
<glyph unicode="k" horiz-adv-x="519" d="M69 714H154V291L390 517H504L299 329L519 0H411L234 270L154 196V0H69V714Z"  />
<glyph unicode="l" horiz-adv-x="222" d="M69 714H154V0H69V714Z"  />
<glyph unicode="m" horiz-adv-x="853" d="M64 517H144V441H146Q204 529 313 529Q361 529 400 509T455 441Q481 483 523 506T617 529Q656 529 687 521T741 494T776 448T789 379V0H704V339Q704 363 700 384T685 420T655 445T604 454Q541 454 505 418T469 322V0H384V339Q384 364 380 385T364 421T334 445T287 454Q249 454 223 439T181 403T157 360T149 322V0H64V517Z"  />
<glyph unicode="n" horiz-adv-x="556" d="M64 517H144V435H146Q199 529 314 529Q365 529 399 515T454 476T483 417T492 340V0H407V350Q407 398 379 426T302 454Q263 454 235 442T187 408T159 357T149 292V0H64V517Z"  />
<glyph unicode="o" horiz-adv-x="574" d="M36 258Q36 315 52 364T100 450T178 508T287 529Q348 529 395 508T474 451T522 365T538 258Q538 201 522 152T474 67T395 9T287 -12Q225 -12 179 9T100 66T52 152T36 258ZM126 258Q126 211 138 175T173 114T224 76T287 63Q320 63 349 76T401 113T435 174T448 258Q448 305 436 341T401 403T350 441T287 454Q254 454 225 441T173 403T139 342T126 258Z"  />
<glyph unicode="p" horiz-adv-x="593" d="M67 517H152V447H154Q175 490 220 509T319 529Q379 529 423 507T497 448T542 361T557 257Q557 202 543 153T499 68T425 10T321 -12Q301 -12 278 -8T232 5T189 30T154 69H152V-198H67V517ZM467 263Q467 299 458 333T429 395T379 438T307 454Q264 454 234 437T185 393T158 330T149 259Q149 221 158 186T186 123T237 80T312 63Q355 63 385 80T433 125T459 189T467 263Z"  />
<glyph unicode="q" horiz-adv-x="593" d="M526 -198H441V70H439Q418 27 373 8T274 -12Q214 -12 170 10T96 69T51 156T36 260Q36 315 50 363T94 449T168 507T272 529Q291 529 314 525T361 512T404 487T439 448H441V517H526V-198ZM126 254Q126 218 135 184T164 122T214 79T286 63Q329 63 359 80T408 124T435 187T444 258Q444 296 435 331T407 394T356 437T281 454Q237 454 208 437T160 392T134 328T126 254Z"  />
<glyph unicode="r" horiz-adv-x="333" d="M61 517H141V408H143Q174 471 219 501T333 529V439Q282 439 246 425T188 384T156 318T146 230V0H61V517Z"  />
<glyph unicode="s" horiz-adv-x="500" d="M116 163Q117 134 129 115T160 85T204 68T255 63Q275 63 297 66T337 77T368 100T380 140Q380 173 355 190T293 217T211 236T130 260T67 304T42 382Q42 421 59 449T104 494T166 520T235 529Q278 529 315 522T381 496T427 446T447 367H362Q360 392 349 408T321 435T284 449T242 454Q223 454 204 451T168 441T142 420T132 388Q132 365 147 351T187 328T241 312T301 298Q333 291 363 281T417 255T455 213T470 151Q470 104 451 73T400 23T329 -4T250 -12Q206 -12 168 -3T99 27T51 81T31 163H116Z"  />
<glyph unicode="t" horiz-adv-x="315" d="M182 517H285V442H182V121Q182 106 184 97T194 83T213 77T246 75H285V0H220Q187 0 164 4T126 21T104 55T97 113V442H9V517H97V672H182V517Z"  />
<glyph unicode="u" horiz-adv-x="556" d="M492 0H412V82H410Q357 -12 242 -12Q191 -12 157 2T102 41T73 100T64 177V517H149V167Q149 119 177 91T254 63Q293 63 321 75T369 109T397 160T407 225V517H492V0Z"  />
<glyph unicode="v" horiz-adv-x="500" d="M297 0H206L14 517H109L254 86H256L397 517H486L297 0Z"  />
<glyph unicode="w" horiz-adv-x="758" d="M576 0H486L381 411H379L275 0H183L17 517H111L228 94H230L334 517H427L535 94H537L653 517H741L576 0Z"  />
<glyph unicode="x" horiz-adv-x="518" d="M203 272L23 517H132L256 336L385 517H487L309 279L509 0H400L256 214L112 0H9L203 272Z"  />
<glyph unicode="y" horiz-adv-x="500" d="M267 -69Q252 -107 238 -133T206 -175T167 -199T117 -207Q102 -207 87 -205T58 -198V-120Q70 -124 82 -128T108 -132Q134 -132 150 -120T178 -85L213 3L8 517H104L255 94H257L402 517H492L267 -69Z"  />
<glyph unicode="z" horiz-adv-x="480" d="M22 65L334 442H42V517H444V459L128 75H458V0H22V65Z"  />
<glyph unicode="{" horiz-adv-x="333" d="M309 671H259Q244 671 235 664T221 644T213 617T211 585V402Q211 367 201 343T176 302T148 278T124 268V265Q133 264 147 257T176 235T200 194T211 131V-52Q211 -67 213 -82T220 -110T235 -130T259 -138H309V-198H239Q220 -198 201 -190T167 -165T141 -124T131 -67V115Q131 142 124 164T106 201T79 224T48 232V300Q64 300 79 308T105 332T124 370T131 418V600Q131 632 141 656T166 697T201 722T239 731H309V671Z"  />
<glyph unicode="|" horiz-adv-x="222" d="M77 786H145V-214H77V786Z"  />
<glyph unicode="}" horiz-adv-x="333" d="M24 -138H74Q89 -138 98 -131T112 -111T120 -84T122 -52V131Q122 166 132 190T157 231T185 255T209 265V268Q200 269 186 276T157 298T133 339T122 402V583Q122 599 120 615T113 643T98 663T74 671H24V731H94Q113 731 132 723T166 698T192 657T202 600V418Q202 391 209 369T227 332T254 308T285 300V232Q269 232 254 224T228 200T209 163T202 115V-67Q202 -99 192 -123T167 -164T132 -189T94 -198H24V-138Z"  />
<glyph unicode="~" horiz-adv-x="600" d="M531 269Q520 253 508 238T481 210T448 191T406 183Q378 183 354 192T304 216Q280 230 252 242T189 255Q172 255 160 248T137 230T119 206T105 179L69 229Q77 245 88 260T114 288T149 307T194 315Q220 315 248 306T305 283Q333 271 360 257T407 243Q422 243 434 250T457 268T477 292T495 319L531 269Z"  />
<glyph unicode="&#xA0;" horiz-adv-x="278" />
<glyph unicode="&#xA4;" horiz-adv-x="556" d="M74 604L130 548Q159 572 199 585T281 599Q321 599 359 586T424 549L481 605L531 554L476 499Q502 471 515 432T528 351Q528 309 515 271T476 201L531 145L484 98L428 156Q399 129 361 115T280 101Q235 101 197 114T128 155L73 97L25 145L80 203Q55 233 42 270T28 349Q28 391 41 430T82 497L25 555L74 604ZM281 524Q245 524 215 511T162 474T126 418T113 349Q113 313 126 281T161 226T214 190T280 176Q315 176 345 190T396 227T430 283T443 351Q443 386 431 417T397 472T345 510T281 524Z"  />
<glyph unicode="&#xA6;" horiz-adv-x="222" d="M145 411H77V661H145V411ZM77 161H145V-89H77V161Z"  />
<glyph unicode="&#xA7;" horiz-adv-x="556" d="M380 546Q379 592 353 624T279 656Q239 656 212 636T184 570Q184 546 198 527T235 490T288 456T350 423Q381 406 411 388T464 346T501 295T516 229Q516 179 487 140T412 82Q471 38 471 -38Q471 -74 457 -103T418 -154T359 -186T284 -198Q194 -198 142 -148T83 -9H168Q169 -60 200 -91T282 -123Q300 -123 318 -118T351 -103T374 -77T383 -40Q383 -14 368 7T329 46T273 81T209 116Q177 133 146 152T90 197T50 253T35 325Q35 348 43 370T66 411T100 443T142 463Q120 486 108 511T96 569Q96 608 112 638T154 689T213 720T281 731Q363 731 413 686T465 546H380ZM190 420Q161 410 139 386T117 329Q117 305 126 287T151 255T185 230T222 207Q258 188 293 168T362 124Q391 136 412 159T434 217Q434 238 424 255T397 287T363 313T328 335Q293 356 259 376T190 420Z"  />
<glyph unicode="&#xA8;" horiz-adv-x="222" d="M160 706H250V602H160V706ZM-28 706H62V602H-28V706Z"  />
<glyph unicode="&#xA9;" horiz-adv-x="800" d="M24 359Q24 438 54 506T135 624T255 702T401 731Q477 731 545 703T665 624T746 506T776 359Q776 278 746 210T665 91T546 12T401 -17Q324 -17 256 11T136 90T54 209T24 359ZM92 359Q92 290 115 232T180 130T278 63T401 38Q466 38 522 62T619 130T684 231T708 359Q708 426 685 483T620 584T522 651T401 676Q335 676 279 652T181 584T116 484T92 359ZM599 285Q583 212 533 170T413 128Q362 128 321 145T251 193T207 266T191 357Q191 407 206 449T249 521T318 568T410 585Q482 585 534 547T598 433H535Q527 475 495 502T411 530Q374 530 346 517T298 481T269 426T259 359Q259 324 269 292T300 236T348 198T413 183Q464 183 496 211T535 285H599Z"  />
<glyph unicode="&#xAB;" horiz-adv-x="463" d="M246 234V322L398 442V356L298 278L398 200V114L246 234ZM50 234V322L202 442V356L102 278L202 200V114L50 234Z"  />
<glyph unicode="&#xAC;" horiz-adv-x="600" d="M552 109H484V320H48V388H552V109Z"  />
<glyph unicode="&#xAD;" horiz-adv-x="389" d="M50 318H339V238H50V318Z"  />
<glyph unicode="&#xAE;" horiz-adv-x="800" d="M24 359Q24 438 54 506T135 624T255 702T401 731Q477 731 545 703T665 624T746 506T776 359Q776 278 746 210T665 91T546 12T401 -17Q324 -17 256 11T136 90T54 209T24 359ZM92 359Q92 290 115 232T180 130T278 63T401 38Q466 38 522 62T619 130T684 231T708 359Q708 426 685 484T620 584T522 651T401 676Q335 676 279 652T181 585T116 484T92 359ZM255 576H424Q502 576 539 545T577 451Q577 392 544 365T462 332L587 139H514L395 327H323V139H255V576ZM323 382H394Q416 382 437 383T474 392T499 413T509 454Q509 476 501 489T479 509T448 518T413 521H323V382Z"  />
<glyph unicode="&#xB0;" horiz-adv-x="400" d="M56 565Q56 595 67 621T97 666T143 697T200 709Q230 709 256 698T301 667T332 621T344 565Q344 535 333 509T302 463T256 432T200 421Q170 421 144 432T98 462T67 508T56 565ZM106 565Q106 547 112 531T131 501T160 479T200 471Q222 471 239 479T269 500T287 530T294 565Q294 583 288 599T269 629T240 651T200 659Q178 659 161 651T131 630T113 600T106 565Z"  />
<glyph unicode="&#xB1;" horiz-adv-x="600" d="M48 339H266V505H334V339H552V271H334V104H266V271H48V339ZM48 68H552V0H48V68Z"  />
<glyph unicode="&#xB4;" horiz-adv-x="222" d="M136 732H245L114 589H50L136 732Z"  />
<glyph unicode="&#xB5;" horiz-adv-x="556" d="M492 0H412V82H410Q381 34 341 11T253 -12Q222 -12 197 -3T154 23H152V-198H67V517H152V167Q152 119 179 91T255 63Q293 63 321 75T369 109T397 160T407 225V517H492V0Z"  />
<glyph unicode="&#xB6;" horiz-adv-x="600" d="M515 -155H447V659H325V-155H257V322Q211 322 173 336T107 376T64 435T48 508Q48 607 109 660T276 714H515V-155Z"  />
<glyph unicode="&#xB7;" horiz-adv-x="278" d="M75 311Q75 337 94 356T139 375Q165 375 184 356T203 311Q203 287 184 267T140 247Q114 247 95 266T75 311Z"  />
<glyph unicode="&#xBB;" horiz-adv-x="463" d="M413 322V234L261 114V200L361 278L261 356V442L413 322ZM217 322V234L65 114V200L165 278L65 356V442L217 322Z"  />
<glyph unicode="&#x131;" horiz-adv-x="222" d="M69 0V517H154V0H69Z"  />
<glyph unicode="&#x2D8;" horiz-adv-x="222" d="M5 729Q29 646 117 646Q160 646 180 668T216 729H267Q256 665 216 628T109 591Q40 591 3 626T-45 729H5Z"  />
<glyph unicode="&#x401;" horiz-adv-x="611" d="M78 714H571V634H173V407H544V327H173V80H574V0H78V714ZM368 897H458V793H368V897ZM180 897H270V793H180V897Z"  />
<glyph unicode="&#x402;" horiz-adv-x="746" d="M711 173Q711 114 693 59T638 -38T550 -107T430 -135V-54Q477 -51 512 -32T570 17T604 88T616 173Q616 265 576 314T461 363Q392 363 348 319T303 186V0H208V634H2V714H573V634H303V359H305Q333 402 378 422T475 442Q529 442 572 424T647 370T694 285T711 173Z"  />
<glyph unicode="&#x403;" horiz-adv-x="552" d="M78 0V714H546V634H173V0H78ZM320 922H429L298 779H234L320 922Z"  />
<glyph unicode="&#x404;" horiz-adv-x="722" d="M681 247Q664 120 583 52T373 -17Q296 -17 235 9T131 83T66 200T43 355Q43 434 64 502T128 622T234 702T380 731Q435 731 485 717T575 676T641 606T676 508H581Q564 577 512 614T378 651Q321 651 279 632T207 581T161 505T140 414H484V334H138Q139 271 156 221T204 136T278 82T377 63Q463 63 517 110T586 247H681H681Z"  />
<glyph unicode="&#x405;" horiz-adv-x="648" d="M491 505Q483 582 436 616T314 651Q284 651 255 645T204 625T168 588T154 529Q154 496 173 476T225 442T299 421T382 402T466 379T539 342T591 284T611 196Q611 139 586 99T520 33T431 -5T332 -17Q272 -17 219 -2T125 44T61 122T37 235H127Q127 190 144 158T190 104T256 73T335 63Q367 63 399 69T458 89T500 129T516 193Q516 230 497 253T445 290T371 314T288 332T204 354T131 387T79 440T59 522Q59 576 81 615T139 680T222 718T318 731Q373 731 420 718T502 677T558 607T581 505H491Z"  />
<glyph unicode="&#x406;" horiz-adv-x="259" d="M82 714H177V0H82V714Z"  />
<glyph unicode="&#x407;" horiz-adv-x="259" d="M82 714H177V0H82V714ZM179 897H269V793H179V897ZM-9 897H81V793H-9V897Z"  />
<glyph unicode="&#x408;" horiz-adv-x="519" d="M441 178Q441 142 431 107T396 45T331 0T230 -17Q130 -17 76 36T22 191V235H117V205Q117 174 122 148T139 103T174 74T232 63Q297 63 321 98T346 192V714H441V178Z"  />
<glyph unicode="&#x409;" horiz-adv-x="1000" d="M564 421H738Q847 421 904 367T962 210Q962 111 904 56T737 0H469V632H247L231 199Q229 141 214 100T175 33T121 -5T59 -17Q40 -17 25 -14T-4 -4V77Q24 67 47 67Q67 67 83 73T112 96T130 142T139 219L154 714H564V421ZM564 80H712Q868 80 868 210Q868 341 712 341H564V80Z"  />
<glyph unicode="&#x40A;" horiz-adv-x="1000" d="M962 210Q962 111 904 56T737 0H475V341H173V0H78V714H173V421H475V714H570V421H738Q847 421 904 367T962 210ZM570 80H712Q868 80 868 210Q868 341 712 341H570V80Z"  />
<glyph unicode="&#x40B;" horiz-adv-x="746" d="M208 0V634H2V714H573V634H303V412Q346 426 390 434T479 442Q537 442 579 428T649 386T689 322T702 240V0H607V225Q607 297 577 328T469 360Q430 360 388 352T303 330V0H208Z"  />
<glyph unicode="&#x40C;" horiz-adv-x="667" d="M78 714H173V358L535 714H658L357 426L670 0H550L292 361L173 250V0H78V714ZM362 922H471L340 779H276L362 922Z"  />
<glyph unicode="&#x40E;" horiz-adv-x="611" d="M0 714H103L309 278L515 714H616L313 102Q283 40 241 12T146 -17Q101 -17 62 -2V78Q82 71 98 67T132 63Q163 63 190 81T243 156L258 189L0 714ZM205 919Q229 836 317 836Q360 836 380 858T416 919H467Q456 855 416 818T309 781Q240 781 203 816T155 919H205Z"  />
<glyph unicode="&#x40F;" horiz-adv-x="722" d="M409 -177H314V0H78V714H173V80H549V714H644V0H409V-177Z"  />
<glyph unicode="&#x410;" horiz-adv-x="648" d="M272 714H377L656 0H551L473 215H171L91 0H-7L272 714ZM443 295L324 628H322L201 295H443Z"  />
<glyph unicode="&#x411;" horiz-adv-x="672" d="M630 210Q630 111 572 56T405 0H78V714H567V634H173V421H406Q515 421 572 367T630 210ZM173 80H379Q535 80 535 210Q535 341 379 341H173V80Z"  />
<glyph unicode="&#x412;" horiz-adv-x="685" d="M78 714H337Q360 714 386 714T439 711T487 703T526 688Q561 667 585 630T610 539Q610 482 583 441T504 379V377Q570 363 605 317T640 205Q640 166 626 129T585 64T517 18T423 0H78V714ZM363 407Q444 407 479 435T515 521Q515 558 503 580T470 615T422 630T363 634H173V407H363ZM411 80Q474 80 509 114T545 208Q545 243 532 266T498 302T448 321T390 327H173V80H411Z"  />
<glyph unicode="&#x413;" horiz-adv-x="552" d="M78 0V714H546V634H173V0H78Z"  />
<glyph unicode="&#x414;" horiz-adv-x="722" d="M615 -177V0H104V-177H9V80H79Q131 189 151 300T172 536V714H631V80H710V-177H615ZM536 634H266V533Q266 399 246 289T183 80H536V634Z"  />
<glyph unicode="&#x415;" horiz-adv-x="611" d="M78 714H571V634H173V407H544V327H173V80H574V0H78V714Z"  />
<glyph unicode="&#x416;" horiz-adv-x="1003" d="M893 0L633 359L549 269V0H454V269L370 357L109 0H-8L307 417L24 714H143L454 382V714H549V382L862 714H979L695 421L1011 0H893Z"  />
<glyph unicode="&#x417;" horiz-adv-x="654" d="M611 203Q611 156 591 116T535 46T447 0T331 -17Q267 -17 214 -2T122 44T63 123T41 235H132Q133 187 150 154T194 99T258 69T335 60Q375 60 408 70T466 99T503 145T517 205Q517 246 502 271T463 310T406 329T337 334Q322 334 308 334T273 333V411Q293 410 309 410T337 410Q371 410 399 416T448 437T480 473T492 529Q492 591 452 622T339 653Q259 653 214 619T160 507H69Q71 564 92 606T150 676T236 717T342 731Q397 731 442 718T519 680T568 617T586 533Q586 505 576 481T550 437T512 403T468 382V379Q539 365 575 315T611 203Z"  />
<glyph unicode="&#x418;" horiz-adv-x="722" d="M78 714H173V117H175L524 714H644V0H549V599H547L197 0H78V714Z"  />
<glyph unicode="&#x419;" horiz-adv-x="722" d="M78 714H173V117H175L524 714H644V0H549V599H547L197 0H78V714ZM260 919Q284 836 372 836Q415 836 435 858T471 919H522Q511 855 471 818T364 781Q295 781 258 816T210 919H260Z"  />
<glyph unicode="&#x41A;" horiz-adv-x="667" d="M78 714H173V358L535 714H658L357 426L670 0H550L292 361L173 250V0H78V714Z"  />
<glyph unicode="&#x41B;" horiz-adv-x="682" d="M601 0H506V632H247L231 199Q229 141 214 100T175 33T121 -5T59 -17Q40 -17 25 -14T-4 -4V77Q24 67 47 67Q67 67 83 73T112 96T130 142T139 219L154 714H601V0Z"  />
<glyph unicode="&#x41C;" horiz-adv-x="871" d="M80 714H210L435 114L661 714H791V0H701V594H699L476 0H395L172 594H170V0H80V714Z"  />
<glyph unicode="&#x41D;" horiz-adv-x="722" d="M78 714H173V407H549V714H644V0H549V327H173V0H78V714Z"  />
<glyph unicode="&#x41E;" horiz-adv-x="760" d="M38 357Q38 430 59 497T124 617T231 700T380 731Q465 731 529 700T636 617T700 498T722 357Q722 284 701 217T636 97T529 14T380 -17Q295 -17 231 14T124 97T60 216T38 357ZM133 357Q133 303 147 251T191 156T268 89T380 63Q445 63 492 88T569 156T613 250T627 357Q627 411 613 463T569 558T492 625T380 651Q315 651 268 626T191 558T147 464T133 357Z"  />
<glyph unicode="&#x41F;" horiz-adv-x="722" d="M644 0H549V634H173V0H78V714H644V0Z"  />
<glyph unicode="&#x420;" horiz-adv-x="648" d="M78 714H391Q499 714 554 659T610 503Q610 403 555 347T391 292H173V0H78V714ZM173 372H359Q440 371 477 405T515 503Q515 567 478 600T359 634H173V372Z"  />
<glyph unicode="&#x421;" horiz-adv-x="722" d="M43 355Q43 433 65 501T129 621T235 701T381 731Q437 731 487 716T576 672T641 600T675 499H580Q564 575 510 613T380 651Q316 651 271 627T196 563T152 470T138 362Q138 301 152 247T195 152T271 87T381 63Q427 63 464 78T527 121T569 187T587 269H682Q668 134 589 59T373 -17Q290 -17 228 12T125 91T64 209T43 355Z"  />
<glyph unicode="&#x422;" horiz-adv-x="574" d="M240 634H2V714H573V634H335V0H240V634Z"  />
<glyph unicode="&#x423;" horiz-adv-x="611" d="M0 714H103L309 278L515 714H616L313 102Q283 40 241 12T146 -17Q101 -17 62 -2V78Q82 71 98 67T132 63Q163 63 190 81T243 156L258 189L0 714Z"  />
<glyph unicode="&#x424;" horiz-adv-x="778" d="M747 359Q747 289 721 239T652 155T553 105T437 85V0H342V85Q280 86 224 103T125 155T57 240T31 359Q31 426 56 477T125 564T224 617T342 638V714H437V638Q499 637 555 619T654 565T722 479T747 359ZM653 359Q653 408 637 445T591 508T523 546T437 561V162Q483 164 522 176T591 213T636 273T653 359ZM342 561Q296 559 257 546T188 508T142 446T125 359Q125 309 141 274T187 214T256 178T342 162V561Z"  />
<glyph unicode="&#x425;" horiz-adv-x="611" d="M248 367L13 714H127L305 435L491 714H597L361 367L612 0H496L304 295L106 0H-1L248 367Z"  />
<glyph unicode="&#x426;" horiz-adv-x="722" d="M615 0H78V714H173V80H536V714H631V80H710V-177H615V0Z"  />
<glyph unicode="&#x427;" horiz-adv-x="669" d="M496 0V317Q483 314 461 310T411 302T355 295T301 292Q179 292 114 344T48 503V714H143V517Q143 442 181 409T305 375Q333 375 361 377T414 384T461 392T496 399V714H591V0H496Z"  />
<glyph unicode="&#x428;" horiz-adv-x="1073" d="M78 0V714H173V80H488V714H583V80H898V714H993V0H78Z"  />
<glyph unicode="&#x429;" horiz-adv-x="1084" d="M78 0V714H173V80H488V714H583V80H898V714H993V80H1072V-177H977V0H78Z"  />
<glyph unicode="&#x42A;" horiz-adv-x="803" d="M765 210Q765 111 707 56T540 0H233V634H2V714H328V421H541Q650 421 707 367T765 210ZM328 80H514Q670 80 670 210Q670 341 514 341H328V80Z"  />
<glyph unicode="&#x42B;" horiz-adv-x="871" d="M698 714H793V0H698V714ZM610 210Q610 111 552 56T385 0H78V714H173V421H386Q495 421 552 367T610 210ZM173 80H359Q515 80 515 210Q515 341 359 341H173V80Z"  />
<glyph unicode="&#x42C;" horiz-adv-x="648" d="M610 210Q610 111 552 56T385 0H78V714H173V421H386Q495 421 552 367T610 210ZM173 80H359Q515 80 515 210Q515 341 359 341H173V80Z"  />
<glyph unicode="&#x42D;" horiz-adv-x="722" d="M679 355Q679 269 654 200T584 83T480 9T350 -17Q221 -17 140 52T43 247H138Q152 156 206 110T353 64Q400 64 441 82T513 134T563 219T584 334H238V414H580Q576 462 561 504T518 579T450 631T354 650Q312 650 278 639T217 609T172 564T143 508H48Q61 563 90 605T161 675T251 717T352 731Q436 731 498 702T600 621T659 502T679 355Z"  />
<glyph unicode="&#x42E;" horiz-adv-x="1000" d="M173 411H311Q318 476 341 534T404 636T502 705T635 731Q718 731 779 700T881 617T942 498T962 357Q962 284 942 217T882 97T780 14T635 -17Q556 -17 497 11T397 88T335 199T310 331H173V0H78V714H173V411ZM402 357Q402 302 414 250T454 156T526 89T635 63Q699 63 743 88T814 155T854 249T867 357Q867 412 855 464T815 558T743 625T635 651Q571 651 527 626T455 559T415 465T402 357Z"  />
<glyph unicode="&#x42F;" horiz-adv-x="665" d="M110 0H-6L233 309Q148 320 102 369T55 509Q55 608 115 661T280 714H587V0H492V305H345L110 0ZM492 634H292Q220 634 185 601T150 509Q150 445 187 415T302 385H492V634Z"  />
<glyph unicode="&#x430;" horiz-adv-x="537" d="M522 2Q499 -12 461 -12Q428 -12 409 7T389 68Q354 26 308 7T207 -12Q172 -12 141 -4T86 21T50 66T36 133Q36 177 51 205T90 250T146 277T211 292Q246 299 277 302T333 312T371 331T385 368Q385 396 375 413T348 439T311 451T270 454Q216 454 180 434T141 356H56Q58 404 76 437T124 490T192 520T275 529Q310 529 344 524T407 504T452 460T469 387V121Q469 91 472 77T496 63Q507 63 522 68V2ZM384 267Q368 255 342 250T288 241T230 233T178 218T141 190T126 139Q126 118 134 104T156 80T188 67T226 63Q268 63 298 74T347 103T375 141T384 180V267Z"  />
<glyph unicode="&#x431;" horiz-adv-x="574" d="M38 277Q38 352 48 419T86 538T165 626T296 674L362 684Q396 689 408 695T425 714H510Q505 686 493 668T463 639T424 621T378 612L315 603Q267 596 234 582T177 543T140 483T116 399H119Q151 458 202 486T314 515Q363 515 404 499T475 450T521 370T538 259Q538 195 519 145T467 60T388 7T288 -12Q225 -12 179 8T101 66T54 157T38 277ZM125 256Q125 212 136 177T169 115T221 75T289 61Q322 61 351 74T401 113T435 174T448 257Q448 343 408 393T294 444Q258 444 227 431T174 394T138 335T125 256Z"  />
<glyph unicode="&#x432;" horiz-adv-x="537" d="M64 517H303Q391 517 435 487T479 391Q479 349 460 323T404 279V278Q451 265 476 235T502 152Q502 119 491 91T458 43T408 12T345 0H64V517ZM301 308Q350 308 371 325T393 377Q393 409 371 426T298 444H147V308H301ZM147 73H329Q370 73 393 94T416 154Q416 190 392 213T314 236H147V73Z"  />
<glyph unicode="&#x433;" horiz-adv-x="422" d="M149 442V0H64V517H418V442H149Z"  />
<glyph unicode="&#x434;" horiz-adv-x="574" d="M476 -164V0H90V-164H5V75H61Q77 112 89 149T109 224T122 303T126 392V517H494V75H561V-164H476ZM409 442H210V389Q210 341 206 299T195 219T176 146T149 75H409V442Z"  />
<glyph unicode="&#x435;" horiz-adv-x="537" d="M505 164Q488 77 430 33T284 -12Q222 -12 177 8T100 65T54 151T36 260Q36 318 54 367T104 453T181 509T279 529Q348 529 393 501T466 428T504 332T513 233H126Q125 199 134 169T163 115T214 77T287 63Q341 63 375 88T421 164H505ZM423 308Q421 338 410 365T379 411T333 442T274 454Q241 454 215 443T169 411T139 365T126 308H423Z"  />
<glyph unicode="&#x436;" horiz-adv-x="777" d="M104 0H0L227 302L29 517H136L344 282H346V517H431V277H433L645 517H748L551 302L777 0H672L495 248L431 181V0H346V179L280 248L104 0Z"  />
<glyph unicode="&#x437;" horiz-adv-x="500" d="M36 367Q40 412 59 442T108 492T175 520T253 529Q344 529 395 490T446 383Q446 342 423 318T361 279V277Q406 264 434 235T463 152Q463 112 446 82T400 30T330 -1T244 -12Q135 -12 83 34T25 163H111Q115 109 151 83T244 57Q302 57 338 81T375 150Q375 188 350 211T265 234H194V307H251Q273 307 293 310T328 321T351 344T360 379Q360 415 333 437T252 460Q203 460 166 440T122 367H36H36Z"  />
<glyph unicode="&#x438;" horiz-adv-x="556" d="M64 0V517H149V97H151L383 517H492V0H407V420H405L173 0H64Z"  />
<glyph unicode="&#x439;" horiz-adv-x="556" d="M64 0V517H149V97H151L383 517H492V0H407V420H405L173 0H64ZM172 729Q196 646 284 646Q327 646 347 668T383 729H434Q423 665 383 628T276 591Q207 591 170 626T122 729H172Z"  />
<glyph unicode="&#x43A;" horiz-adv-x="514" d="M64 517H149V278L385 517H499L290 318L514 0H406L228 257L149 182V0H64V517Z"  />
<glyph unicode="&#x43B;" horiz-adv-x="546" d="M482 0H397V442H210L199 166Q197 118 186 85T157 30T114 -1T61 -11Q42 -11 28 -8T2 0V70Q14 65 24 64T45 62Q59 62 71 66T93 84T109 119T116 176L128 517H482V0Z"  />
<glyph unicode="&#x43C;" horiz-adv-x="688" d="M539 0V410H536L383 0H305L152 410H149V0H64V517H187L344 95H346L503 517H624V0H539Z"  />
<glyph unicode="&#x43D;" horiz-adv-x="556" d="M64 0V517H149V311H407V517H492V0H407V236H149V0H64Z"  />
<glyph unicode="&#x43E;" horiz-adv-x="574" d="M36 258Q36 315 52 364T100 450T178 508T287 529Q348 529 395 508T474 451T522 365T538 258Q538 201 522 152T474 67T395 9T287 -12Q225 -12 179 9T100 66T52 152T36 258ZM126 258Q126 211 138 175T173 114T224 76T287 63Q320 63 349 76T401 113T435 174T448 258Q448 305 436 341T401 403T350 441T287 454Q254 454 225 441T173 403T139 342T126 258Z"  />
<glyph unicode="&#x43F;" horiz-adv-x="556" d="M64 0V517H492V0H407V442H149V0H64Z"  />
<glyph unicode="&#x440;" horiz-adv-x="593" d="M67 517H152V447H154Q175 490 220 509T319 529Q379 529 423 507T497 448T542 361T557 257Q557 202 543 153T499 68T425 10T321 -12Q301 -12 278 -8T232 5T189 30T154 69H152V-198H67V517ZM467 263Q467 299 458 333T429 395T379 438T307 454Q264 454 234 437T185 393T158 330T149 259Q149 221 158 186T186 123T237 80T312 63Q355 63 385 80T433 125T459 189T467 263Z"  />
<glyph unicode="&#x441;" horiz-adv-x="537" d="M415 351Q405 400 373 427T287 454Q241 454 210 437T161 392T134 328T126 252Q126 216 134 182T161 122T207 79T277 63Q340 63 375 96T419 189H506Q492 93 435 41T278 -12Q219 -12 174 7T98 62T52 145T36 252Q36 310 51 360T96 448T172 507T280 529Q324 529 362 519T430 486T479 431T503 351H415Z"  />
<glyph unicode="&#x442;" horiz-adv-x="463" d="M274 442V0H189V442H4V517H459V442H274Z"  />
<glyph unicode="&#x443;" horiz-adv-x="500" d="M267 -69Q252 -107 238 -133T206 -175T167 -199T117 -207Q102 -207 87 -205T58 -198V-120Q70 -124 82 -128T108 -132Q134 -132 150 -120T178 -85L213 3L8 517H104L255 94H257L402 517H492L267 -69Z"  />
<glyph unicode="&#x444;" horiz-adv-x="801" d="M761 266Q761 212 750 162T715 73T651 11T553 -12Q525 -12 495 0T445 39H443V-198H358V41H356Q333 15 303 2T239 -12Q185 -12 147 11T85 73T51 162T40 266Q40 327 54 376T94 459T158 511T241 529Q277 529 307 514T355 473H358V714H443V473H446Q496 529 566 529Q610 529 646 511T707 459T747 376T761 266ZM673 264Q673 306 666 342T644 403T605 443T548 458Q516 458 487 443T443 387V126Q448 98 476 79T543 59Q582 59 607 77T646 125T667 191T673 264ZM358 386Q341 425 312 441T253 458Q220 458 197 444T158 404T135 342T128 264Q128 228 134 192T154 126T194 78T258 59Q297 59 325 78T358 126V386Z"  />
<glyph unicode="&#x445;" horiz-adv-x="518" d="M203 272L23 517H132L256 336L385 517H487L309 279L509 0H400L256 214L112 0H9L203 272Z"  />
<glyph unicode="&#x446;" horiz-adv-x="568" d="M470 0H64V517H149V75H403V517H488V75H555V-164H470V0Z"  />
<glyph unicode="&#x447;" horiz-adv-x="523" d="M374 0V229Q333 218 294 212T214 205Q134 205 90 242T46 354V517H131V367Q131 317 156 297T230 277Q265 277 299 282T374 299V517H459V0H374Z"  />
<glyph unicode="&#x448;" horiz-adv-x="809" d="M64 517H149V75H362V517H447V75H660V517H745V0H64V517Z"  />
<glyph unicode="&#x449;" horiz-adv-x="825" d="M64 517H149V75H362V517H447V75H660V517H745V75H812V-164H727V0H64V517Z"  />
<glyph unicode="&#x44A;" horiz-adv-x="611" d="M589 163Q589 127 577 97T543 46T489 12T420 0H152V442H3V517H237V320H421Q497 320 543 279T589 163ZM237 247V73H397Q448 73 474 94T501 161Q501 203 475 225T398 247H237Z"  />
<glyph unicode="&#x44B;" horiz-adv-x="708" d="M559 0V517H644V0H559ZM477 162Q477 126 465 96T431 45T377 12T308 0H64V517H149V320H309Q385 320 431 278T477 162ZM149 247V73H285Q336 73 362 94T389 160Q389 202 363 224T286 247H149Z"  />
<glyph unicode="&#x44C;" horiz-adv-x="523" d="M501 162Q501 126 489 96T455 45T401 12T332 0H64V517H149V320H333Q409 320 455 278T501 162ZM149 247V73H309Q360 73 386 94T413 160Q413 202 387 224T310 247H149Z"  />
<glyph unicode="&#x44D;" horiz-adv-x="537" d="M501 258Q501 196 485 147T437 62T359 7T252 -12Q158 -12 100 38T31 176H117Q126 118 163 90T256 61Q323 61 366 104T411 233H195V308H409Q401 378 363 417T261 456Q209 456 174 434T125 366H35Q50 443 110 486T260 529Q318 529 363 510T438 456T485 370T501 258Z"  />
<glyph unicode="&#x44E;" horiz-adv-x="766" d="M254 310Q260 357 278 397T325 466T396 512T490 529Q550 529 595 508T670 451T715 365T730 258Q730 201 715 152T670 67T595 9T490 -12Q434 -12 391 7T317 59T271 138T251 237H149V0H64V517H149V310H254ZM339 258Q339 162 381 113T490 63Q557 63 598 112T640 258Q640 354 599 404T490 454Q423 454 381 404T339 258Z"  />
<glyph unicode="&#x44F;" horiz-adv-x="535" d="M386 0V211H273L110 0H-3L175 214Q120 222 84 260T47 364Q47 436 92 476T213 517H471V0H386ZM226 442Q177 442 156 421T134 364Q134 328 156 307T228 286H386V442H226Z"  />
<glyph unicode="&#x451;" horiz-adv-x="537" d="M330 706H420V602H330V706ZM142 706H232V602H142V706ZM505 164Q488 77 430 33T284 -12Q222 -12 177 8T100 65T54 151T36 260Q36 318 54 367T104 453T181 509T279 529Q348 529 393 501T466 428T504 332T513 233H126Q125 199 134 169T163 115T214 77T287 63Q341 63 375 88T421 164H505ZM423 308Q421 338 410 365T379 411T333 442T274 454Q241 454 215 443T169 411T139 365T126 308H423Z"  />
<glyph unicode="&#x452;" horiz-adv-x="556" d="M492 96Q492 30 473 -21T419 -110T333 -170T220 -198V-119Q313 -103 360 -51T407 100V338Q407 385 379 412T302 439Q263 439 235 427T187 394T159 343T149 280V0H64V580H-22V641H64V714H149V641H319V580H149V429H151Q163 452 181 468T221 494T267 509T314 514Q365 514 399 501T454 462T483 403T492 328V96Z"  />
<glyph unicode="&#x453;" horiz-adv-x="422" d="M149 442V0H64V517H418V442H149ZM260 732H369L238 589H174L260 732Z"  />
<glyph unicode="&#x454;" horiz-adv-x="535" d="M504 176Q490 88 432 38T281 -12Q220 -12 174 7T98 60T52 143T36 251Q36 315 52 366T100 454T178 509T284 529Q374 529 430 488T500 366H410Q397 414 365 435T285 456Q219 456 179 417T128 308H346V233H125Q130 150 170 106T279 61Q334 61 370 89T418 176H504H504Z"  />
<glyph unicode="&#x455;" horiz-adv-x="500" d="M116 163Q117 134 129 115T160 85T204 68T255 63Q275 63 297 66T337 77T368 100T380 140Q380 173 355 190T293 217T211 236T130 260T67 304T42 382Q42 421 59 449T104 494T166 520T235 529Q278 529 315 522T381 496T427 446T447 367H362Q360 392 349 408T321 435T284 449T242 454Q223 454 204 451T168 441T142 420T132 388Q132 365 147 351T187 328T241 312T301 298Q333 291 363 281T417 255T455 213T470 151Q470 104 451 73T400 23T329 -4T250 -12Q206 -12 168 -3T99 27T51 81T31 163H116Z"  />
<glyph unicode="&#x456;" horiz-adv-x="222" d="M154 610H69V714H154V610ZM69 517H154V0H69V517Z"  />
<glyph unicode="&#x457;" horiz-adv-x="222" d="M161 706H251V602H161V706ZM-27 706H63V602H-27V706ZM69 0V517H154V0H69Z"  />
<glyph unicode="&#x458;" horiz-adv-x="222" d="M154 610H69V714H154V610ZM154 -66Q154 -135 121 -166T30 -198Q6 -198 -14 -194V-121Q-9 -122 -5 -122T3 -123H21Q49 -123 59 -108T69 -52V517H154V-66Z"  />
<glyph unicode="&#x459;" horiz-adv-x="773" d="M205 442L194 159Q192 113 181 81T152 28T111 -1T59 -11Q41 -11 28 -8T2 0V70Q14 65 24 64T43 62Q56 62 68 66T89 82T104 115T111 169L123 517H452V320H584Q660 320 705 278T751 162Q751 89 705 45T583 0H367V442H205ZM452 247V73H560Q663 73 663 160Q663 202 638 224T561 247H452Z"  />
<glyph unicode="&#x45A;" horiz-adv-x="778" d="M756 162Q756 126 744 96T710 45T656 12T587 0H367V246H149V0H64V517H149V320H367V517H452V320H588Q664 320 710 278T756 162ZM452 247V73H564Q615 73 641 94T668 160Q668 202 642 224T565 247H452Z"  />
<glyph unicode="&#x45B;" horiz-adv-x="556" d="M407 0V338Q407 385 379 412T302 439Q263 439 235 427T187 394T159 343T149 280V0H64V580H-22V641H64V714H149V641H319V580H149V429H151Q163 452 181 468T221 494T267 509T314 514Q365 514 399 501T454 462T483 403T492 328V0H407Z"  />
<glyph unicode="&#x45C;" horiz-adv-x="514" d="M64 517H149V278L385 517H499L290 318L514 0H406L228 257L149 182V0H64V517ZM289 732H398L267 589H203L289 732Z"  />
<glyph unicode="&#x45E;" horiz-adv-x="500" d="M149 729Q173 646 261 646Q304 646 324 668T360 729H411Q400 665 360 628T253 591Q184 591 147 626T99 729H149ZM267 -69Q252 -107 238 -133T206 -175T167 -199T117 -207Q102 -207 87 -205T58 -198V-120Q70 -124 82 -128T108 -132Q134 -132 150 -120T178 -85L213 3L8 517H104L255 94H257L402 517H492L267 -69Z"  />
<glyph unicode="&#x45F;" horiz-adv-x="556" d="M320 -164H235V0H64V517H149V75H407V517H492V0H320V-164Z"  />
<glyph unicode="&#x490;" horiz-adv-x="552" d="M541 634H173V0H78V714H446V873H541V634Z"  />
<glyph unicode="&#x491;" horiz-adv-x="422" d="M414 442H149V0H64V517H329V672H414V442Z"  />
<glyph unicode="&#x2013;" horiz-adv-x="500" d="M0 318H500V238H0V318Z"  />
<glyph unicode="&#x2014;" horiz-adv-x="1000" d="M130 318H870V238H130V318Z"  />
<glyph unicode="&#x2018;" horiz-adv-x="278" d="M195 456H84V567Q84 597 90 623T110 670T144 702T194 714V664Q177 664 166 656T148 633T139 602T136 567H195V456Z"  />
<glyph unicode="&#x2019;" horiz-adv-x="278" d="M83 714H194V603Q194 573 188 547T168 500T133 468T84 456V506Q101 506 112 514T130 537T139 568T142 603H83V714Z"  />
<glyph unicode="&#x201A;" horiz-adv-x="278" d="M83 111H194V0Q194 -30 188 -56T168 -103T133 -135T84 -147V-97Q101 -97 112 -89T130 -66T139 -35T142 0H83V111Z"  />
<glyph unicode="&#x201C;" horiz-adv-x="426" d="M360 456H249V567Q249 597 255 623T275 670T309 702T359 714V664Q342 664 331 656T313 633T304 602T301 567H360V456ZM177 456H66V567Q66 597 72 623T92 670T126 702T176 714V664Q159 664 148 656T130 633T121 602T118 567H177V456Z"  />
<glyph unicode="&#x201D;" horiz-adv-x="426" d="M249 714H360V603Q360 573 354 547T334 500T299 468T250 456V506Q267 506 278 514T296 537T305 568T308 603H249V714ZM66 714H177V603Q177 573 171 547T151 500T116 468T67 456V506Q84 506 95 514T113 537T122 568T125 603H66V714Z"  />
<glyph unicode="&#x201E;" horiz-adv-x="426" d="M249 111H360V0Q360 -30 354 -56T334 -103T299 -135T250 -147V-97Q267 -97 278 -89T296 -66T305 -35T308 0H249V111ZM66 111H177V0Q177 -30 171 -56T151 -103T116 -135T67 -147V-97Q84 -97 95 -89T113 -66T122 -35T125 0H66V111Z"  />
<glyph unicode="&#x2020;" horiz-adv-x="556" d="M236 442H42V517H236V714H316V517H514V442H316V-155H236V442Z"  />
<glyph unicode="&#x2021;" horiz-adv-x="556" d="M236 42H42V117H236V442H42V517H236V714H316V517H514V442H316V117H514V42H316V-155H236V42Z"  />
<glyph unicode="&#x2022;" horiz-adv-x="500" d="M72 357Q72 394 86 426T124 483T180 521T250 535Q287 535 319 521T376 483T415 427T429 357Q429 320 415 288T377 231T320 192T250 178Q213 178 181 192T124 230T86 287T72 357Z"  />
<glyph unicode="&#x2026;" horiz-adv-x="1000" d="M777 111H888V0H777V111ZM444 111H555V0H444V111ZM111 111H222V0H111V111Z"  />
<glyph unicode="&#x2030;" horiz-adv-x="1148" d="M628 722H713L176 -22H90L628 722ZM72 535Q72 571 80 603T105 658T151 695T220 709Q260 709 287 696T332 661T358 607T366 540Q366 506 357 473T326 413Q306 388 278 378T218 368Q179 368 152 380T106 415T80 468T72 535ZM147 538Q147 518 149 498T159 461T181 434T219 423Q241 423 255 434T277 461T288 498T291 537Q291 553 289 573T279 612T258 642T223 654Q200 654 186 643T163 615T151 578T147 538ZM782 155Q782 191 790 223T815 278T861 315T930 329Q970 329 997 316T1042 281T1068 227T1076 160Q1076 126 1067 93T1036 33Q1016 8 988 -2T928 -12Q889 -12 862 0T816 35T790 88T782 155ZM437 155Q437 191 445 223T470 278T516 315T585 329Q625 329 652 316T697 281T723 227T731 160Q731 126 722 93T691 33Q671 8 643 -2T583 -12Q544 -12 517 0T471 35T445 88T437 155ZM857 158Q857 138 859 118T869 81T891 54T929 43Q951 43 965 54T987 81T998 118T1001 157Q1001 173 999 193T989 232T968 262T933 274Q910 274 896 263T873 235T861 198T857 158ZM512 158Q512 138 514 118T524 81T546 54T584 43Q606 43 620 54T642 81T653 118T656 157Q656 173 654 193T644 232T623 262T588 274Q565 274 551 263T528 235T516 198T512 158Z"  />
<glyph unicode="&#x2039;" horiz-adv-x="259" d="M50 234V322L202 442V356L102 278L202 200V114L50 234Z"  />
<glyph unicode="&#x203A;" horiz-adv-x="259" d="M209 322V234L57 114V200L157 278L57 356V442L209 322Z"  />
<glyph unicode="&#x20AC;" horiz-adv-x="556" d="M512 579Q441 648 369 648Q294 648 245 584Q205 532 189 450H472L445 389H182Q181 385 181 381T181 373V358V347Q181 340 182 337H431L405 276H187Q220 61 377 61Q425 61 462 80Q488 93 531 133V28Q463 -16 377 -16Q132 -16 90 276H13L40 337H86Q85 340 85 347V357V374Q85 384 86 389H13L39 450H93Q117 574 184 644Q259 725 377 725Q468 725 558 662L512 579Z"  />
<glyph unicode="&#x2116;" horiz-adv-x="1000" d="M486 0L169 554H167V0H77V697H178L498 137H500V697H590V0H486ZM799 421Q868 421 907 383T946 274Q946 211 907 172T799 132Q730 132 691 170T652 279Q652 342 691 381T799 421ZM873 277Q873 323 853 344T799 366Q764 366 745 345T725 276Q725 230 745 209T799 187Q834 187 853 208T873 277ZM664 0V63H944V0H664Z"  />
<glyph unicode="&#x2122;" horiz-adv-x="990" d="M927 302H859V646H857L722 302H679L544 646H542V302H474V714H579L702 401L823 714H927V302ZM390 659H261V302H193V659H64V714H390V659Z"  />
<glyph unicode="&#xE002;" horiz-adv-x="222" d="M136 922H245L114 779H50L136 922Z"  />
<glyph unicode="&#xE00B;" horiz-adv-x="222" d="M160 897H250V793H160V897ZM-28 897H62V793H-28V897Z"  />
<glyph unicode="&#xE00F;" horiz-adv-x="222" d="M5 919Q29 836 117 836Q160 836 180 858T216 919H267Q256 855 216 818T109 781Q40 781 3 816T-45 919H5Z"  />

</font>
</defs>
</svg>
