<svg xmlns="http://www.w3.org/2000/svg">
<defs>
<font horiz-adv-x="429" id="3fc84193-a13f-4fe8-87f7-238748a4ac54">
<font-face font-family="" panose-1="2 11 4 3 2 2 2 2 2 4" ascent="967" descent="-214" units-per-em="1000" alphabetic="0">
</font-face>
<missing-glyph horiz-adv-x="278" />

<glyph unicode="&#xA;" />
<glyph unicode="&#xD;" horiz-adv-x="0" />
<glyph unicode=" " horiz-adv-x="278" />
<glyph unicode="!" horiz-adv-x="241" d="M87 501V714H155V501L140 178H102L87 501ZM79 106H163V0H79V106Z"  />
<glyph unicode="&quot;" horiz-adv-x="370" d="M220 714H283V471H220V714ZM87 714H150V471H87V714Z"  />
<glyph unicode="#" horiz-adv-x="556" d="M145 223H35V268H151L173 424H63V469H179L210 691H260L229 469H370L401 691H451L420 469H525V424H414L392 268H497V223H386L355 0H305L336 223H195L164 0H114L145 223ZM342 268L364 424H223L201 268H342Z"  />
<glyph unicode="$" horiz-adv-x="556" d="M92 228Q93 140 135 94T257 38V334Q215 343 177 355T110 390T64 447T47 534Q47 579 63 615T108 676T175 715T257 729V807H296V729Q339 729 378 714T446 670T492 601T508 512H445Q444 587 403 631T296 676V388Q339 379 380 366T454 330T507 272T527 185Q527 135 508 98T456 36T382 -2T296 -15V-100H257V-14Q140 -3 87 55T29 228H92ZM257 676Q227 676 201 668T154 641T122 595T110 527Q110 492 122 470T155 434T202 412T257 397V676ZM296 38Q327 38 357 46T411 72T449 117T464 184Q464 220 449 244T409 283T355 309T296 326V38Z"  />
<glyph unicode="%" horiz-adv-x="889" d="M643 725H690L238 -34H190L643 725ZM228 328Q186 328 156 342T106 382T78 442T69 517Q69 557 78 591T106 651T155 691T228 706Q270 706 300 692T350 652T378 592T387 517Q387 477 378 443T350 383T301 343T228 328ZM228 373Q259 373 279 386T312 421T329 467T334 516Q334 540 329 565T312 612T280 647T228 661Q196 661 176 648T143 613T127 566T122 516Q122 492 126 467T143 421T175 387T228 373ZM508 174Q508 214 517 248T545 308T594 348T667 363Q709 363 739 349T789 309T817 249T826 174Q826 134 817 100T789 40T740 0T667 -15Q625 -15 595 -1T545 39T517 99T508 174ZM561 173Q561 149 565 124T582 78T614 44T667 30Q698 30 718 43T751 78T768 124T773 173Q773 197 768 222T751 269T719 304T667 318Q635 318 615 305T582 270T566 223T561 173Z"  />
<glyph unicode="&amp;" horiz-adv-x="611" d="M39 185Q39 223 55 254T96 312T153 360T214 397Q199 416 184 435T156 476T135 520T126 569Q126 602 138 628T172 674T222 703T284 714Q317 714 345 704T395 674T429 629T442 569Q442 536 430 509T399 460T354 420T302 384L458 196Q471 222 475 248T479 316H542Q542 286 534 239T500 145L620 0H541L465 93Q426 44 372 15T255 -15Q209 -15 170 -2T101 36T56 99T39 185ZM269 425Q288 437 307 451T343 482T369 521T379 569Q379 614 351 637T284 661Q245 661 217 638T189 569Q189 550 197 531T217 493T243 457T269 425ZM102 179Q102 147 115 122T149 77T199 48T257 38Q311 38 353 67T426 140L248 356Q222 342 196 325T149 286T115 238T102 179Z"  />
<glyph unicode="&apos;" horiz-adv-x="278" d="M108 714H171V471H108V714Z"  />
<glyph unicode="(" horiz-adv-x="241" d="M114 243Q114 189 123 132T149 18T189 -92T242 -191H192Q159 -136 133 -82T88 27T61 142T51 266Q51 395 88 510T192 729H242Q175 621 145 499T114 243Z"  />
<glyph unicode=")" horiz-adv-x="241" d="M-1 -191Q66 -83 96 39T127 295Q127 350 118 407T91 519T51 628T-1 729H49Q82 673 108 620T153 511T180 396T190 272Q190 143 153 28T49 -191H-1H-1Z"  />
<glyph unicode="*" horiz-adv-x="352" d="M69 458L142 556L27 595L41 632L156 591V714H195V591L310 632L325 595L207 556L279 458L247 435L174 535L101 435L69 458Z"  />
<glyph unicode="+" horiz-adv-x="600" d="M49 278H274V503H327V278H552V225H327V0H274V225H49V278Z"  />
<glyph unicode="&#x2c;" horiz-adv-x="278" d="M97 106H181V-1Q181 -23 176 -44T159 -84T132 -117T93 -137V-94Q105 -90 114 -79T129 -55T137 -27T139 0H97V106Z"  />
<glyph unicode="-" horiz-adv-x="370" d="M60 304H310V246H60V304Z"  />
<glyph unicode="." horiz-adv-x="278" d="M97 106H181V0H97V106Z"  />
<glyph unicode="/" horiz-adv-x="333" d="M295 729H346L41 -15H-13L295 729Z"  />
<glyph unicode="0" horiz-adv-x="556" d="M278 -15Q201 -15 154 18T80 104T44 220T34 345Q34 406 43 470T79 587T153 672T278 706Q354 706 402 673T476 587T512 471T522 346Q522 284 513 220T477 104T402 19T278 -15ZM278 38Q338 38 374 69T428 146T453 246T459 346Q459 391 453 445T429 545T374 622T278 653Q218 653 182 622T128 545T103 445T97 346Q97 300 103 247T127 147T182 69T278 38Z"  />
<glyph unicode="1" horiz-adv-x="556" d="M282 520H97V565Q138 566 171 569T229 586T270 625T294 700H345V0H282V520Z"  />
<glyph unicode="2" horiz-adv-x="556" d="M36 0Q37 52 54 92T99 164T162 222T234 273T307 323T373 378Q402 407 416 437T431 510Q431 544 419 570T385 615T335 643T274 653Q231 653 201 637T151 594T124 532T116 458H53Q52 512 65 557T107 636T177 687T277 706Q323 706 362 694T431 656T477 595T494 509Q494 465 480 429T441 363T384 308T318 260Q292 243 259 223T194 177T138 123T108 58H497V0H36H36Z"  />
<glyph unicode="3" horiz-adv-x="556" d="M96 223Q94 181 105 147T139 89T195 52T271 38Q305 38 337 48T395 78T435 126T450 193Q450 230 437 258T401 304T348 332T282 341H229V394H282Q306 394 331 401T377 424T411 464T424 521Q424 555 412 580T379 621T330 645T271 653Q232 653 202 640T152 604T121 548T112 476H49Q49 525 64 567T108 640T178 688T270 706Q311 706 350 696T419 664T468 608T487 528Q487 471 457 429T369 373V371Q438 360 475 314T513 198Q513 147 494 107T441 40T364 -1T272 -15Q218 -15 173 1T95 47T46 122T33 223H96Z"  />
<glyph unicode="4" horiz-adv-x="556" d="M30 235L354 700H411V227H516V174H411V0H353V174H30V235ZM353 227V608H351L87 227H353Z"  />
<glyph unicode="5" horiz-adv-x="556" d="M99 200Q100 164 113 134T150 83T204 50T271 38Q311 38 343 53T399 95T434 156T446 229Q446 268 433 301T396 358T339 397T267 411Q219 411 178 390T111 328H57L125 691H475V633H169L124 401L126 399Q152 430 192 447T274 464Q328 464 371 446T445 396T492 320T509 222Q509 171 490 128T438 53T361 3T266 -15Q217 -15 176 0T104 42T55 110T36 200H99Z"  />
<glyph unicode="6" horiz-adv-x="556" d="M285 -15Q221 -15 175 4T99 68T55 184T40 357Q40 378 42 412T54 484T79 562T123 634T192 686T290 706Q384 706 439 661T505 523H442Q434 581 396 617T296 653Q234 653 197 622T138 544T110 443T103 340H105Q130 392 180 424T291 456Q343 456 386 439T459 390T505 316T522 222Q522 171 505 128T456 53T381 3T285 -15ZM116 218Q116 180 126 148T157 91T212 52T291 38Q328 38 359 52T412 91T447 149T459 218Q459 256 448 290T415 349T362 388T290 403Q249 403 217 389T162 349T128 291T116 218Z"  />
<glyph unicode="7" horiz-adv-x="556" d="M150 0Q156 89 174 168T227 322T313 474T438 633H51V691H501V633Q468 599 422 542T333 405T257 224T218 0H150H150Z"  />
<glyph unicode="8" horiz-adv-x="556" d="M37 196Q39 265 76 314T179 375V377Q124 394 95 433T65 531Q65 576 83 609T132 663T200 695T277 706Q316 706 354 696T422 664T471 609T490 531Q490 474 460 434T376 377V375Q445 361 482 315T519 196Q519 143 500 104T448 38T371 -2T278 -15Q228 -15 185 -2T108 37T56 103T37 196ZM278 401Q307 400 334 407T381 431T414 472T427 531Q427 561 416 584T384 622T337 645T278 653Q249 653 222 645T174 622T141 584T128 531Q128 496 141 471T175 430T223 407T278 401ZM100 196Q100 157 114 127T152 78T208 48T278 38Q315 38 347 47T404 76T442 125T456 196Q456 233 442 262T403 310T346 339T278 348Q242 349 210 340T153 312T115 263T100 196Z"  />
<glyph unicode="9" horiz-adv-x="556" d="M114 168Q122 110 160 74T260 38Q321 38 359 69T418 147T446 248T453 351H451Q426 299 376 267T265 235Q212 235 170 252T97 301T51 375T34 469Q34 520 51 563T100 638T175 688T271 706Q335 706 381 687T457 623T501 507T516 334Q516 313 514 279T502 207T477 129T433 57T364 5T266 -15Q172 -15 117 30T51 168H114ZM266 288Q307 288 339 302T394 342T428 400T440 473Q440 510 430 543T399 600T344 639T265 653Q227 653 197 639T144 600T109 542T97 473Q97 435 108 401T141 342T194 303T266 288Z"  />
<glyph unicode=":" horiz-adv-x="278" d="M97 500H181V394H97V500ZM97 106H181V0H97V106Z"  />
<glyph unicode=";" horiz-adv-x="278" d="M97 500H181V394H97V500ZM97 106H181V-1Q181 -23 176 -44T159 -84T132 -117T93 -137V-94Q105 -90 114 -79T129 -55T137 -27T139 0H97V106Z"  />
<glyph unicode="&lt;" horiz-adv-x="600" d="M46 280L554 514V459L108 253L554 47V-8L46 226V280Z"  />
<glyph unicode="=" horiz-adv-x="600" d="M49 378H552V325H49V378ZM49 181H552V128H49V181Z"  />
<glyph unicode="&gt;" horiz-adv-x="600" d="M46 47L492 253L46 459V514L554 280V226L46 -8V47Z"  />
<glyph unicode="?" horiz-adv-x="537" d="M241 179Q240 225 246 256T265 312T301 360T356 412Q384 438 402 470T421 541Q421 571 410 596T379 638T333 666T278 676Q237 676 207 662T156 624T126 566T117 494H54Q54 547 69 590T113 664T185 712T281 729Q323 729 359 717T424 680T468 622T484 544Q484 488 460 449T397 374Q376 353 361 339T336 314T320 291T311 265T306 230T304 179H241ZM231 106H315V0H231V106Z"  />
<glyph unicode="@" horiz-adv-x="800" d="M193 274Q193 326 210 377T258 470T333 537T430 563Q463 563 491 544T536 479L561 544H614L518 256Q513 240 510 225T507 199T513 180T531 173Q564 173 595 196T649 255T686 335T700 421Q700 483 678 532T616 614T526 666T416 684Q346 684 288 658T188 588T123 483T100 353Q100 285 124 226T190 124T291 55T418 30Q455 30 491 39T562 65T625 107T676 163H727Q704 122 671 89T597 33T511 -2T418 -15Q337 -15 269 14T152 93T75 212T47 360Q47 438 75 505T154 622T270 700T414 729Q486 729 548 707T655 643T727 544T753 418Q753 358 733 305T679 213T605 151T521 128Q495 128 476 145T454 195H452Q429 171 396 150T325 129Q294 129 270 140T228 172T202 218T193 274ZM256 279Q256 234 279 208T339 182Q373 182 403 206T456 266T492 343T505 417Q505 435 498 451T480 481T455 502T426 510Q388 510 357 487T303 430T268 355T256 279Z"  />
<glyph unicode="A" horiz-adv-x="630" d="M281 714H357L637 0H564L477 222H152L66 0H-7L281 714ZM454 280L316 646L173 280H454Z"  />
<glyph unicode="B" horiz-adv-x="667" d="M72 714H374Q419 714 460 706T533 677T584 623T603 539Q603 511 594 485T569 437T530 400T479 379V377Q548 368 589 321T630 203Q630 177 623 143T589 76T512 22T374 0H72V714ZM374 401Q414 401 444 410T495 436T525 475T535 522Q535 656 374 656H140V401H374ZM374 58Q412 58 446 64T506 88T547 133T562 205Q562 274 514 308T374 343H140V58H374Z"  />
<glyph unicode="C" horiz-adv-x="704" d="M38 357Q38 430 59 497T122 616T227 698T375 729Q426 729 474 714T562 670T628 597T662 498H594Q585 539 565 571T515 626T450 659T375 671Q304 671 253 644T170 573T122 472T106 357Q106 298 121 242T169 142T253 70T375 43Q424 43 464 61T534 110T581 182T604 272H672Q665 206 641 153T579 63T490 5T375 -15Q291 -15 228 15T122 97T59 216T38 357Z"  />
<glyph unicode="D" horiz-adv-x="685" d="M72 714H319Q482 710 564 623T647 357Q647 179 565 92T319 0H72V714ZM285 58Q362 58 417 74T509 127T562 220T579 357Q579 437 562 494T509 587T418 639T285 656H140V58H285Z"  />
<glyph unicode="E" horiz-adv-x="593" d="M72 714H565V656H140V398H538V340H140V58H570V0H72V714Z"  />
<glyph unicode="F" horiz-adv-x="537" d="M72 714H525V656H140V398H482V340H140V0H72V714Z"  />
<glyph unicode="G" horiz-adv-x="741" d="M38 357Q38 430 59 497T122 616T227 698T375 729Q431 729 481 714T570 669T636 595T673 492H605Q602 523 585 554T538 612T467 654T375 671Q304 671 253 644T170 573T122 472T106 357Q106 298 121 242T169 142T253 70T375 43Q434 43 480 62T559 117T607 200T622 305H379V363H682V0H633L624 130H622Q604 92 578 65T519 20T451 -6T375 -15Q291 -15 228 15T122 97T59 216T38 357Z"  />
<glyph unicode="H" horiz-adv-x="704" d="M72 714H140V404H564V714H632V0H564V346H140V0H72V714Z"  />
<glyph unicode="I" horiz-adv-x="222" d="M77 714H145V0H77V714Z"  />
<glyph unicode="J" horiz-adv-x="500" d="M220 -15Q158 -15 120 5T59 60T29 138T21 229H89Q90 206 92 174T106 113T145 64T226 43Q266 43 292 53T333 86T354 144T360 228V714H428V199Q428 145 417 105T382 38T318 -2T220 -15Z"  />
<glyph unicode="K" horiz-adv-x="648" d="M72 714H140V330L555 714H647L328 419L662 0H574L277 372L140 245V0H72V714Z"  />
<glyph unicode="L" horiz-adv-x="537" d="M72 714H140V58H540V0H72V714Z"  />
<glyph unicode="M" horiz-adv-x="833" d="M70 714H170L417 88L663 714H763V0H695V617H693L449 0H385L140 617H138V0H70V714Z"  />
<glyph unicode="N" horiz-adv-x="704" d="M71 714H147L563 110H565V714H633V0H557L141 604H139V0H71V714Z"  />
<glyph unicode="O" horiz-adv-x="741" d="M34 357Q34 430 55 497T118 616T223 698T371 729Q455 729 518 699T623 617T686 498T707 357Q707 283 686 216T623 98T518 16T371 -15Q287 -15 224 15T118 97T55 216T34 357ZM102 357Q102 298 117 242T165 142T249 70T371 43Q441 43 492 70T575 141T623 242T639 357Q639 415 624 471T576 572T492 644T371 671Q300 671 249 644T166 573T118 472T102 357Z"  />
<glyph unicode="P" horiz-adv-x="630" d="M72 714H389Q437 714 476 701T543 661T586 596T601 510Q601 462 586 424T543 360T476 320T389 306H140V0H72V714ZM140 364H374Q445 364 489 400T533 510Q533 584 489 620T374 656H140V364Z"  />
<glyph unicode="Q" horiz-adv-x="741" d="M667 -46L556 38Q482 -15 371 -15Q287 -15 224 15T118 97T55 216T34 357Q34 430 55 497T118 616T223 698T371 729Q455 729 518 699T623 617T686 498T707 357Q707 273 680 200T599 74L701 -4L667 -46ZM548 113Q596 158 617 223T639 357Q639 415 624 471T576 572T492 644T371 671Q300 671 249 644T166 573T118 472T102 357Q102 298 117 242T165 142T249 70T371 43Q447 43 503 78L409 149L444 192L548 113Z"  />
<glyph unicode="R" horiz-adv-x="667" d="M72 714H399Q443 714 482 703T551 670T598 612T616 528Q616 460 581 410T477 346V344Q512 339 535 326T572 291T593 243T602 183Q603 165 604 139T608 87T617 37T635 0H560Q554 10 551 24T546 54T543 85T541 111Q539 148 535 186T516 253T474 301T398 317H140V0H72V714ZM140 375H394Q425 375 453 384T502 412T535 455T548 514Q548 580 510 618T394 656H140V375Z"  />
<glyph unicode="S" horiz-adv-x="630" d="M104 235Q103 180 121 143T170 84T245 53T337 43Q365 43 398 51T459 76T507 121T526 188Q526 218 513 240T478 277T430 301T379 317L220 356Q188 364 159 376T108 408T73 457T59 528Q59 554 69 589T106 655T182 707T305 729Q358 729 406 715T490 673T547 604T569 507H501Q499 547 483 578T440 629T379 660T306 671Q271 671 239 664T182 640T142 596T127 529Q127 504 135 486T159 454T193 433T235 420L409 377Q447 367 480 353T539 317T579 264T594 189Q594 177 592 157T580 115T553 69T505 27T429 -3T321 -15Q258 -15 204 -1T112 44T54 122T36 235H104Z"  />
<glyph unicode="T" horiz-adv-x="556" d="M-5 714H561V656H312V0H244V656H-5V714Z"  />
<glyph unicode="U" horiz-adv-x="685" d="M65 714H133V272Q133 210 147 167T188 96T253 56T342 43Q392 43 431 55T497 95T538 166T552 272V714H620V257Q620 202 605 153T556 66T470 7T342 -15Q268 -15 216 7T130 66T81 152T65 257V714Z"  />
<glyph unicode="V" horiz-adv-x="593" d="M-7 714H66L298 75H300L530 714H602L337 0H258L-7 714Z"  />
<glyph unicode="W" horiz-adv-x="907" d="M0 714H73L235 89H237L411 714H496L671 89H673L836 714H904L707 0H635L454 639H452L272 0H198L0 714Z"  />
<glyph unicode="X" horiz-adv-x="574" d="M3 714H83L285 415L494 714H570L326 366L584 0H502L285 315L65 0H-12L245 368L3 714Z"  />
<glyph unicode="Y" horiz-adv-x="611" d="M271 294L-10 714H71L306 352L540 714H621L339 294V0H271V294Z"  />
<glyph unicode="Z" horiz-adv-x="574" d="M37 714H551V654L81 58H561V0H5V60L475 656H37V714Z"  />
<glyph unicode="[" horiz-adv-x="241" d="M76 -191V729H237V676H139V-138H237V-191H76Z"  />
<glyph unicode="\" horiz-adv-x="333" d="M292 -15L-13 729H38L346 -15H292Z"  />
<glyph unicode="]" horiz-adv-x="241" d="M165 729V-191H4V-138H102V676H4V729H165Z"  />
<glyph unicode="^" horiz-adv-x="600" d="M44 238L274 691H326L556 238H499L299 628L102 238H44Z"  />
<glyph unicode="_" horiz-adv-x="500" d="M0 -125V-75H500V-125H0Z"  />
<glyph unicode="`" horiz-adv-x="185" d="M-31 730H47L152 589H101L-31 730Z"  />
<glyph unicode="a" horiz-adv-x="519" d="M54 358Q57 403 73 436T116 490T181 521T263 531Q297 531 331 525T392 500T436 450T453 365V91Q453 53 490 53Q501 53 510 57V4Q499 2 491 1T469 0Q445 0 431 6T408 25T398 53T395 90H393Q376 65 359 46T320 13T270 -8T205 -15Q169 -15 138 -6T83 21T46 68T32 136Q32 190 56 220T119 267T208 289T309 302Q328 304 343 307T369 317T384 338T390 372Q390 404 380 424T351 457T308 473T255 478Q195 478 157 450T117 358H54ZM390 282H388Q382 271 365 266T335 259Q295 252 253 247T175 230T118 198T95 140Q95 116 104 98T130 66T166 45T210 38Q246 38 279 49T336 81T375 132T390 200V282Z"  />
<glyph unicode="b" horiz-adv-x="574" d="M60 714H123V418H125Q135 446 153 467T196 502T247 523T304 531Q363 531 406 509T479 450T522 363T536 258Q536 203 522 154T479 67T407 7T304 -15Q241 -15 192 14T120 98H118V0H60V714ZM473 258Q473 298 464 337T434 408T381 458T304 478Q254 478 220 459T164 408T133 338T123 258Q123 218 132 179T163 108T219 58T304 38Q349 38 381 57T433 108T463 178T473 258Z"  />
<glyph unicode="c" horiz-adv-x="519" d="M424 354Q411 412 376 445T278 478Q233 478 199 459T143 409T109 339T97 258Q97 217 108 178T142 107T199 57T278 38Q307 38 333 49T379 79T412 126T428 185H491Q478 91 422 38T278 -15Q219 -15 174 7T97 66T50 152T34 258Q34 313 50 363T97 450T173 509T278 531Q361 531 418 487T487 354H424Z"  />
<glyph unicode="d" horiz-adv-x="574" d="M514 0H456V98H454Q444 72 425 52T380 16T327 -7T270 -15Q211 -15 168 7T95 66T52 153T38 258Q38 313 52 362T95 449T167 509T270 531Q298 531 326 524T378 502T420 467T449 418H451V714H514V0ZM101 258Q101 218 110 179T140 108T193 58T270 38Q320 38 354 57T410 108T441 178T451 258Q451 298 442 337T411 408T355 458T270 478Q225 478 193 459T141 408T111 338T101 258Z"  />
<glyph unicode="e" horiz-adv-x="519" d="M97 241Q97 206 106 170T137 105T190 57T267 38Q336 38 375 74T429 170H492Q472 82 419 34T267 -15Q205 -15 161 7T89 66T48 153T34 258Q34 309 47 358T89 445T161 507T267 531Q329 531 373 506T444 441T484 348T494 241H97ZM431 294Q430 330 419 363T386 421T335 462T267 478Q228 478 198 463T147 422T114 363T97 294H431Z"  />
<glyph unicode="f" horiz-adv-x="259" d="M259 463H157V0H94V463H6V516H94V563Q94 596 99 624T118 672T156 703T219 714Q233 714 245 713T272 710V656Q259 658 248 659T226 661Q200 661 186 653T166 632T158 600T157 561V516H259V463Z"  />
<glyph unicode="g" horiz-adv-x="556" d="M496 42Q496 -16 484 -62T444 -140T374 -189T267 -206Q228 -206 191 -197T125 -169T76 -121T53 -50H116Q121 -79 135 -98T170 -130T216 -147T267 -153Q355 -153 394 -104T433 42V112H431Q409 64 367 35T267 6Q205 6 161 26T89 83T47 167T34 271Q34 324 49 371T94 454T167 510T267 531Q295 531 321 523T368 501T405 467T431 427H433V516H496V42ZM267 59Q308 59 339 76T391 122T422 188T433 264Q433 302 424 340T395 409T344 459T267 478Q222 478 190 460T137 411T107 343T97 264Q97 225 107 188T138 123T191 77T267 59Z"  />
<glyph unicode="h" horiz-adv-x="537" d="M59 714H122V427H124Q142 474 188 502T289 531Q343 531 379 517T438 478T469 415T478 332V0H415V322Q415 355 409 383T388 433T348 466T284 478Q246 478 217 465T167 428T135 372T122 301V0H59V714Z"  />
<glyph unicode="i" horiz-adv-x="185" d="M61 714H124V613H61V714ZM61 516H124V0H61V516Z"  />
<glyph unicode="j" horiz-adv-x="185" d="M61 714H124V613H61V714ZM61 516H124V-48Q124 -77 120 -103T103 -148T69 -179T14 -191Q3 -191 -8 -190T-30 -189V-137Q-22 -138 -13 -138T4 -138Q41 -138 51 -117T61 -63V516Z"  />
<glyph unicode="k" horiz-adv-x="500" d="M60 714H123V266L409 516H493L273 325L508 0H429L225 281L123 196V0H60V714Z"  />
<glyph unicode="l" horiz-adv-x="185" d="M61 714H124V0H61V714Z"  />
<glyph unicode="m" horiz-adv-x="833" d="M60 516H118V429H121Q146 477 186 504T290 531Q341 531 382 506T438 430Q461 481 506 506T602 531Q773 531 773 350V0H710V347Q710 411 683 444T588 478Q547 478 520 463T477 421T455 362T448 292V0H385V350Q385 376 380 399T362 440T328 468T277 478Q236 478 207 464T160 424T132 363T123 288V0H60V516Z"  />
<glyph unicode="n" horiz-adv-x="537" d="M59 516H122V427H124Q142 474 188 502T289 531Q343 531 379 517T438 478T469 415T478 332V0H415V322Q415 355 409 383T388 433T348 466T284 478Q246 478 217 465T167 428T135 372T122 301V0H59V516Z"  />
<glyph unicode="o" horiz-adv-x="556" d="M278 531Q337 531 382 509T459 450T506 363T522 258Q522 202 506 153T459 66T383 7T278 -15Q219 -15 174 7T97 66T50 152T34 258Q34 313 50 363T97 450T173 509T278 531ZM278 478Q233 478 199 459T143 409T109 339T97 258Q97 217 108 178T142 107T199 57T278 38Q323 38 357 57T413 107T447 177T459 258Q459 299 448 338T414 409T357 459T278 478Z"  />
<glyph unicode="p" horiz-adv-x="574" d="M60 516H118V418H120Q142 472 191 501T304 531Q363 531 406 509T479 450T522 363T536 258Q536 203 522 154T479 67T407 7T304 -15Q275 -15 248 -8T196 13T154 49T125 98H123V-191H60V516ZM473 258Q473 298 464 337T434 408T381 458T304 478Q251 478 217 460T161 412T132 342T123 258Q123 218 132 179T163 108T219 58T304 38Q349 38 381 57T433 108T463 178T473 258Z"  />
<glyph unicode="q" horiz-adv-x="574" d="M514 -191H451V98H449Q439 70 421 49T378 14T326 -8T270 -15Q211 -15 168 7T95 66T52 153T38 258Q38 313 52 362T95 449T167 509T270 531Q298 531 326 523T380 500T424 464T454 418H456V516H514V-191ZM101 258Q101 218 110 179T140 108T193 58T270 38Q320 38 354 57T410 108T441 178T451 258Q451 298 442 337T411 408T355 458T270 478Q225 478 193 459T141 408T111 338T101 258Z"  />
<glyph unicode="r" horiz-adv-x="315" d="M60 516H118V395H120Q144 458 194 492T315 523V460Q272 462 237 449T177 410T137 350T123 275V0H60V516Z"  />
<glyph unicode="s" horiz-adv-x="481" d="M369 365Q368 394 357 415T328 451T285 471T234 478Q213 478 192 474T152 459T123 431T112 389Q112 368 122 354T149 329T183 313T219 302L303 283Q330 279 356 269T403 241T437 199T450 140Q450 98 431 69T383 21T316 -6T243 -15Q152 -15 96 28T31 167H94Q98 103 140 71T246 38Q268 38 293 43T339 60T373 90T387 136Q387 158 378 174T352 200T316 218T274 230L193 248Q162 256 136 266T91 292T60 330T49 386Q49 425 66 453T112 498T174 523T243 531Q282 531 315 521T374 490T415 438T432 365H369Z"  />
<glyph unicode="t" horiz-adv-x="296" d="M160 516H265V463H160V115Q160 84 168 67T211 47Q238 47 265 50V-4Q251 -4 237 -5T209 -6Q146 -6 121 19T97 110V463H7V516H97V671H160V516Z"  />
<glyph unicode="u" horiz-adv-x="537" d="M478 0H420V93H418Q393 41 346 13T240 -15Q142 -15 101 37T59 181V516H122V180Q124 110 154 74T260 38Q300 38 329 55T378 102T406 168T415 245V516H478V0Z"  />
<glyph unicode="v" horiz-adv-x="463" d="M2 516H72L234 63H236L396 516H461L268 0H201L2 516Z"  />
<glyph unicode="w" horiz-adv-x="741" d="M8 516H75L207 74H209L335 516H406L532 74H534L666 516H733L567 0H498L371 434H369L243 0H174L8 516Z"  />
<glyph unicode="x" horiz-adv-x="481" d="M201 268L16 516H95L242 320L386 516H465L279 269L480 0H400L238 217L79 0H1L201 268Z"  />
<glyph unicode="y" horiz-adv-x="463" d="M2 516H69L239 76L398 516H461L237 -79Q223 -112 211 -133T185 -167T151 -185T101 -191Q82 -190 72 -190T53 -186V-133Q64 -135 74 -136T96 -138Q117 -138 130 -132T154 -116T171 -90T186 -57L208 2L2 516Z"  />
<glyph unicode="z" horiz-adv-x="463" d="M91 53H446V0H15V51L352 463H38V516H432V471L91 53Z"  />
<glyph unicode="{" horiz-adv-x="333" d="M243 -191Q201 -191 178 -157T155 -66V82Q155 112 152 141T141 192T119 228T83 242V295Q105 295 119 308T141 344T152 396T155 455V604Q155 661 178 695T243 729H293V676H273Q258 676 248 668T231 645T221 612T218 573V432Q218 391 209 362T188 313T165 283T148 270V268Q153 265 164 255T188 226T209 177T218 106V-35Q218 -55 221 -74T230 -107T247 -129T273 -138H293V-191H243Z"  />
<glyph unicode="|" horiz-adv-x="222" d="M85 786H138V-214H85V786Z"  />
<glyph unicode="}" horiz-adv-x="333" d="M90 729Q132 729 155 695T178 604V456Q178 426 181 397T192 346T214 310T250 296V243Q228 243 214 230T192 194T181 142T178 83V-66Q178 -123 155 -157T90 -191H40V-138H60Q75 -138 85 -130T102 -107T112 -74T115 -35V106Q115 147 124 176T145 225T168 255T185 268V270Q180 273 169 283T145 312T124 361T115 432V573Q115 593 112 611T103 644T86 667T60 676H40V729H90Z"  />
<glyph unicode="~" horiz-adv-x="600" d="M531 279Q520 263 508 248T481 220T448 201T406 193Q376 193 349 203T296 226Q270 238 244 248T189 258Q156 258 137 237T105 189L69 225Q77 241 88 256T114 284T149 303T194 311Q222 311 251 301T309 279Q338 266 363 256T407 246Q437 246 457 267T495 315L531 279Z"  />
<glyph unicode="&#xA0;" horiz-adv-x="278" />
<glyph unicode="&#xA4;" horiz-adv-x="556" d="M86 193Q60 225 46 263T31 346Q31 434 85 500L29 556L67 594L123 538Q154 564 194 579T279 594Q324 594 362 580T432 539L487 594L525 556L471 502Q497 470 512 431T527 346Q527 301 512 262T471 190L525 136L487 98L432 153Q401 127 363 113T279 98Q234 98 195 113T123 154L67 98L29 136L86 193ZM94 346Q94 305 108 271T148 211T207 171T279 156Q317 156 351 170T410 210T449 270T464 346Q464 386 450 421T410 481T351 521T279 536Q241 536 207 522T148 482T109 421T94 346Z"  />
<glyph unicode="&#xA6;" horiz-adv-x="222" d="M85 661H138V411H85V661ZM85 161H138V-89H85V161Z"  />
<glyph unicode="&#xA7;" horiz-adv-x="556" d="M511 231Q511 206 503 185T479 145T444 114T402 91Q452 47 452 -18Q452 -53 438 -79T399 -124T345 -151T283 -161Q198 -161 148 -116T98 16H161Q160 -10 168 -32T191 -71T229 -98T277 -108Q298 -108 318 -103T354 -87T379 -60T389 -19Q389 18 364 45T300 96T217 142T134 191T71 253T45 337Q45 362 53 383T77 423T112 454T154 477Q104 521 104 586Q104 620 118 647T157 692T211 719T273 729Q358 729 408 684T458 552H395Q396 577 388 600T365 639T327 666T279 676Q258 676 238 671T202 655T177 628T167 587Q167 549 192 522T256 472T339 426T422 377T485 315T511 231ZM448 230Q448 269 420 300T351 356T266 403T190 447Q154 432 131 407T108 339Q108 301 136 271T204 215T288 167T364 122Q400 137 424 162T448 230Z"  />
<glyph unicode="&#xA8;" horiz-adv-x="185" d="M147 610V711H215V610H147ZM-30 610V711H38V610H-30Z"  />
<glyph unicode="&#xA9;" horiz-adv-x="800" d="M772 357Q772 279 744 211T665 93T547 14T400 -15Q321 -15 253 13T135 92T57 211T28 357Q28 435 56 503T135 621T253 700T400 729Q479 729 547 701T665 622T743 503T772 357ZM714 357Q714 424 690 482T624 583T525 651T400 676Q332 676 275 651T175 583T110 482T86 357Q86 290 109 232T175 131T274 63T400 38Q467 38 524 63T624 131T690 232T714 357ZM543 435Q534 480 500 510T410 541Q369 541 339 527T287 488T256 430T245 357Q245 318 255 285T287 226T338 187T410 173Q465 173 499 203T543 279H594Q589 243 573 215T532 167T476 138T409 128Q358 128 318 145T250 193T207 265T192 357Q192 406 207 448T249 521T317 569T409 586Q444 586 475 576T532 547T573 500T594 435H543Z"  />
<glyph unicode="&#xAB;" horiz-adv-x="426" d="M221 244V306L354 431V364L260 275L354 186V119L221 244ZM60 244V306L193 431V364L99 275L193 186V119L60 244Z"  />
<glyph unicode="&#xAC;" horiz-adv-x="600" d="M499 325H49V378H552V111H499V325Z"  />
<glyph unicode="&#xAD;" horiz-adv-x="370" d="M60 246V304H310V246H60Z"  />
<glyph unicode="&#xAE;" horiz-adv-x="800" d="M400 729Q479 729 547 701T665 622T743 503T772 357Q772 279 744 211T665 93T547 14T400 -15Q321 -15 253 13T135 92T57 211T28 357Q28 435 56 503T135 621T253 700T400 729ZM400 676Q332 676 275 651T175 583T110 482T86 357Q86 290 109 232T175 131T274 63T400 38Q467 38 524 63T624 131T690 232T714 357Q714 424 690 482T624 583T525 651T400 676ZM318 142H265V572H430Q503 572 536 542T570 453Q570 424 562 404T538 369T504 346T462 333L590 142H528L407 333H318V142ZM388 378Q412 378 435 379T477 388T506 410T517 453Q517 475 509 489T486 512T453 524T415 527H318V378H388Z"  />
<glyph unicode="&#xB0;" horiz-adv-x="400" d="M56 562Q56 592 67 618T97 663T143 694T200 706Q230 706 256 695T301 664T332 618T344 562Q344 532 333 506T302 460T256 429T200 418Q170 418 144 429T98 459T67 505T56 562ZM95 562Q95 517 125 487T200 457Q222 457 241 465T274 487T296 521T305 562Q305 584 297 603T274 636T241 658T200 667Q178 667 159 659T126 636T103 603T95 562Z"  />
<glyph unicode="&#xB1;" horiz-adv-x="600" d="M274 503H327V323H552V270H327V90H274V270H50V323H274V503ZM49 53H552V0H49V53Z"  />
<glyph unicode="&#xB4;" horiz-adv-x="185" d="M84 589H33L138 730H216L84 589Z"  />
<glyph unicode="&#xB5;" horiz-adv-x="537" d="M478 0H420V93H418Q393 41 346 13T240 -15Q208 -15 177 -7T122 20V-191H59V516H122V180Q124 110 154 74T260 38Q300 38 329 55T378 102T406 168T415 245V516H478V0Z"  />
<glyph unicode="&#xB6;" horiz-adv-x="600" d="M273 328Q229 328 191 343T126 384T82 444T66 518Q66 614 124 664T289 714H519V-177H456V661H336V-177H273V328Z"  />
<glyph unicode="&#xB7;" horiz-adv-x="278" d="M139 375Q163 375 180 357T198 315Q198 292 180 275T139 257Q115 257 98 275T80 317Q80 340 98 357T139 375Z"  />
<glyph unicode="&#xBB;" horiz-adv-x="426" d="M233 186L327 275L233 364V431L366 306V244L233 119V186ZM72 186L166 275L72 364V431L205 306V244L72 119V186Z"  />
<glyph unicode="&#x131;" horiz-adv-x="185" d="M61 0V516H124V0H61Z"  />
<glyph unicode="&#x2D8;" horiz-adv-x="185" d="M-12 724Q-11 704 -2 689T22 663T54 647T91 642Q129 642 160 663T197 724H236Q228 664 190 631T91 597Q30 597 -8 630T-51 724H-12Z"  />
<glyph unicode="&#x401;" horiz-adv-x="593" d="M72 714H565V656H140V398H538V340H140V58H570V0H72V714ZM369 800V901H437V800H369ZM192 800V901H260V800H192Z"  />
<glyph unicode="&#x402;" horiz-adv-x="742" d="M705 172Q705 110 688 57T637 -36T554 -99T443 -124V-65Q495 -62 532 -43T593 8T627 82T638 172Q638 217 627 254T595 319T542 361T471 377Q385 377 339 324T292 167V0H224V656H-5V714H561V656H292V337H295Q324 389 372 411T477 434Q532 434 574 415T646 362T690 279T705 172Z"  />
<glyph unicode="&#x403;" horiz-adv-x="519" d="M72 0V714H513V656H140V0H72ZM269 779H218L323 920H401L269 779Z"  />
<glyph unicode="&#x404;" horiz-adv-x="704" d="M494 340H105Q107 282 124 229T174 134T257 68T375 43Q421 43 459 58T527 101T575 165T602 248H669Q659 187 635 139T572 56T485 4T375 -15Q291 -15 228 15T122 97T59 216T38 357Q38 430 59 497T122 616T227 698T375 729Q425 729 472 715T559 673T624 602T660 505H592Q583 546 562 577T512 629T448 660T375 671Q310 671 262 649T181 589T130 502T107 397H494V340Z"  />
<glyph unicode="&#x405;" horiz-adv-x="630" d="M104 235Q103 180 121 143T170 84T245 53T337 43Q365 43 398 51T459 76T507 121T526 188Q526 218 513 240T478 277T430 301T379 317L220 356Q188 364 159 376T108 408T73 457T59 528Q59 554 69 589T106 655T182 707T305 729Q358 729 406 715T490 673T547 604T569 507H501Q499 547 483 578T440 629T379 660T306 671Q271 671 239 664T182 640T142 596T127 529Q127 504 135 486T159 454T193 433T235 420L409 377Q447 367 480 353T539 317T579 264T594 189Q594 177 592 157T580 115T553 69T505 27T429 -3T321 -15Q258 -15 204 -1T112 44T54 122T36 235H104Z"  />
<glyph unicode="&#x406;" horiz-adv-x="222" d="M77 714H145V0H77V714Z"  />
<glyph unicode="&#x407;" horiz-adv-x="222" d="M77 714H145V0H77V714ZM165 800V901H233V800H165ZM-12 800V901H56V800H-12Z"  />
<glyph unicode="&#x408;" horiz-adv-x="500" d="M220 -15Q158 -15 120 5T59 60T29 138T21 229H89Q90 206 92 174T106 113T145 64T226 43Q266 43 292 53T333 86T354 144T360 228V714H428V199Q428 145 417 105T382 38T318 -2T220 -15Z"  />
<glyph unicode="&#x409;" horiz-adv-x="1004" d="M498 0V656H242L226 214Q224 161 216 119T191 47T144 1T72 -15Q51 -15 35 -12T4 -3V55Q17 49 32 46T63 43Q88 43 105 52T134 82T150 139T158 228L175 714H566V412H759Q858 412 914 357T971 206Q971 111 915 56T759 0H498ZM903 206Q903 275 861 314T744 354H566V58H744Q819 58 861 96T903 206Z"  />
<glyph unicode="&#x40A;" horiz-adv-x="1005" d="M760 412Q859 412 915 357T972 206Q972 111 916 56T760 0H489V354H140V0H72V714H140V412H489V714H557V412H760ZM904 206Q904 275 862 314T745 354H557V58H745Q820 58 862 96T904 206Z"  />
<glyph unicode="&#x40B;" horiz-adv-x="748" d="M462 434Q525 434 567 418T634 375T669 313T680 239V0H612V227Q612 254 606 281T583 329T536 364T457 377Q437 377 414 373T369 363T327 348T292 331V0H224V656H-5V714H561V656H292V391Q322 407 367 420T462 434Z"  />
<glyph unicode="&#x40C;" horiz-adv-x="648" d="M72 714H140V330L555 714H647L328 419L662 0H574L277 372L140 245V0H72V714ZM323 779H272L377 920H455L323 779Z"  />
<glyph unicode="&#x40E;" horiz-adv-x="593" d="M198 914Q199 894 208 879T232 853T264 837T301 832Q339 832 370 853T407 914H446Q438 854 400 821T301 787Q240 787 202 820T159 914H198ZM70 714L303 231L529 714H602L317 121Q279 43 236 14T144 -15Q118 -15 100 -11T66 1V61Q83 53 102 48T142 43Q175 43 203 65T254 139L266 165L-7 714H70Z"  />
<glyph unicode="&#x40F;" horiz-adv-x="704" d="M386 -192H318V0H72V714H140V58H564V714H632V0H386V-192Z"  />
<glyph unicode="&#x410;" horiz-adv-x="630" d="M281 714H357L637 0H564L477 222H152L66 0H-7L281 714ZM454 280L316 646L173 280H454Z"  />
<glyph unicode="&#x411;" horiz-adv-x="663" d="M621 206Q621 111 565 56T409 0H72V714H565V656H140V412H409Q508 412 564 357T621 206ZM553 206Q553 275 511 314T394 354H140V58H394Q469 58 511 96T553 206Z"  />
<glyph unicode="&#x412;" horiz-adv-x="667" d="M72 714H374Q419 714 460 706T533 677T584 623T603 539Q603 511 594 485T569 437T530 400T479 379V377Q548 368 589 321T630 203Q630 177 623 143T589 76T512 22T374 0H72V714ZM374 401Q414 401 444 410T495 436T525 475T535 522Q535 656 374 656H140V401H374ZM374 58Q412 58 446 64T506 88T547 133T562 205Q562 274 514 308T374 343H140V58H374Z"  />
<glyph unicode="&#x413;" horiz-adv-x="519" d="M72 0V714H513V656H140V0H72Z"  />
<glyph unicode="&#x414;" horiz-adv-x="709" d="M626 -192V0H74V-192H6V58H71Q108 124 129 194T160 334T174 473T177 603V714H619V58H694V-192H626ZM551 656H245V593Q245 533 243 467T230 331T199 193T143 58H551V656Z"  />
<glyph unicode="&#x415;" horiz-adv-x="593" d="M72 714H565V656H140V398H538V340H140V58H570V0H72V714Z"  />
<glyph unicode="&#x416;" horiz-adv-x="984" d="M75 0H-11L311 404L14 714H106L458 341V714H526V339L878 714H970L674 407L995 0H907L626 357L526 253V0H458V251L358 356L75 0Z"  />
<glyph unicode="&#x417;" horiz-adv-x="627" d="M587 204Q587 160 570 120T519 50T436 3T321 -15Q185 -15 111 49T37 229V235H102Q102 186 118 150T163 90T233 54T324 42Q417 42 468 87T519 203Q519 268 476 307T357 346H243V404H357Q385 404 411 412T457 435T488 474T500 529Q500 566 487 593T450 638T395 664T327 673Q242 673 188 634T126 510H60Q63 564 83 604T138 673T220 715T326 729Q377 729 421 717T498 681T549 620T568 533Q568 476 537 437T463 381V378Q523 360 555 318T587 204Z"  />
<glyph unicode="&#x418;" horiz-adv-x="704" d="M72 714H140V73L544 714H632V0H564V641L160 0H72V714Z"  />
<glyph unicode="&#x419;" horiz-adv-x="704" d="M72 714H140V73L544 714H632V0H564V641L160 0H72V714ZM250 914Q251 894 260 879T284 853T316 837T353 832Q391 832 422 853T459 914H498Q490 854 452 821T353 787Q292 787 254 820T211 914H250Z"  />
<glyph unicode="&#x41A;" horiz-adv-x="648" d="M72 714H140V330L555 714H647L328 419L662 0H574L277 372L140 245V0H72V714Z"  />
<glyph unicode="&#x41B;" horiz-adv-x="666" d="M526 0V656H242L226 214Q224 161 216 119T191 47T144 1T72 -15Q51 -15 35 -12T4 -3V55Q17 49 32 46T63 43Q88 43 105 52T134 82T150 139T158 228L175 714H594V0H526Z"  />
<glyph unicode="&#x41C;" horiz-adv-x="833" d="M70 714H170L417 88L663 714H763V0H695V617H693L449 0H385L140 617H138V0H70V714Z"  />
<glyph unicode="&#x41D;" horiz-adv-x="704" d="M72 714H140V404H564V714H632V0H564V346H140V0H72V714Z"  />
<glyph unicode="&#x41E;" horiz-adv-x="741" d="M34 357Q34 430 55 497T118 616T223 698T371 729Q455 729 518 699T623 617T686 498T707 357Q707 283 686 216T623 98T518 16T371 -15Q287 -15 224 15T118 97T55 216T34 357ZM102 357Q102 298 117 242T165 142T249 70T371 43Q441 43 492 70T575 141T623 242T639 357Q639 415 624 471T576 572T492 644T371 671Q300 671 249 644T166 573T118 472T102 357Z"  />
<glyph unicode="&#x41F;" horiz-adv-x="704" d="M632 0H564V656H140V0H72V714H632V0Z"  />
<glyph unicode="&#x420;" horiz-adv-x="630" d="M72 714H389Q437 714 476 701T543 661T586 596T601 510Q601 462 586 424T543 360T476 320T389 306H140V0H72V714ZM140 364H374Q445 364 489 400T533 510Q533 584 489 620T374 656H140V364Z"  />
<glyph unicode="&#x421;" horiz-adv-x="704" d="M38 357Q38 430 59 497T122 616T227 698T375 729Q426 729 474 714T562 670T628 597T662 498H594Q585 539 565 571T515 626T450 659T375 671Q304 671 253 644T170 573T122 472T106 357Q106 298 121 242T169 142T253 70T375 43Q424 43 464 61T534 110T581 182T604 272H672Q665 206 641 153T579 63T490 5T375 -15Q291 -15 228 15T122 97T59 216T38 357Z"  />
<glyph unicode="&#x422;" horiz-adv-x="556" d="M-5 714H561V656H312V0H244V656H-5V714Z"  />
<glyph unicode="&#x423;" horiz-adv-x="593" d="M70 714L303 231L529 714H602L317 121Q279 43 236 14T144 -15Q118 -15 100 -11T66 1V61Q83 53 102 48T142 43Q175 43 203 65T254 139L266 165L-7 714H70Z"  />
<glyph unicode="&#x424;" horiz-adv-x="754" d="M722 363Q722 293 696 242T627 156T528 105T411 87V0H343V87Q280 87 224 104T125 155T57 241T32 363Q32 430 57 481T125 566T224 617T343 635V714H411V635Q475 635 532 618T631 566T697 481T722 363ZM655 363Q655 418 637 458T585 524T508 562T411 577V144Q462 145 506 158T584 199T636 267T655 363ZM343 577Q292 576 248 563T170 524T118 458T99 363Q99 307 117 267T169 200T246 160T343 144V577Z"  />
<glyph unicode="&#x425;" horiz-adv-x="574" d="M3 714H83L285 415L494 714H570L326 366L584 0H502L285 315L65 0H-12L245 368L3 714Z"  />
<glyph unicode="&#x426;" horiz-adv-x="722" d="M639 -192V0H72V714H140V58H564V714H632V58H707V-192H639Z"  />
<glyph unicode="&#x427;" horiz-adv-x="640" d="M500 340Q455 329 396 320T281 310Q218 310 174 323T103 363T63 427T51 515V713H119V519Q119 445 155 407T284 369Q336 369 392 378T500 398V714H568V0H500V340H500Z"  />
<glyph unicode="&#x428;" horiz-adv-x="1044" d="M72 714H140V58H488V714H556V58H904V714H972V0H72V714Z"  />
<glyph unicode="&#x429;" horiz-adv-x="1062" d="M72 714H140V58H488V714H556V58H904V714H972V58H1047V-192H979V0H72V714Z"  />
<glyph unicode="&#x42A;" horiz-adv-x="789" d="M227 0V656H-5V714H295V412H544Q643 412 699 357T756 206Q756 111 700 56T544 0H227ZM688 206Q688 275 646 314T529 354H295V58H529Q604 58 646 96T688 206Z"  />
<glyph unicode="&#x42B;" horiz-adv-x="844" d="M704 714H772V0H704V714ZM72 0V714H140V412H389Q488 412 544 357T601 206Q601 111 545 56T389 0H72ZM533 206Q533 275 491 314T374 354H140V58H374Q449 58 491 96T533 206Z"  />
<glyph unicode="&#x42C;" horiz-adv-x="634" d="M72 0V714H140V412H389Q488 412 544 357T601 206Q601 111 545 56T389 0H72ZM533 206Q533 275 491 314T374 354H140V58H374Q449 58 491 96T533 206Z"  />
<glyph unicode="&#x42D;" horiz-adv-x="704" d="M216 397H597Q593 452 578 501T532 588T456 648T343 671Q304 671 268 661T201 631T147 579T112 505H45Q56 562 85 604T155 673T244 715T343 729Q428 729 489 700T590 619T647 501T666 357Q666 285 646 218T585 99T481 16T333 -15Q272 -15 221 3T130 54T66 137T34 248H102Q108 202 127 165T176 100T246 58T333 43Q402 43 451 67T533 133T581 227T599 340H216V397Z"  />
<glyph unicode="&#x42E;" horiz-adv-x="1001" d="M140 404H296Q302 470 326 529T392 632T493 703T631 729Q715 729 778 699T883 617T946 498T967 357Q967 283 946 216T883 98T778 16T631 -15Q548 -15 486 14T381 93T317 208T294 346H140V0H72V714H140V404ZM362 357Q362 298 377 242T425 142T509 70T631 43Q701 43 752 70T835 141T883 242T899 357Q899 415 884 471T836 572T752 644T631 671Q560 671 509 644T426 573T378 472T362 357Z"  />
<glyph unicode="&#x42F;" horiz-adv-x="630" d="M90 0H4L250 317Q152 320 98 371T43 516Q43 565 58 602T102 664T171 701T259 714H558V0H490V317H335L90 0ZM490 656H264Q192 656 152 622T111 516Q111 446 153 411T269 375H490V656Z"  />
<glyph unicode="&#x430;" horiz-adv-x="519" d="M54 358Q57 403 73 436T116 490T181 521T263 531Q297 531 331 525T392 500T436 450T453 365V91Q453 53 490 53Q501 53 510 57V4Q499 2 491 1T469 0Q445 0 431 6T408 25T398 53T395 90H393Q376 65 359 46T320 13T270 -8T205 -15Q169 -15 138 -6T83 21T46 68T32 136Q32 190 56 220T119 267T208 289T309 302Q328 304 343 307T369 317T384 338T390 372Q390 404 380 424T351 457T308 473T255 478Q195 478 157 450T117 358H54ZM390 282H388Q382 271 365 266T335 259Q295 252 253 247T175 230T118 198T95 140Q95 116 104 98T130 66T166 45T210 38Q246 38 279 49T336 81T375 132T390 200V282Z"  />
<glyph unicode="&#x431;" horiz-adv-x="556" d="M521 248Q521 188 504 140T455 57T379 4T282 -15Q224 -15 180 6T105 66T59 160T43 283Q43 376 56 446T98 564T174 640T289 674L365 681Q405 685 419 692T437 714H506Q501 692 493 677T470 651T433 634T377 625L300 618Q256 614 223 601T166 561T125 494T101 394H104Q133 448 181 477T295 507Q345 507 386 488T458 435T504 353T521 248ZM458 248Q458 295 446 333T411 398T357 439T288 454Q248 454 215 440T157 400T120 336T106 250Q106 204 119 166T155 99T211 54T284 38Q321 38 353 52T408 93T445 159T458 248Z"  />
<glyph unicode="&#x432;" horiz-adv-x="519" d="M485 147Q485 75 438 38T300 0H59V516H302Q382 516 422 481T463 386Q463 341 439 313T376 275V273Q427 263 456 232T485 147ZM403 377Q403 464 294 464H121V294H294Q348 294 375 316T403 377ZM423 148Q423 195 392 220T296 245H121V52H295Q361 52 392 75T423 148Z"  />
<glyph unicode="&#x433;" horiz-adv-x="400" d="M122 463V0H59V516H398V463H122Z"  />
<glyph unicode="&#x434;" horiz-adv-x="552" d="M482 -164V0H69V-164H6V53H67Q104 122 121 213T138 434V516H474V53H545V-164H482ZM411 463H200V429Q200 301 183 213T132 53H411V463Z"  />
<glyph unicode="&#x435;" horiz-adv-x="519" d="M97 241Q97 206 106 170T137 105T190 57T267 38Q336 38 375 74T429 170H492Q472 82 419 34T267 -15Q205 -15 161 7T89 66T48 153T34 258Q34 309 47 358T89 445T161 507T267 531Q329 531 373 506T444 441T484 348T494 241H97ZM431 294Q430 330 419 363T386 421T335 462T267 478Q228 478 198 463T147 422T114 363T97 294H431Z"  />
<glyph unicode="&#x436;" horiz-adv-x="741" d="M402 516V254L642 516H724L522 303L746 0H667L478 261L402 181V0H339V178L261 260L72 0H-5L218 301L17 516H101L339 257V516H402Z"  />
<glyph unicode="&#x437;" horiz-adv-x="485" d="M240 531Q338 531 384 491T431 390Q431 345 407 317T348 276V274Q368 270 386 261T418 238T440 202T448 153Q448 116 434 86T392 33T327 -2T241 -15Q138 -15 86 32T28 161H91Q99 105 132 72T242 38Q314 38 348 68T382 151Q382 190 357 216T272 243H186V293H257Q302 293 334 317T366 387Q366 405 360 421T339 450T300 470T239 478Q168 478 137 446T100 366H38Q42 411 59 442T104 493T167 522T240 531Z"  />
<glyph unicode="&#x438;" horiz-adv-x="537" d="M415 0V442L137 0H59V516H122V74L400 516H478V0H415Z"  />
<glyph unicode="&#x439;" horiz-adv-x="537" d="M415 0V442L137 0H59V516H122V74L400 516H478V0H415ZM172 724Q173 704 182 689T206 663T238 647T275 642Q313 642 344 663T381 724H420Q412 664 374 631T275 597Q214 597 176 630T133 724H172Z"  />
<glyph unicode="&#x43A;" horiz-adv-x="500" d="M60 516H123V254L409 516H493L276 322L508 0H429L228 278L123 184V0H60V516Z"  />
<glyph unicode="&#x43B;" horiz-adv-x="532" d="M410 0V463H201L191 170Q189 117 179 82T152 25T111 -6T57 -15Q43 -15 28 -12T2 -4V48Q28 38 53 38Q70 38 83 43T106 64T120 106T127 177L138 516H473V0H410Z"  />
<glyph unicode="&#x43C;" horiz-adv-x="668" d="M546 0V425H543L362 0H306L125 425H122V0H59V516H143L335 71L525 516H609V0H546Z"  />
<glyph unicode="&#x43D;" horiz-adv-x="537" d="M415 0V243H122V0H59V516H122V296H415V516H478V0H415Z"  />
<glyph unicode="&#x43E;" horiz-adv-x="556" d="M278 531Q337 531 382 509T459 450T506 363T522 258Q522 202 506 153T459 66T383 7T278 -15Q219 -15 174 7T97 66T50 152T34 258Q34 313 50 363T97 450T173 509T278 531ZM278 478Q233 478 199 459T143 409T109 339T97 258Q97 217 108 178T142 107T199 57T278 38Q323 38 357 57T413 107T447 177T459 258Q459 299 448 338T414 409T357 459T278 478Z"  />
<glyph unicode="&#x43F;" horiz-adv-x="537" d="M415 0V463H122V0H59V516H478V0H415Z"  />
<glyph unicode="&#x440;" horiz-adv-x="574" d="M60 516H118V418H120Q142 472 191 501T304 531Q363 531 406 509T479 450T522 363T536 258Q536 203 522 154T479 67T407 7T304 -15Q275 -15 248 -8T196 13T154 49T125 98H123V-191H60V516ZM473 258Q473 298 464 337T434 408T381 458T304 478Q251 478 217 460T161 412T132 342T123 258Q123 218 132 179T163 108T219 58T304 38Q349 38 381 57T433 108T463 178T473 258Z"  />
<glyph unicode="&#x441;" horiz-adv-x="519" d="M424 354Q411 412 376 445T278 478Q233 478 199 459T143 409T109 339T97 258Q97 217 108 178T142 107T199 57T278 38Q307 38 333 49T379 79T412 126T428 185H491Q478 91 422 38T278 -15Q219 -15 174 7T97 66T50 152T34 258Q34 313 50 363T97 450T173 509T278 531Q361 531 418 487T487 354H424Z"  />
<glyph unicode="&#x442;" horiz-adv-x="445" d="M254 463V0H191V463H0V516H445V463H254Z"  />
<glyph unicode="&#x443;" horiz-adv-x="463" d="M2 516H69L239 76L398 516H461L237 -79Q223 -112 211 -133T185 -167T151 -185T101 -191Q82 -190 72 -190T53 -186V-133Q64 -135 74 -136T96 -138Q117 -138 130 -132T154 -116T171 -90T186 -57L208 2L2 516Z"  />
<glyph unicode="&#x444;" horiz-adv-x="801" d="M366 51Q346 19 313 2T238 -15Q196 -15 160 1T96 50T54 135T38 256Q38 391 93 461T239 531Q327 531 367 464H369V714H432V461H434Q454 494 489 512T566 531Q659 531 711 462T763 256Q763 188 747 137T703 53T639 2T560 -15Q518 -15 487 2T435 48H432V-191H369V51H366ZM700 256Q700 315 689 357T657 426T610 465T550 478Q526 478 505 470T467 447T442 412T432 368V150Q432 99 465 69T547 38Q581 38 609 50T657 89T688 157T700 256ZM101 256Q101 143 143 91T254 38Q303 38 336 68T369 150V365Q369 388 360 408T334 444T297 469T251 478Q218 478 191 466T143 426T112 357T101 256Z"  />
<glyph unicode="&#x445;" horiz-adv-x="481" d="M201 268L16 516H95L242 320L386 516H465L279 269L480 0H400L238 217L79 0H1L201 268Z"  />
<glyph unicode="&#x446;" horiz-adv-x="556" d="M486 -164V0H59V516H122V53H415V516H478V53H549V-164H486Z"  />
<glyph unicode="&#x447;" horiz-adv-x="505" d="M383 242Q354 234 310 225T217 216Q134 216 89 253T44 379V516H107V382Q107 321 135 296T220 270Q267 270 311 279T383 296V516H446V0H383V242H383Z"  />
<glyph unicode="&#x448;" horiz-adv-x="789" d="M59 516H122V53H363V516H426V53H667V516H730V0H59V516Z"  />
<glyph unicode="&#x449;" horiz-adv-x="808" d="M59 516H122V53H363V516H426V53H667V516H730V53H801V-164H738V0H59V516Z"  />
<glyph unicode="&#x44A;" horiz-adv-x="618" d="M232 516V312H427Q502 312 546 271T590 156Q590 83 546 42T427 0H169V463H0V516H232ZM232 259V53H413Q467 53 497 79T528 156Q528 206 498 232T413 259H232Z"  />
<glyph unicode="&#x44B;" horiz-adv-x="670" d="M548 516H611V0H548V516ZM59 0V516H122V312H289Q364 312 408 271T452 156Q452 83 408 42T289 0H59ZM122 259V53H275Q329 53 359 79T390 156Q390 206 360 232T275 259H122Z"  />
<glyph unicode="&#x44C;" horiz-adv-x="508" d="M59 0V516H122V312H317Q392 312 436 271T480 156Q480 83 436 42T317 0H59ZM122 259V53H303Q357 53 387 79T418 156Q418 206 388 232T303 259H122Z"  />
<glyph unicode="&#x44D;" horiz-adv-x="519" d="M94 166Q106 101 148 70T250 38Q325 38 371 92T420 241H178V294H419Q415 335 404 369T372 427T324 464T257 478Q199 478 159 450T103 366H38Q53 444 111 487T258 531Q313 531 355 512T426 456T470 368T485 252Q485 192 468 143T420 59T346 5T250 -15Q159 -15 102 33T31 166H94Z"  />
<glyph unicode="&#x44E;" horiz-adv-x="759" d="M481 531Q540 531 585 509T662 450T709 363T725 258Q725 202 709 153T662 66T586 7T481 -15Q424 -15 380 5T305 61T257 143T238 243H122V0H59V516H122V296H240Q245 345 263 388T311 462T384 512T481 531ZM481 478Q436 478 402 459T346 409T312 339T300 258Q300 217 311 178T345 107T402 57T481 38Q526 38 560 57T616 107T650 177T662 258Q662 299 651 338T617 409T560 459T481 478Z"  />
<glyph unicode="&#x44F;" horiz-adv-x="519" d="M394 0V217H263L85 0H3L191 219Q122 222 82 260T41 365Q41 433 84 474T200 516H457V0H394ZM211 463Q159 463 132 437T104 366Q104 321 131 296T215 270H394V463H211Z"  />
<glyph unicode="&#x451;" horiz-adv-x="519" d="M321 610V711H389V610H321ZM144 610V711H212V610H144ZM97 241Q97 206 106 170T137 105T190 57T267 38Q336 38 375 74T429 170H492Q472 82 419 34T267 -15Q205 -15 161 7T89 66T48 153T34 258Q34 309 47 358T89 445T161 507T267 531Q329 531 373 506T444 441T484 348T494 241H97ZM431 294Q430 330 419 363T386 421T335 462T267 478Q228 478 198 463T147 422T114 363T97 294H431Z"  />
<glyph unicode="&#x452;" horiz-adv-x="535" d="M478 97Q478 35 460 -16T408 -105T326 -165T218 -191V-132Q315 -124 365 -62T415 106V307Q415 463 286 463Q250 463 220 450T168 414T134 358T122 286V0H59V583H0V634H59V714H122V634H335V583H122V412H124Q148 466 193 491T298 516Q478 516 478 317V97Z"  />
<glyph unicode="&#x453;" horiz-adv-x="400" d="M122 463V0H59V516H398V463H122ZM212 589H161L266 730H344L212 589Z"  />
<glyph unicode="&#x454;" horiz-adv-x="519" d="M486 166Q469 82 414 34T268 -15Q216 -15 173 4T99 59T51 143T34 252Q34 315 50 366T98 454T172 511T270 531Q360 531 414 488T483 366H418Q390 478 271 478Q196 478 152 427T100 294H341V241H99Q101 194 114 157T150 93T203 52T270 38Q328 38 368 69T423 166H486H486Z"  />
<glyph unicode="&#x455;" horiz-adv-x="481" d="M369 365Q368 394 357 415T328 451T285 471T234 478Q213 478 192 474T152 459T123 431T112 389Q112 368 122 354T149 329T183 313T219 302L303 283Q330 279 356 269T403 241T437 199T450 140Q450 98 431 69T383 21T316 -6T243 -15Q152 -15 96 28T31 167H94Q98 103 140 71T246 38Q268 38 293 43T339 60T373 90T387 136Q387 158 378 174T352 200T316 218T274 230L193 248Q162 256 136 266T91 292T60 330T49 386Q49 425 66 453T112 498T174 523T243 531Q282 531 315 521T374 490T415 438T432 365H369Z"  />
<glyph unicode="&#x456;" horiz-adv-x="185" d="M61 714H124V613H61V714ZM61 516H124V0H61V516Z"  />
<glyph unicode="&#x457;" horiz-adv-x="185" d="M61 0V516H124V0H61ZM147 610V711H215V610H147ZM-30 610V711H38V610H-30Z"  />
<glyph unicode="&#x458;" horiz-adv-x="185" d="M61 714H124V613H61V714ZM61 516H124V-48Q124 -77 120 -103T103 -148T69 -179T14 -191Q3 -191 -8 -190T-30 -189V-137Q-22 -138 -13 -138T4 -138Q41 -138 51 -117T61 -63V516Z"  />
<glyph unicode="&#x459;" horiz-adv-x="780" d="M383 0V463H201L191 170Q189 117 179 82T152 25T111 -6T57 -15Q43 -15 28 -12T2 -4V48Q28 38 53 38Q70 38 83 43T106 64T120 106T127 177L138 516H446V312H585Q660 312 704 271T748 156Q748 83 704 42T585 0H383ZM446 259V53H571Q625 53 655 79T686 156Q686 206 656 232T571 259H446Z"  />
<glyph unicode="&#x45A;" horiz-adv-x="778" d="M438 312H583Q658 312 702 271T746 156Q746 83 702 42T583 0H375V259H122V0H59V516H122V312H375V516H438V312ZM438 259V53H569Q623 53 653 79T684 156Q684 206 654 232T569 259H438Z"  />
<glyph unicode="&#x45B;" horiz-adv-x="535" d="M478 0H415V307Q415 463 286 463Q250 463 220 450T168 414T134 358T122 286V0H59V583H0V634H59V714H122V634H335V583H122V412H124Q148 466 193 491T298 516Q478 516 478 317V0Z"  />
<glyph unicode="&#x45C;" horiz-adv-x="500" d="M60 516H123V254L409 516H493L276 322L508 0H429L228 278L123 184V0H60V516ZM252 589H201L306 730H384L252 589Z"  />
<glyph unicode="&#x45E;" horiz-adv-x="463" d="M132 724Q133 704 142 689T166 663T198 647T235 642Q273 642 304 663T341 724H380Q372 664 334 631T235 597Q174 597 136 630T93 724H132ZM2 516H69L239 76L398 516H461L237 -79Q223 -112 211 -133T185 -167T151 -185T101 -191Q82 -190 72 -190T53 -186V-133Q64 -135 74 -136T96 -138Q117 -138 130 -132T154 -116T171 -90T186 -57L208 2L2 516Z"  />
<glyph unicode="&#x45F;" horiz-adv-x="537" d="M300 -164H237V0H59V516H122V53H415V516H478V0H300V-164Z"  />
<glyph unicode="&#x490;" horiz-adv-x="519" d="M140 656V0H72V714H445V875H513V656H140Z"  />
<glyph unicode="&#x491;" horiz-adv-x="400" d="M122 463V0H59V516H335V673H398V463H122Z"  />
<glyph unicode="&#x2013;" horiz-adv-x="500" d="M0 246V304H500V246H0Z"  />
<glyph unicode="&#x2014;" horiz-adv-x="1000" d="M130 246V304H870V246H130Z"  />
<glyph unicode="&#x2018;" horiz-adv-x="278" d="M95 471V578Q95 600 100 621T117 661T144 694T184 714V671Q171 666 162 656T147 632T139 604T137 577H179V471H95Z"  />
<glyph unicode="&#x2019;" horiz-adv-x="278" d="M183 714V607Q183 585 178 564T161 524T133 491T94 471V514Q107 518 116 528T131 553T139 581T141 608H99V714H183Z"  />
<glyph unicode="&#x201A;" horiz-adv-x="278" d="M183 106V-1Q183 -23 178 -44T161 -84T133 -117T94 -137V-94Q107 -90 116 -80T131 -55T139 -27T141 0H99V106H183Z"  />
<glyph unicode="&#x201C;" horiz-adv-x="370" d="M218 471V578Q218 600 223 621T240 661T267 694T307 714V671Q294 666 285 656T270 632T262 604T260 577H302V471H218ZM64 471V578Q64 600 69 621T86 661T113 694T153 714V671Q140 666 131 656T116 632T108 604T106 577H148V471H64Z"  />
<glyph unicode="&#x201D;" horiz-adv-x="370" d="M306 714V607Q306 585 301 564T284 524T256 491T217 471V514Q230 518 239 528T254 553T262 581T264 608H222V714H306ZM152 714V607Q152 585 147 564T130 524T102 491T63 471V514Q76 518 85 528T100 553T108 581T110 608H68V714H152Z"  />
<glyph unicode="&#x201E;" horiz-adv-x="370" d="M306 106V-1Q306 -23 301 -44T284 -84T256 -117T217 -137V-94Q230 -90 239 -80T254 -55T262 -27T264 0H222V106H306ZM152 106V-1Q152 -23 147 -44T130 -84T102 -117T63 -137V-94Q76 -90 85 -80T100 -55T108 -27T110 0H68V106H152Z"  />
<glyph unicode="&#x2020;" horiz-adv-x="556" d="M48 440V493H246V714H309V493H508V440H309V-151H246V440H48Z"  />
<glyph unicode="&#x2021;" horiz-adv-x="556" d="M48 47V100H246V463H48V516H246V714H309V516H508V463H309V100H508V47H309V-151H246V47H48Z"  />
<glyph unicode="&#x2022;" horiz-adv-x="500" d="M72 357Q72 394 86 426T124 483T180 521T250 535Q287 535 319 521T376 483T415 427T429 357Q429 320 415 288T377 231T320 192T250 178Q213 178 181 192T124 230T86 287T72 357Z"  />
<glyph unicode="&#x2026;" horiz-adv-x="1000" d="M791 0V106H875V0H791ZM458 0V106H542V0H458ZM125 0V106H209V0H125Z"  />
<glyph unicode="&#x2030;" horiz-adv-x="1111" d="M582 725H629L177 -34H129L582 725ZM214 706Q254 706 282 693T329 658T355 604T363 537Q363 501 355 470T329 417T283 381T214 368Q173 368 145 381T99 416T73 470T65 537Q65 573 73 604T99 657T145 693T214 706ZM214 661Q184 661 165 650T136 621T122 581T118 537Q118 515 121 493T135 453T165 424T214 413Q244 413 262 424T291 453T306 493T310 537Q310 559 306 581T292 621T263 650T214 661ZM901 323Q941 323 969 310T1016 275T1042 221T1050 154Q1050 118 1042 87T1016 34T970 -2T901 -15Q860 -15 832 -2T786 33T760 87T752 154Q752 190 760 221T786 274T832 310T901 323ZM547 323Q587 323 615 310T662 275T688 221T696 154Q696 118 688 87T662 34T616 -2T547 -15Q506 -15 478 -2T432 33T406 87T398 154Q398 190 406 221T432 274T478 310T547 323ZM901 278Q871 278 852 267T823 238T809 198T805 154Q805 132 808 110T822 70T852 41T901 30Q931 30 949 41T978 70T993 110T997 154Q997 176 993 198T979 238T950 267T901 278ZM547 278Q517 278 498 267T469 238T455 198T451 154Q451 132 454 110T468 70T498 41T547 30Q577 30 595 41T624 70T639 110T643 154Q643 176 639 198T625 238T596 267T547 278Z"  />
<glyph unicode="&#x2039;" horiz-adv-x="259" d="M53 244V306L186 431V364L92 275L186 186V119L53 244Z"  />
<glyph unicode="&#x203A;" horiz-adv-x="259" d="M73 186L167 275L73 364V431L206 306V244L73 119V186Z"  />
<glyph unicode="&#x20AC;" horiz-adv-x="556" d="M530 576Q464 655 370 655Q278 655 220 588Q169 530 151 434H484L466 389H145Q142 363 142 346V338Q142 333 143 330H447L428 285H146Q159 181 209 116Q269 41 367 41Q419 41 463 64Q497 83 541 127V50Q464 -15 365 -15Q240 -15 163 74Q96 153 81 285H15L34 330H78Q77 333 77 339V350Q77 358 77 367T79 389H15L33 434H84Q106 557 176 630Q252 712 371 712Q495 712 557 635L530 576Z"  />
<glyph unicode="&#x2116;" horiz-adv-x="969" d="M518 0L142 581H140V0H72V691H148L524 110H526V691H594V0H518ZM794 132Q727 132 690 171T653 277Q653 341 690 381T794 422Q861 422 898 383T935 277Q935 213 898 173T794 132ZM794 178Q833 178 857 203T881 277Q881 324 857 350T794 376Q755 376 731 351T707 277Q707 230 731 204T794 178ZM655 0V53H935V0H655Z"  />
<glyph unicode="&#x2122;" horiz-adv-x="990" d="M476 302V714H561L694 380L823 714H908V302H855V666H853L707 302H677L531 666H529V302H476ZM216 302V669H82V714H403V669H269V302H216Z"  />
<glyph unicode="&#xE002;" horiz-adv-x="185" d="M84 779H33L138 920H216L84 779Z"  />
<glyph unicode="&#xE00B;" horiz-adv-x="185" d="M147 800V901H215V800H147ZM-30 800V901H38V800H-30Z"  />
<glyph unicode="&#xE00F;" horiz-adv-x="185" d="M-12 914Q-11 894 -2 879T22 853T54 837T91 832Q129 832 160 853T197 914H236Q228 854 190 821T91 787Q30 787 -8 820T-51 914H-12Z"  />

</font>
</defs>
</svg>
