<svg xmlns="http://www.w3.org/2000/svg">
<defs>
<font id="865e5135224a615262a0bb0049da7d28" horiz-adv-x='1024' >
  <font-face 
    font-family="GTSectraDisplay-RegularItalic"
    font-weight="400"
    font-style="italic"
    font-stretch="normal"
    units-per-em="1000"
    panose-1="2 0 5 3 0 0 0 9 0 3"
    ascent="750"
    descent="-250"
    x-height="480"
    cap-height="700"
    bbox="-170 -250 1599 987"
    underline-thickness="50"
    underline-position="-50"
    slope="-12"
    unicode-range="U+000D-FB04"
  />
<missing-glyph horiz-adv-x="685" 
d="M206 331l-66 39v-7l-2 -13l1 -27v-48l64 -44l-1 60zM616 465l-8 37l-19 50l-20 36l-23 28l-34 21h-11l17 -19l25 -10l11 -11l3 -33l-25 13l-15 -29l12 -8v-19l15 3l-12 26l15 -5l10 -20l-5 -12l-8 -7h-23l-3 11l-12 2l1 -22h-14l14 -18l-7 -10l-21 5l-3 -27l41 6l8 17
l22 -2l6 -28l-16 -13v-15l8 -6l18 12h23l6 11l-18 6l-5 9l9 42h7l14 -20zM491 530l-8 -4v-9l8 -3l2 7zM380 214l-64 4v-51l64 -6v53zM394 281l-72 7l-6 -13l78 -4v10zM589 312l-6 -3l-33 -27l39 -48v78zM214 498l59 12l-4 12zM351 520l-4 -12l49 -17l3 4zM525 399l-4 7h-205
l-66 -3l-7 -9l-6 -44l-48 20l-11 -4l57 -27l1 -45l-5 -73v-91l18 4l2 40l41 -3l3 9l-44 6v16l48 -6l1 9l-47 7l1 22l43 -3l3 6l-45 9l3 94h74l11 10h-79l2 9h74l8 7h-82l2 22l117 4l140 -4v11zM414 642l-8 -9v-19l12 -6l3 17zM532 306l8 -6l8 2l20 15l13 13l11 18l-7 5h-14
l-10 3l-14 7l-17 -3q-2 -13 -3 -24q-2 -9 -2.5 -17t-0.5 -7zM206 203l-74 50l20 -23l50 -41zM515 359h-48v-13l44 4zM206 569l29 12l13 -15l-17 -20l-10 -3l17 -3h5l36 24h32l18 -12l8 3l4 14l7 5l10 -4v-18h8l10 22l11 8l-5 6l-3 8l1 21l-30 -10l-10 -8l-8 5l4 21l14 10
l11 11l38 -2l12 13l-4 8h-49l-45 -13l-53 -26l-29 -23zM635 460l-3 -41l-8 -35l-12 -31l-3 -156l-21 -7l-50 70l-27 -7l-19 -140l-32 4l-7 -4l-4 -94l30 -19l16 -14l-3 -15l-30 1l-24 18h-14l-8 8l7 76l-4 47l-61 1l-3 -52l-2 -56v-20l-15 -6l-8 6l-30 -10h-32l-1 11l11 11

<glyph glyph-name="ff" unicode="ff" horiz-adv-x="531" 
d="M212 451l-81 -463q-17 -91 -96 -144l-114 -79h-50l15 85h118q12 19 18.5 43t11.5 56l88 502h-64l2 10h64l7 34q9 47 34.5 85.5t62.5 63.5l109 71h156l-122 -79h-110q-14 -18 -21.5 -43.5t-13.5 -60.5l-12 -71h161l7 34q9 47 34.5 85.5t62.5 63.5l109 71h62l-13 -79h-125
q-14 -18 -21.5 -43.5t-13.5 -60.5l-12 -71h97l-2 -10h-97l-81 -463q-17 -91 -96 -144l-113 -79h-43l15 85h110q12 19 18.5 43t11.5 56l88 502h-161z" />
    <glyph glyph-name="fi" unicode="fi" horiz-adv-x="513" 
d="M261 636q-14 -18 -21.5 -43.5t-13.5 -60.5l-12 -71h165l79 20l10 -8l-80 -450l96 72l6 -7l-127 -104l-66 32l77 435h-162l-81 -463q-17 -91 -96 -144l-114 -79h-50l15 85h118q12 19 18.5 43t11.5 56l88 502h-64l2 10h64l7 34q9 47 34.5 85.5t62.5 63.5l109 71h178
l-15 -79h-239z" />
    <glyph glyph-name="fl" unicode="fl" horiz-adv-x="522" 
d="M261 636q-14 -18 -21.5 -43.5t-13.5 -60.5l-12 -71h167l30 175h-150zM302 16l77 435h-167l-81 -463q-17 -91 -96 -144l-114 -79h-50l15 85h118q12 19 18.5 43t11.5 56l88 502h-64l2 10h64l7 34q9 47 34.5 85.5t62.5 63.5l109 71h179l-122 -690l95 70l6 -7l-127 -104z" />
    <glyph glyph-name="ffi" unicode="ffi" horiz-adv-x="761" 
d="M636 23l96 72l6 -7l-127 -104l-66 32l77 435h-159l-81 -463q-17 -91 -96 -144l-113 -79h-43l15 85h110q12 19 18.5 43t11.5 56l88 502h-161l-81 -463q-17 -91 -96 -144l-114 -79h-50l15 85h118q12 19 18.5 43t11.5 56l88 502h-64l2 10h64l7 34q9 47 34.5 85.5t62.5 63.5
l109 71h156l-122 -79h-110q-14 -18 -21.5 -43.5t-13.5 -60.5l-12 -71h161l7 34q9 47 34.5 85.5t62.5 63.5l109 71h175l-15 -79h-236q-14 -18 -21.5 -43.5t-13.5 -60.5l-12 -71h161l80 20l10 -8z" />
    <glyph glyph-name="ffl" unicode="ffl" horiz-adv-x="773" 
d="M553 16l77 435h-167l-81 -463q-17 -91 -96 -144l-113 -79h-43l15 85h110q12 19 18.5 43t11.5 56l88 502h-161l-81 -463q-17 -91 -96 -144l-114 -79h-50l15 85h118q12 19 18.5 43t11.5 56l88 502h-64l2 10h64l7 34q9 47 34.5 85.5t62.5 63.5l109 71h156l-122 -79h-110
q-14 -18 -21.5 -43.5t-13.5 -60.5l-12 -71h161l7 34q9 47 34.5 85.5t62.5 63.5l109 71h179l-122 -690l95 70l6 -7l-127 -104zM512 636q-14 -18 -21.5 -43.5t-13.5 -60.5l-12 -71h167l31 175h-151z" />
    <glyph glyph-name="Th" unicode="Th" horiz-adv-x="955" 
d="M396 686l-100 -670l95 -6v-10h-282v10l85 6l100 670h-136l-87 -168h-10l28 182h531l75 16l13 -10l-60 -339l161 114q59 0 81.5 -28.5t13.5 -79.5l-62 -348l95 70l6 -7l-127 -104l-66 32l61 337q11 66 -42 66q-19 0 -39 -10t-52 -31l-32 -23l-63 -355h-89l121 686h-219z
" />
    <glyph glyph-name="fb" unicode="fb" horiz-adv-x="726" 
d="M450 366l147 115q47 -12 79 -52.5t32 -117.5q0 -42 -12 -84t-35.5 -79.5t-56.5 -68t-75 -49.5l-98 -45q-37 3 -66.5 14.5t-62.5 34.5l105 602h-146q-14 -18 -21.5 -43.5t-13.5 -60.5l-12 -71h92l-2 -10h-92l-81 -463q-17 -91 -96 -144l-114 -79h-50l15 85h118
q12 19 18.5 43t11.5 56l88 502h-64l2 10h64l7 34q9 47 34.5 85.5t62.5 63.5l109 71h175zM448 353l-51 -286q20 -21 48 -32t46 -11q36 16 59.5 42.5t37.5 59t20 67.5t6 68q0 65 -20 102.5t-58 55.5z" />
    <glyph glyph-name="ffb" unicode="ffb" horiz-adv-x="977" 
d="M699 353l-51 -286q20 -21 48 -32t46 -11q36 16 59.5 42.5t37.5 59t20 67.5t6 68q0 65 -20 102.5t-58 55.5zM659 636h-147q-14 -18 -21.5 -43.5t-13.5 -60.5l-12 -71h92l-2 -10h-92l-81 -463q-17 -91 -96 -144l-113 -79h-43l15 85h110q12 19 18.5 43t11.5 56l88 502h-161
l-81 -463q-17 -91 -96 -144l-114 -79h-50l15 85h118q12 19 18.5 43t11.5 56l88 502h-64l2 10h64l7 34q9 47 34.5 85.5t62.5 63.5l109 71h156l-122 -79h-110q-14 -18 -21.5 -43.5t-13.5 -60.5l-12 -71h161l7 34q9 47 34.5 85.5t62.5 63.5l109 71h175l-62 -349l147 115
q47 -12 79 -52.5t32 -117.5q0 -42 -12 -84t-35.5 -79.5t-56.5 -68t-75 -49.5l-98 -45q-37 3 -66.5 14.5t-62.5 34.5z" />
    <glyph glyph-name="ffh" unicode="ffh" horiz-adv-x="1014" 
d="M382 -12q-17 -91 -96 -144l-113 -79h-43l15 85h110q12 19 18.5 43t11.5 56l88 502h-161l-81 -463q-17 -91 -96 -144l-114 -79h-50l15 85h118q12 19 18.5 43t11.5 56l88 502h-64l2 10h64l7 34q9 47 34.5 85.5t62.5 63.5l109 71h156l-122 -79h-110q-14 -18 -21.5 -43.5
t-13.5 -60.5l-12 -71h161l7 34q9 47 34.5 85.5t62.5 63.5l109 71h181l-62 -348l161 114q59 0 81.5 -28.5t13.5 -79.5l-62 -348l95 70l6 -7l-127 -104l-66 32l61 337q11 66 -42 66q-19 0 -39 -10t-52 -31l-32 -23l-63 -355h-89l112 636h-153q-14 -18 -21.5 -43.5t-13.5 -60.5
l-12 -71h92l-2 -10h-92z" />
    <glyph glyph-name="ffj" unicode="ffj" horiz-adv-x="759" 
d="M463 451l-81 -463q-17 -91 -96 -144l-113 -79h-43l15 85h110q12 19 18.5 43t11.5 56l88 502h-161l-81 -463q-17 -91 -96 -144l-114 -79h-50l15 85h118q12 19 18.5 43t11.5 56l88 502h-64l2 10h64l7 34q9 47 34.5 85.5t62.5 63.5l109 71h156l-122 -79h-110
q-14 -18 -21.5 -43.5t-13.5 -60.5l-12 -71h161l7 34q9 47 34.5 85.5t62.5 63.5l109 71h189l-15 -79h-250q-14 -18 -21.5 -43.5t-13.5 -60.5l-12 -71h168l80 20l9 -8l-83 -477q-8 -44 -35 -81.5t-67 -66.5l-114 -83h-38l16 85h113q10 22 16 44t11 55l88 502h-166z" />
    <glyph glyph-name="ffk" unicode="ffk" horiz-adv-x="983" 
d="M512 636q-14 -18 -21.5 -43.5t-13.5 -60.5l-12 -71h92l-2 -10h-92l-81 -463q-17 -91 -96 -144l-113 -79h-43l15 85h110q12 19 18.5 43t11.5 56l88 502h-161l-81 -463q-17 -91 -96 -144l-114 -79h-50l15 85h118q12 19 18.5 43t11.5 56l88 502h-64l2 10h64l7 34
q9 47 34.5 85.5t62.5 63.5l109 71h156l-122 -79h-110q-14 -18 -21.5 -43.5t-13.5 -60.5l-12 -71h161l7 34q9 47 34.5 85.5t62.5 63.5l109 71h177l-77 -435l206 191h73l-19 -96h-131l-118 -99l96 -27l91 -219l82 62l5 -7l-123 -101l-61 24l-102 265l-49 -273h-89l112 636
h-149z" />
    <glyph glyph-name="fh" unicode="fh" horiz-adv-x="763" 
d="M131 -12q-17 -91 -96 -144l-114 -79h-50l15 85h118q12 19 18.5 43t11.5 56l88 502h-64l2 10h64l7 34q9 47 34.5 85.5t62.5 63.5l109 71h181l-62 -348l161 114q59 0 81.5 -28.5t13.5 -79.5l-62 -348l95 70l6 -7l-127 -104l-66 32l61 337q11 66 -42 66q-19 0 -39 -10
t-52 -31l-32 -23l-63 -355h-89l112 636h-153q-14 -18 -21.5 -43.5t-13.5 -60.5l-12 -71h92l-2 -10h-92z" />
    <glyph glyph-name="fj" unicode="fj" horiz-adv-x="505" 
d="M212 451l-81 -463q-17 -91 -96 -144l-114 -79h-50l15 85h118q12 19 18.5 43t11.5 56l88 502h-64l2 10h64l7 34q9 47 34.5 85.5t62.5 63.5l109 71h178l-14 -79h-240q-14 -18 -21.5 -43.5t-13.5 -60.5l-12 -71h165l80 20l9 -8l-83 -477q-8 -44 -35 -81.5t-67 -66.5
l-114 -83h-38l16 85h113q10 22 16 44t11 55l88 502h-163z" />
    <glyph glyph-name="fk" unicode="fk" horiz-adv-x="732" 
d="M261 636q-14 -18 -21.5 -43.5t-13.5 -60.5l-12 -71h92l-2 -10h-92l-81 -463q-17 -91 -96 -144l-114 -79h-50l15 85h118q12 19 18.5 43t11.5 56l88 502h-64l2 10h64l7 34q9 47 34.5 85.5t62.5 63.5l109 71h177l-77 -435l206 191h73l-19 -96h-131l-118 -99l96 -27l91 -219
l82 62l5 -7l-123 -101l-61 24l-102 265l-49 -273h-89l112 636h-149z" />
    <glyph glyph-name="ft" unicode="ft" horiz-adv-x="556" 
d="M386 636h-125q-14 -18 -21.5 -43.5t-13.5 -60.5l-12 -71h167l10 54l89 80h13l-23 -134h100l-2 -10h-100l-75 -428l121 71l5 -7l-151 -103l-66 32l77 435h-167l-81 -463q-17 -91 -96 -144l-114 -79h-50l15 85h118q12 19 18.5 43t11.5 56l88 502h-64l2 10h64l7 34
q9 47 34.5 85.5t62.5 63.5l109 71h62z" />
    <glyph glyph-name="fu" unicode="fu" horiz-adv-x="761" 
d="M406 105q-6 -32 5 -45t30 -13q20 0 39.5 9t54.5 34l33 23l62 353h90l-77 -441l99 66l6 -6l-137 -101l-60 32l15 84l-157 -115q-60 0 -82 27.5t-13 79.5l64 359h-166l-81 -463q-17 -91 -96 -144l-114 -79h-50l15 85h118q12 19 18.5 43t11.5 56l88 502h-64l2 10h64l7 34
q9 47 34.5 85.5t62.5 63.5l109 71h62l-13 -79h-125q-14 -18 -21.5 -43.5t-13.5 -60.5l-12 -71h169l79 20l10 -8z" />
    <glyph glyph-name="fy" unicode="fy" horiz-adv-x="690" 
d="M333 451h-121l-81 -463q-17 -91 -96 -144l-114 -79h-50l15 85h118q12 19 18.5 43t11.5 56l88 502h-64l2 10h64l7 34q9 47 34.5 85.5t62.5 63.5l109 71h62l-13 -79h-125q-14 -18 -21.5 -43.5t-13.5 -60.5l-12 -71h122l78 20l13 -8l58 -439l170 316l-79 85l77 46l32 -33
l-8 -98l-178 -327l-153 -258h-100l19 91h105l110 168l-84 -20z" />
    <glyph glyph-name="ky" unicode="ky" horiz-adv-x="873" 
d="M609 471l58 -437l170 316l-79 85l77 46l33 -33l-9 -98l-176 -327l-155 -258h-99l19 91h105l109 168l-84 -20l-63 444h-15l-92 -73h-102l-118 -99l96 -27l91 -219l81 62l6 -7l-123 -101l-61 24l-102 265l-49 -273h-89l118 675l-93 -25l-2 9l178 57l13 -10l-75 -426
l206 191h226z" />
    <glyph glyph-name="tt" unicode="tt" horiz-adv-x="558" 
d="M383 461l10 54l89 80h13l-23 -134h100l-2 -10h-100l-75 -428l121 71l5 -7l-151 -103l-66 32l77 435h-174l-75 -428l113 66l5 -8l-143 -97l-66 32l77 435h-63l2 10h63l10 54l89 80h14l-24 -134h174z" />
    <glyph glyph-name="ty" unicode="ty" horiz-adv-x="702" 
d="M207 451l-75 -428l116 68l5 -7l-146 -100l-66 32l77 435h-63l2 10h63l10 54l89 80h14l-24 -134h139l77 20l13 -8l59 -439l170 316l-80 85l77 46l33 -33l-8 -98l-178 -327l-154 -259l-99 1l19 91h105l110 168l-84 -20l-64 447h-137z" />
    <glyph glyph-name="www" unicode="www" horiz-adv-x="1604" 
d="M1285 7l-5 229l-152 -246l-79 17l-6 229l-153 -246l-79 17l-5 229l-152 -246l-80 17l-5 229l-153 -246l-80 17l-5 228l-152 -245l-79 17l-12 428l-90 -33l-3 8l175 71l12 -10l6 -440l141 230l-4 174l93 36l7 -440l142 232l-4 177l78 32l16 -18l6 -423l141 231l-5 173
l94 36l6 -440l143 232l-5 181l76 30l18 -16l6 -427l141 231l-4 173l93 36l7 -440l194 315l-76 89l76 46l31 -34l-13 -100l-221 -357z" />
    <glyph glyph-name=".notdef" horiz-adv-x="685" 
d="M206 331l-66 39v-7l-2 -13l1 -27v-48l64 -44l-1 60zM616 465l-8 37l-19 50l-20 36l-23 28l-34 21h-11l17 -19l25 -10l11 -11l3 -33l-25 13l-15 -29l12 -8v-19l15 3l-12 26l15 -5l10 -20l-5 -12l-8 -7h-23l-3 11l-12 2l1 -22h-14l14 -18l-7 -10l-21 5l-3 -27l41 6l8 17
l22 -2l6 -28l-16 -13v-15l8 -6l18 12h23l6 11l-18 6l-5 9l9 42h7l14 -20zM491 530l-8 -4v-9l8 -3l2 7zM380 214l-64 4v-51l64 -6v53zM394 281l-72 7l-6 -13l78 -4v10zM589 312l-6 -3l-33 -27l39 -48v78zM214 498l59 12l-4 12zM351 520l-4 -12l49 -17l3 4zM525 399l-4 7h-205
l-66 -3l-7 -9l-6 -44l-48 20l-11 -4l57 -27l1 -45l-5 -73v-91l18 4l2 40l41 -3l3 9l-44 6v16l48 -6l1 9l-47 7l1 22l43 -3l3 6l-45 9l3 94h74l11 10h-79l2 9h74l8 7h-82l2 22l117 4l140 -4v11zM414 642l-8 -9v-19l12 -6l3 17zM532 306l8 -6l8 2l20 15l13 13l11 18l-7 5h-14
l-10 3l-14 7l-17 -3q-2 -13 -3 -24q-2 -9 -2.5 -17t-0.5 -7zM206 203l-74 50l20 -23l50 -41zM515 359h-48v-13l44 4zM206 569l29 12l13 -15l-17 -20l-10 -3l17 -3h5l36 24h32l18 -12l8 3l4 14l7 5l10 -4v-18h8l10 22l11 8l-5 6l-3 8l1 21l-30 -10l-10 -8l-8 5l4 21l14 10
l11 11l38 -2l12 13l-4 8h-49l-45 -13l-53 -26l-29 -23zM635 460l-3 -41l-8 -35l-12 -31l-3 -156l-21 -7l-50 70l-27 -7l-19 -140l-32 4l-7 -4l-4 -94l30 -19l16 -14l-3 -15l-30 1l-24 18h-14l-8 8l7 76l-4 47l-61 1l-3 -52l-2 -56v-20l-15 -6l-8 6l-30 -10h-32l-1 11l11 11
l50 21l-6 96l-98 -6l-147 140l-4 115l-13 10l-10 36v26l15 8l-3 78l92 -62l9 47l10 36l22 35l28 35l39 29l40 15l38 14h22l-68 22l4 17h7l79 -20l-4 51l16 12h32l19 -5l29 -25l32 -8l32 -10l15 -13v-20l-20 -31l30 -28l28 -32l18 -34l15 -41zM428 585l5 -6l19 11l8 -2l6 -24
h13l6 6l-9 18l17 28l-15 9v5l-25 7v-20l-13 -5v-9l-9 -6zM511 331l-54 1l-1 -24v-6l-2 -31l19 -3l-8 -61l-48 3l-8 -6l51 -5l-2 -9h-49l-4 -5l53 -7l-6 -35l27 -1l12 79l4 36l-15 3l-1 8l20 1l5 3l-28 16l2 5l30 -6l-30 15l5 5l21 -5l4 10zM384 256l-68 4v-10h68v6zM433 336
l4 30l-54 5l-3 -35h53zM394 312h-73v-10h73v10zM366 455l-7 -11h-12l-5 7l11 8l-15 2v6l-23 4l3 -17l8 -14l20 -9l13 -1l18 10l6 9l5 20l-30 2l7 -5zM102 434l57 -32l7 10l-68 38v18l59 -34l43 -28l28 -14l3 10l-103 64l-13 7l-41 33l2 -78l19 -17v-5h-21l19 -14l1 -11
l-20 7l18 -18l-4 -7l3 -97l11 -12v180zM564 386l5 7v7l-10 -4v-10h5zM244 454l1 4l14 2l-13 6l2 7l-20 -1l3 -19l14 -15l12 -6l11 5l16 12l6 12l2 13l-22 -4l6 -10l-12 -13l-14 -1z" />
    <glyph glyph-name=".null" horiz-adv-x="0" 
 />
    <glyph glyph-name=".null" horiz-adv-x="0" 
 />
    <glyph glyph-name="nonmarkingreturn" unicode="&#xd;" horiz-adv-x="360" 
 />
    <glyph glyph-name="space" unicode=" " horiz-adv-x="240" 
 />
    <glyph glyph-name="exclam" unicode="!" horiz-adv-x="323" 
d="M144 93l24 -5l-4 -46l-14 -41l-63 -5l-22 5l3 48l14 39zM225 396l-71 -195h-20l-2 194l48 315h108z" />
    <glyph glyph-name="quotedbl" unicode="&#x22;" horiz-adv-x="397" 
d="M100 451l92 153l-43 -3l-25 5l4 57l17 44l72 5l28 -5l-4 -52l-18 -49l-117 -158zM262 451l92 153l-43 -3l-25 5l4 57l17 44l72 5l28 -5l-4 -52l-18 -49l-117 -158z" />
    <glyph glyph-name="numbersign" unicode="#" horiz-adv-x="594" 
d="M462 446h135l-7 -23h-135l-58 -193h137l-8 -24h-136l-61 -206h-25l61 206h-175l-61 -206h-25l61 206h-139l8 24h138l58 193h-139l7 23h139l62 209h25l-62 -209h175l62 209h25zM197 230h175l58 193h-175z" />
    <glyph glyph-name="dollar" unicode="$" horiz-adv-x="519" 
d="M484 509h-10l-21 118q-22 22 -48 34.5t-55 19.5l-45 -258l93 -75q35 -29 55.5 -62.5t20.5 -88.5q0 -27 -10 -55.5t-29 -53.5t-47.5 -45.5t-64.5 -31.5l-89 -29h-6l-11 -62h-14l11 63q-59 2 -104 18.5t-75 39.5l40 165h11l2 -104q20 -21 55.5 -41.5t78.5 -33.5l49 283
l-68 56q-17 13 -33 29t-28.5 34.5t-20 40t-7.5 47.5q0 54 33 97.5t105 71.5l84 32h7l11 63h14l-11 -63q54 -2 91 -13t66 -29zM284 300l-49 -277q15 -4 29.5 -6t29.5 -2q50 17 71.5 52t21.5 79q0 23 -5.5 41.5t-16.5 35t-28 32.5t-39 34zM195 577q0 -24 6 -42t18 -33.5
t30.5 -31.5t42.5 -36l1 -1l44 251q-11 2 -22.5 3t-22.5 2q-56 -17 -76.5 -46t-20.5 -66z" />
    <glyph glyph-name="percent" unicode="%" horiz-adv-x="789" 
d="M716 705h30l-671 -710h-32zM261 683q-43 -23 -68 -74t-25 -116q0 -54 17 -85.5t44 -40.5q44 23 69.5 74t25.5 116q0 54 -17 86t-46 40zM282 700q50 0 80.5 -35t30.5 -95q0 -30 -8 -61.5t-25.5 -60t-45 -51t-66.5 -34.5l-39 -13q-50 0 -80 35t-30 94q0 30 8 62t25 60.5
t44.5 51.5t66.5 35zM564 333q-42 -23 -67 -74.5t-25 -115.5q0 -54 16.5 -86t44.5 -41q43 23 69 74.5t26 115.5q0 55 -17.5 87t-46.5 40zM585 350q50 0 81 -35t31 -95q0 -30 -8 -62t-25.5 -60.5t-45.5 -51t-67 -34.5l-38 -12q-50 0 -80 35t-30 94q0 30 8 62t25 60.5t44 51
t66 35.5z" />
    <glyph glyph-name="ampersand" unicode="&#x26;" horiz-adv-x="571" 
d="M482 599q-42 32 -83 54t-73 33q-99 -44 -99 -141q0 -31 9.5 -57t24 -45.5t32 -31t32.5 -13.5l-2 -9q-37 -2 -71.5 -18.5t-61.5 -44.5t-43 -65t-16 -80q0 -37 9 -69t26.5 -55.5t44.5 -38t63 -15.5q57 26 86 71.5t43 125.5l13 75h-65l-15 -23h-7l17 91h218l13 22h7l-17 -90
h-61l-15 -85q-6 -34 -16 -62t-31.5 -51t-57.5 -42.5t-94 -35.5l-62 -17q-46 0 -83 13.5t-63 37t-40 56t-14 70.5q0 74 45 128t129 83l47 17q-21 6 -42 18t-38 30t-27.5 41t-10.5 50q0 33 14 58.5t39 46t60 36t77 27.5l88 24q14 -2 30 -7t32.5 -12.5t31.5 -16t26 -16.5z" />
    <glyph glyph-name="quotesingle" unicode="'" horiz-adv-x="232" 
d="M96 449l93 153l-43 -2l-26 5l5 56l17 44l72 5l28 -5l-5 -52l-18 -48l-116 -159z" />
    <glyph glyph-name="parenleft" unicode="(" horiz-adv-x="347" 
d="M142 126q0 -97 21.5 -191t69.5 -164l-6 -5q-78 93 -113.5 183.5t-35.5 190.5q0 77 13.5 148t49 141.5t97 142t157.5 148.5l5 -5q-57 -49 -104 -107.5t-81.5 -130t-53.5 -158.5t-19 -193z" />
    <glyph glyph-name="parenright" unicode=")" horiz-adv-x="317" 
d="M260 346q0 -77 -13.5 -148t-49.5 -141.5t-97.5 -142t-157.5 -148.5l-5 5q57 49 104.5 107t81.5 130t53 158.5t19 192.5q0 48 -5 97t-16 94.5t-28.5 87.5t-41.5 77l6 5q78 -93 114 -183.5t36 -190.5z" />
    <glyph glyph-name="asterisk" unicode="*" horiz-adv-x="309" 
d="M244 417l-29 143l-77 -143l-63 52l137 94l-152 6l42 85l112 -86l-15 147h89l-69 -147l142 85l13 -84l-154 -6l104 -93z" />
    <glyph glyph-name="plus" unicode="+" 
d="M298 0v243h-246v24h246v248h24v-248h245v-24h-245v-243h-24z" />
    <glyph glyph-name="comma" unicode="," horiz-adv-x="234" 
d="M29 -139l85 136l-38 -2l-25 5l4 58l17 47l73 5l29 -5l-3 -55l-19 -50l-115 -143z" />
    <glyph glyph-name="hyphen" unicode="-" horiz-adv-x="384" 
d="M54 293h305l-5 -31h-305z" />
    <glyph glyph-name="period" unicode="." horiz-adv-x="234" 
d="M51 105l76 5l27 -5l-5 -57l-16 -49l-75 -5l-28 5l5 58z" />
    <glyph glyph-name="slash" unicode="/" horiz-adv-x="454" 
d="M-113 -230h-27l619 948h25z" />
    <glyph glyph-name="zero" unicode="0" horiz-adv-x="537" 
d="M307 481q45 0 82 -15.5t63.5 -42.5t41 -64t14.5 -81q0 -85 -45.5 -154.5t-156.5 -112.5l-65 -26q-45 0 -82 15.5t-63.5 43t-41 64.5t-14.5 80t10.5 82t34.5 72.5t62.5 62t94.5 50.5zM266 4q64 37 103 101t39 158q0 79 -28.5 130.5t-97.5 69.5q-65 -34 -103.5 -99
t-38.5 -161q0 -78 30.5 -129t95.5 -70z" />
    <glyph glyph-name="one" unicode="1" horiz-adv-x="417" 
d="M43 360l-3 10l267 105h12l-80 -459l138 -6v-10h-372v10l143 6l71 406z" />
    <glyph glyph-name="two" unicode="2" horiz-adv-x="496" 
d="M471 81v-13l-31 -68h-445l-3 10l215 147q45 33 75.5 61.5t49 54.5t26.5 50t8 48q0 36 -22 58.5t-61 25.5l-56 -17l-68 -147h-50l10 123l214 67q35 0 60 -8t41.5 -22t24 -32t7.5 -37q0 -32 -17.5 -61t-47 -55.5t-68 -52t-81.5 -50.5l-141 -82h360z" />
    <glyph glyph-name="three" unicode="3" horiz-adv-x="437" 
d="M111 298h-48l7 115l209 68q66 0 99.5 -31t33.5 -76q0 -33 -15.5 -62t-42.5 -53t-63.5 -42.5t-79.5 -31.5q84 -7 127.5 -45t43.5 -101q0 -46 -21 -80.5t-53.5 -61t-72 -45.5t-76.5 -34l-131 -58h-68l16 89h222q48 33 66 70t18 82q0 23 -8.5 46.5t-28 42.5t-51 31t-76.5 13
l-2 9l60 34q68 35 103.5 77.5t35.5 100.5q0 39 -22 66.5t-57 32.5l-61 -18z" />
    <glyph glyph-name="four" unicode="4" horiz-adv-x="542" 
d="M377 13h131l-1 -17h-133l-39 -222h-93l40 222h-271l-6 15l376 463h119l-2 -10l-473 -451h260l30 173l92 54h10z" />
    <glyph glyph-name="five" unicode="5" horiz-adv-x="465" 
d="M42 137l168 106q55 0 89.5 -14.5t53.5 -37t26 -50t7 -52.5q0 -48 -21 -88.5t-55 -73.5t-77 -58t-86 -43l-127 -57h-68l19 89h212q48 37 75 81.5t27 101.5q0 29 -6 54t-19 44t-33 29.5t-48 10.5q-29 0 -54 -9t-55 -26l-36 -23l-10 5l106 348h328l-27 -84h-310z" />
    <glyph glyph-name="six" unicode="6" horiz-adv-x="519" 
d="M517 707q-75 -21 -135.5 -62.5t-104.5 -93t-72.5 -107t-38.5 -103.5l176 107q28 -2 53.5 -17t44 -39.5t29.5 -56.5t11 -67q0 -88 -39.5 -153.5t-128.5 -97.5l-87 -32q-38 0 -71 14.5t-57 42.5t-37.5 69t-13.5 93q0 90 35 172t97.5 150t148.5 117.5t188 73.5zM290 386
q-19 0 -36 -7t-48 -24l-42 -24q-5 -19 -10.5 -47.5t-5.5 -64.5q0 -40 8 -75t23.5 -62.5t38 -45.5t51.5 -24q28 14 49 37t35 51.5t20.5 60t6.5 62.5q0 42 -7.5 72.5t-20 51t-29 30t-33.5 9.5z" />
    <glyph glyph-name="seven" unicode="7" horiz-adv-x="472" 
d="M52 466h425l7 -8l-401 -692h-75l1 9l419 606h-390z" />
    <glyph glyph-name="eight" unicode="8" horiz-adv-x="519" 
d="M223 -16q-35 0 -68 10.5t-58.5 30t-41 48.5t-15.5 67q0 43 18.5 76t47 58.5t64 44t68.5 33.5q-21 19 -41 37.5t-35.5 38.5t-25.5 43.5t-10 51.5q0 63 45 107.5t115 64.5l66 21q36 0 66.5 -8.5t53 -24.5t35 -39t12.5 -51q0 -41 -16.5 -71.5t-42.5 -53.5t-58 -40.5
t-62 -31.5q25 -23 49 -44t43 -42.5t30.5 -46t11.5 -55.5q0 -72 -51 -121t-141 -81zM140 174q0 -35 10 -64.5t27.5 -51.5t39.5 -35.5t46 -15.5q51 28 77.5 69.5t26.5 93.5q0 25 -10 47.5t-26.5 43.5t-38 41.5t-44.5 40.5q-47 -32 -77.5 -73t-30.5 -96zM425 568q0 51 -26 87
t-86 41q-47 -22 -67.5 -56.5t-20.5 -75.5q0 -38 25.5 -74.5t80.5 -85.5q49 32 71.5 74.5t22.5 89.5z" />
    <glyph glyph-name="nine" unicode="9" horiz-adv-x="516" 
d="M13 -240q75 20 135 62t104.5 93.5t72.5 106.5t39 103l-174 -106q-29 1 -55 16.5t-45 40t-30 56.5t-11 67q0 88 39.5 153.5t128.5 97.5l90 32q38 0 70.5 -14.5t56 -42.5t36.5 -69t13 -93q0 -90 -35 -172.5t-97.5 -150t-148 -117t-187.5 -73.5zM260 455q-28 -14 -49 -36.5
t-34.5 -51t-20.5 -59.5t-7 -61q0 -43 8 -74.5t20.5 -51.5t29 -30t33.5 -10q20 0 36 6.5t47 23.5l43 25q5 19 10 47.5t5 64.5q0 39 -8 74t-23.5 62.5t-38 46t-51.5 24.5z" />
    <glyph glyph-name="colon" unicode=":" horiz-adv-x="264" 
d="M121 478l76 6l27 -6l-5 -56l-16 -49l-75 -5l-28 5l5 57zM61 105l76 5l27 -5l-5 -57l-16 -49l-75 -5l-28 5l5 58z" />
    <glyph glyph-name="semicolon" unicode=";" horiz-adv-x="267" 
d="M21 -139l88 136l-40 -2l-26 5l5 58l17 47l72 5l30 -5l-4 -55l-18 -50l-115 -143zM200 484l27 -6l-5 -56l-16 -49l-75 -5l-28 5l5 57l16 48z" />
    <glyph glyph-name="less" unicode="&#x3c;" 
d="M569 533v-26l-487 -221l487 -220v-26l-519 239v15z" />
    <glyph glyph-name="equal" unicode="=" 
d="M568 329h-517v24h517v-24zM568 138h-517v23h517v-23z" />
    <glyph glyph-name="greater" unicode="&#x3e;" 
d="M569 294v-15l-519 -239v26l487 220l-487 221v26z" />
    <glyph glyph-name="question" unicode="?" horiz-adv-x="405" 
d="M144 93l24 -5l-4 -46l-14 -41l-63 -5l-22 5l3 48l14 39zM205 373q60 36 95 85t35 114q0 51 -23 85.5t-74 39.5l-65 -131h-49l14 115l114 29q50 0 85 -13t56.5 -34.5t31.5 -48t10 -53.5q0 -60 -42.5 -102t-114.5 -68l-74 -30l-55 -156h-19l21 134z" />
    <glyph glyph-name="at" unicode="@" horiz-adv-x="922" 
d="M526 152l22 103l-140 -171q-24 3 -46 15t-39.5 32.5t-28 49t-10.5 64.5q0 40 13 77t36 68t54.5 56t69.5 43l107 49l108 -63l-77 -378q37 2 76 23.5t70.5 60t51.5 92.5t20 122q0 60 -21 111t-59.5 89t-93 59.5t-121.5 21.5q-69 0 -134.5 -27.5t-117 -79t-82.5 -124
t-31 -162.5t30.5 -157t80.5 -111.5t115 -66t133 -21.5q31 0 59 6t52.5 15t45 19.5t35.5 19.5l4 -7q-29 -17 -61.5 -32.5t-64.5 -27.5t-61.5 -21t-53.5 -13q-88 0 -160.5 27.5t-124 76.5t-79.5 116.5t-28 147.5q0 72 25 137t69.5 118.5t106.5 94.5t136 66l96 30
q94 0 165.5 -21.5t120 -59.5t73.5 -90.5t25 -114.5q0 -67 -25 -125.5t-68 -102.5t-99 -70.5t-117 -29.5zM363 281q0 -51 20.5 -84.5t62.5 -45.5l106 121l38 171l-89 56q-41 -22 -67.5 -49.5t-42 -56.5t-22 -58t-6.5 -54z" />
    <glyph glyph-name="A" unicode="A" horiz-adv-x="677" 
d="M446 248h-238l-128 -232l84 -6l-1 -10h-189l1 10l78 6l374 669l83 25l61 -694l76 -6l-1 -10h-269l1 10l85 6zM216 263h229l-27 365z" />
    <glyph glyph-name="B" unicode="B" horiz-adv-x="569" 
d="M318 23q66 34 94 83t28 104q0 30 -9.5 58t-27.5 49t-45 33.5t-63 12.5h-70l-51 -340h144zM-6 0v10l77 6l101 668l-73 6v10h264q92 0 142 -37.5t50 -100.5q0 -64 -45.5 -110.5t-133.5 -65.5l-48 -10q57 -1 100 -13.5t71.5 -34t42.5 -50t14 -59.5q0 -39 -15.5 -69
t-41 -53.5t-59.5 -40.5t-71 -30l-76 -26h-299zM274 685l-46 -307h51q21 0 50 11.5t54.5 33.5t44 55t18.5 76q-1 66 -30.5 98.5t-94.5 32.5h-47z" />
    <glyph glyph-name="C" unicode="C" horiz-adv-x="604" 
d="M374 687q-50 -19 -89 -54t-66 -81.5t-41 -102.5t-14 -119q0 -140 55.5 -219t147.5 -99q15 6 33 14t35 16.5t31.5 16.5t22.5 14l86 145h11l-33 -166l-222 -70q-62 0 -113.5 22t-88.5 61.5t-58 94.5t-21 121q0 60 16.5 120.5t52 115t90 99t129.5 71.5l91 31q63 0 107.5 -16
t72.5 -33l-9 -176h-11l-45 136q-28 20 -69 36.5t-101 21.5z" />
    <glyph glyph-name="D" unicode="D" horiz-adv-x="650" 
d="M-6 0v10l77 6l101 668l-73 6v10h265q60 0 111.5 -21t88.5 -58t58.5 -88t21.5 -111q0 -63 -16.5 -124t-49.5 -113t-84 -92.5t-120 -62.5l-92 -30h-288zM314 23q50 26 90 67.5t67.5 93.5t43 112.5t15.5 125.5q0 62 -13.5 111t-38 82.5t-58 51.5t-73.5 18h-73l-100 -662h140
z" />
    <glyph glyph-name="E" unicode="E" horiz-adv-x="563" 
d="M-6 10l77 6l101 668l-73 6v10h494l-29 -182h-10l-41 168h-239l-47 -313h124l65 119h9l-40 -250h-9l-28 118h-123l-52 -346h248l93 173h10l-30 -187h-500v10z" />
    <glyph glyph-name="F" unicode="F" horiz-adv-x="541" 
d="M283 10v-10h-289v10l77 6l101 668l-73 6v10h494l-29 -182h-10l-41 168h-239l-49 -323h124l65 118h9l-40 -250h-9l-27 118h-123l-51 -333z" />
    <glyph glyph-name="G" unicode="G" horiz-adv-x="644" 
d="M313 -18q-59 0 -107.5 23.5t-83 64.5t-53.5 95t-19 116t17 124t52.5 116.5t91 98.5t132.5 69l95 29q66 0 113 -20.5t75 -41.5l-17 -164h-10l-37 119q-29 26 -74 48.5t-117 27.5q-46 -21 -84 -55.5t-65.5 -80t-42.5 -101t-15 -118.5q0 -73 14.5 -128.5t40.5 -95t63 -64
t82 -35.5q14 5 29.5 11.5t29.5 13.5t25 13t17 10l36 242l-72 7v10h225v-10l-52 -7l-37 -246z" />
    <glyph glyph-name="H" unicode="H" horiz-adv-x="679" 
d="M726 690l-74 -6l-100 -668l76 -6v-10h-256v10l78 6l51 340h-276l-51 -340l76 -6v-10h-256v10l78 6l100 668l-73 6v10h249v-10l-74 -6l-47 -313h276l47 313l-73 6v10h249v-10z" />
    <glyph glyph-name="I" unicode="I" horiz-adv-x="301" 
d="M348 690l-74 -6l-100 -668l76 -6v-10h-256v10l78 6l100 668l-73 6v10h249v-10z" />
    <glyph glyph-name="J" unicode="J" horiz-adv-x="295" 
d="M175 684l-73 6v10h249v-10l-74 -6l-88 -588q-5 -34 -16.5 -61.5t-27 -50t-33 -40.5t-34.5 -33l-108 -85h-54l17 90h113q14 38 22.5 76t13.5 75z" />
    <glyph glyph-name="K" unicode="K" horiz-adv-x="674" 
d="M228 379l348 305l-89 6v10h203v-10l-85 -6l-348 -302l83 -10l235 -356l58 -6v-10h-173l-233 369l-53 -353l76 -6v-10h-256v10l78 6l100 668l-73 6v10h249v-10l-74 -6z" />
    <glyph glyph-name="L" unicode="L" horiz-adv-x="526" 
d="M173 14h218l109 175h10l-38 -189h-478v10l77 6l101 668l-73 6v10h249v-10l-74 -6z" />
    <glyph glyph-name="M" unicode="M" horiz-adv-x="861" 
d="M722 700h187v-10l-74 -6l-101 -668l77 -6v-10h-257v10l78 6l99 654l-338 -671h-57l-141 669l-102 -652l79 -6v-10h-178v10l77 6l106 668l-73 6v10h190l124 -597z" />
    <glyph glyph-name="N" unicode="N" horiz-adv-x="662" 
d="M619 684l-80 6v10h179v-10l-77 -6l-108 -684h-63l-275 665l-102 -649l80 -6l-1 -10h-178v10l77 6l106 668l-73 6v10h187l241 -572z" />
    <glyph glyph-name="O" unicode="O" horiz-adv-x="667" 
d="M164 302q0 -68 13.5 -121t37.5 -91t57 -59.5t72 -25.5q47 16 84.5 54t64 91t40.5 117t14 131q0 68 -13.5 121.5t-37.5 91.5t-57 60t-72 26q-46 -14 -83.5 -52t-64 -92t-41 -119t-14.5 -132zM396 718q57 0 105.5 -22t84 -62t55.5 -95.5t20 -121.5q0 -60 -15 -121.5
t-47 -117t-84 -100t-125 -70.5l-75 -26q-57 0 -105.5 22t-84 62t-55.5 95.5t-20 122.5q0 60 14.5 122t47 118t84 100.5t125.5 69.5z" />
    <glyph glyph-name="P" unicode="P" horiz-adv-x="541" 
d="M339 337q24 12 48 29.5t43.5 42t32 57t12.5 74.5q0 69 -31.5 107t-96.5 38h-73l-53 -348h118zM316 314h-98l-45 -298l110 -6v-10h-289v10l77 6l101 668l-73 6v10h303q91 0 139 -42t48 -106q0 -74 -49.5 -124.5t-145.5 -84.5z" />
    <glyph glyph-name="Q" unicode="Q" horiz-adv-x="667" 
d="M396 718q57 0 105.5 -22t84 -62t55.5 -95.5t20 -121.5q0 -60 -15 -121.5t-47 -117t-84 -100t-125 -70.5l-74 -25l118 -21l106 -95l60 -26v-11l-141 1l-145 151q-57 0 -105 22.5t-83.5 62t-55.5 95t-20 122.5q0 60 14.5 122t47 118t84 100.5t125.5 69.5zM164 302
q0 -68 13.5 -121t37.5 -91t57 -59.5t72 -25.5q47 16 84.5 54t64 91t40.5 117t14 131q0 68 -13.5 121.5t-37.5 91.5t-57 60t-72 26q-46 -14 -83.5 -52t-64 -92t-41 -119t-14.5 -132z" />
    <glyph glyph-name="R" unicode="R" horiz-adv-x="633" 
d="M311 341l119 -35l131 -290l38 -5v-11h-147l-146 340h-84l-49 -324l86 -6v-10h-265v10l77 6l101 668l-73 6v10h303q90 0 138.5 -41t48.5 -102q0 -42 -16 -73.5t-43.5 -54.5t-63.5 -39t-76 -27zM338 360q24 12 48.5 28t44 38t32 51.5t12.5 69.5q0 65 -30.5 102t-96.5 37
h-74l-49 -326h113z" />
    <glyph glyph-name="S" unicode="S" horiz-adv-x="470" 
d="M315 718q63 0 105 -11t73 -31l-30 -167h-10l-21 118q-32 33 -74 46.5t-87 15.5q-56 -17 -76.5 -46t-20.5 -66q0 -24 6 -42t18 -33.5t30 -31.5t42 -36l106 -86q35 -29 56 -62.5t21 -88.5q0 -27 -10 -55.5t-29.5 -53.5t-48 -45.5t-64.5 -31.5l-88 -29q-66 0 -116 17t-83 42
l40 165h11l2 -104q14 -15 36.5 -30t50.5 -27.5t58.5 -20.5t60.5 -9q50 17 71.5 52t21.5 79q0 23 -5.5 41.5t-16.5 35t-28 32.5t-39 34l-96 77q-34 27 -61 63.5t-27 87.5q0 54 33 97.5t105 71.5z" />
    <glyph glyph-name="T" unicode="T" horiz-adv-x="547" 
d="M298 686h-136l-87 -168h-10l28 182h518l-28 -182h-10l-39 168h-134l-100 -670l94 -6v-10h-281v10l85 6z" />
    <glyph glyph-name="U" unicode="U" horiz-adv-x="611" 
d="M182 230q-7 -46 -1 -83.5t25.5 -64.5t53.5 -41.5t83 -14.5q33 12 59 28t46.5 40t34.5 58.5t22 83.5l72 448l-76 6v10h177v-10l-78 -6l-70 -444q-7 -43 -18 -78t-30.5 -63.5t-48.5 -49.5t-72 -36l-84 -30q-62 0 -103.5 16.5t-65 47t-30.5 74t1 97.5l70 466l-73 6v10h249
v-10l-74 -6z" />
    <glyph glyph-name="V" unicode="V" horiz-adv-x="646" 
d="M260 -11l-109 695l-77 6v10h266v-10l-85 -6l96 -614l265 614l-85 6v10h188v-10l-78 -6l-293 -673z" />
    <glyph glyph-name="W" unicode="W" horiz-adv-x="945" 
d="M518 452l-177 -441l-85 -23l-105 696l-77 6v10h263v-10l-85 -6l92 -611l167 418l-28 193l-62 6v10h256v-10l-93 -6l92 -611l241 611l-84 6v10h186v-10l-78 -6l-269 -673l-84 -23z" />
    <glyph glyph-name="X" unicode="X" horiz-adv-x="667" 
d="M164 0h-185v10l74 6l258 316l-167 352l-57 7v9h244v-10l-75 -6l130 -278l227 278l-80 6v10h174v-10l-66 -6l-245 -298l176 -370l53 -6v-10h-243v10l77 6l-138 296l-240 -296l83 -6v-10z" />
    <glyph glyph-name="Y" unicode="Y" horiz-adv-x="614" 
d="M383 314l224 370l-86 6v10h167v-10l-56 -6l-242 -394l-42 -274l84 -6v-10h-271v10l85 6l41 271l-153 397l-60 7v9h255v-10l-82 -6z" />
    <glyph glyph-name="Z" unicode="Z" horiz-adv-x="554" 
d="M516 199h9l-28 -199h-492l-8 11l470 675h-267l-105 -180h-10l31 194h463l8 -12l-465 -674h289z" />
    <glyph glyph-name="bracketleft" unicode="[" horiz-adv-x="312" 
d="M199 -220l-2 -10h-188l167 945h187l-2 -10l-127 -6l-161 -913z" />
    <glyph glyph-name="backslash" unicode="\" horiz-adv-x="405" 
d="M119 718l286 -948h-27l-284 948h25z" />
    <glyph glyph-name="bracketright" unicode="]" horiz-adv-x="285" 
d="M219 699l-126 6l2 10h188l-167 -945h-187l2 10l127 6z" />
    <glyph glyph-name="asciicircum" unicode="^" horiz-adv-x="361" 
d="M253 683l-150 -223h-20l168 245h11l82 -245h-21z" />
    <glyph glyph-name="underscore" unicode="_" horiz-adv-x="630" 
d="M-9 -73h556l-4 -23h-556z" />
    <glyph glyph-name="grave" unicode="`" horiz-adv-x="474" 
d="M168 723h92l30 -175h-12z" />
    <glyph glyph-name="a" unicode="a" horiz-adv-x="471" 
d="M123 209q0 -47 14.5 -85.5t52.5 -67.5l102 88l46 262q-21 14 -47.5 23t-48.5 9q-60 -36 -89.5 -97t-29.5 -132zM360 25l96 70l5 -7l-126 -104l-66 32l21 115l-157 -146q-48 23 -74 64t-26 106q0 46 15 89t42 80.5t64.5 68t83.5 52.5l75 36q12 0 28 -3t32.5 -8t32.5 -12
t28 -14z" />
    <glyph glyph-name="b" unicode="b" horiz-adv-x="461" 
d="M57 650l-3 9l178 57l13 -10l-60 -340l147 115q47 -12 79.5 -52.5t32.5 -117.5q0 -42 -12.5 -84t-35.5 -79.5t-56.5 -68t-75.5 -49.5l-97 -45q-38 3 -67.5 14.5t-61.5 34.5l112 641zM184 353l-51 -286q19 -21 47 -32t46 -11q36 16 59.5 42.5t38 59t20 67.5t5.5 68
q0 65 -20 102.5t-58 55.5z" />
    <glyph glyph-name="c" unicode="c" horiz-adv-x="410" 
d="M194 -15q-27 1 -55 13.5t-51 36.5t-37.5 59t-14.5 80q0 92 51.5 156t152.5 112l79 39q19 -2 44.5 -13t45.5 -24l-47 -71q-29 20 -59 34t-61 26q-32 -20 -53.5 -43.5t-34.5 -49t-18 -52.5t-5 -53q0 -80 33.5 -127t78.5 -63q12 6 28.5 15t34.5 19.5t35 21.5t29 19l6 -8
q-26 -20 -56 -39.5t-62 -42.5z" />
    <glyph glyph-name="d" unicode="d" horiz-adv-x="496" 
d="M278 16l20 115l-152 -146q-46 21 -78 68t-32 111q0 46 14.5 88.5t41.5 79t64.5 65.5t82.5 49l81 35q8 0 18 -3.5t20 -7.5l36 205l-93 -25l-3 9l178 57l13 -10l-120 -681l95 70l6 -7l-126 -104zM300 144l47 263q-23 14 -51.5 23.5t-50.5 10.5q-57 -35 -85.5 -94.5
t-28.5 -131.5q0 -48 17 -86.5t58 -69.5z" />
    <glyph glyph-name="e" unicode="e" horiz-adv-x="422" 
d="M125 221q3 -38 13.5 -67t27 -50.5t38 -36t44.5 -22.5q12 6 28.5 16t34.5 20.5t34 20t26 16.5l7 -9q-50 -36 -118 -80l-68 -44q-29 4 -57 18t-50 38.5t-35.5 58t-13.5 76.5q0 88 50 160t149 111l84 34q38 -8 62 -33t24 -73q0 -17 -3.5 -34t-16.5 -40zM125 230l166 59
q8 17 11 34t3 36q0 35 -15.5 56.5t-41.5 28.5q-52 -29 -87.5 -80t-35.5 -125v-9z" />
    <glyph glyph-name="f" unicode="f" horiz-adv-x="280" 
d="M124 461l7 34q9 47 34.5 85.5t62.5 63.5l109 71h62l-13 -79h-125q-14 -18 -21.5 -43.5t-13.5 -60.5l-12 -71h97l-2 -10h-97l-81 -463q-17 -91 -96 -144l-114 -79h-50l15 85h118q12 19 18.5 43t11.5 56l88 502h-64l2 10h64z" />
    <glyph glyph-name="g" unicode="g" horiz-adv-x="468" 
d="M9 -235l15 84h187q10 10 20 25.5t19 34t16.5 39t10.5 40.5l26 142l-152 -144q-49 26 -80 69t-31 106q0 46 15 88.5t42.5 79t66.5 66t87 50.5l81 36q25 -2 58.5 -11.5t57.5 -23.5l-80 -450q-7 -35 -49 -75t-99 -79l-112 -77h-99zM134 217q0 -49 18.5 -89t56.5 -69l96 85
l46 261q-21 14 -49 23t-49 10q-60 -36 -89.5 -94t-29.5 -127z" />
    <glyph glyph-name="h" unicode="h" horiz-adv-x="499" 
d="M127 0h-89l118 675l-93 -25l-2 9l178 57l13 -10l-60 -339l161 114q59 0 81.5 -28.5t13.5 -79.5l-62 -348l95 70l6 -7l-127 -104l-66 32l61 337q11 66 -42 66q-19 0 -39 -10t-52 -31l-32 -23z" />
    <glyph glyph-name="i" unicode="i" horiz-adv-x="267" 
d="M173 689l31 6l56 -6v-51l-19 -42l-28 -6l-62 6l4 50zM51 16l73 416l-89 -32l-2 9l178 72l10 -8l-79 -450l96 72l5 -7l-127 -104z" />
    <glyph glyph-name="j" unicode="j" horiz-adv-x="265" 
d="M181 689l30 6l56 -6v-51l-19 -42l-27 -6l-63 6l4 50zM132 432l-89 -32l-3 9l179 72l9 -8l-83 -477q-8 -44 -35 -81.5t-67 -66.5l-114 -83h-45l16 85h120q10 22 15.5 44t11.5 55z" />
    <glyph glyph-name="k" unicode="k" horiz-adv-x="471" 
d="M278 8l-102 265l-49 -273h-89l118 675l-93 -25l-2 9l178 57l13 -10l-75 -426l206 191h72l-18 -96h-131l-118 -99l96 -27l91 -219l81 62l6 -7l-123 -101z" />
    <glyph glyph-name="l" unicode="l" horiz-adv-x="265" 
d="M46 16l116 659l-93 -25l-2 9l178 57l13 -10l-120 -681l95 70l6 -7l-127 -104z" />
    <glyph glyph-name="m" unicode="m" horiz-adv-x="748" 
d="M543 16l60 338q11 65 -37 65q-17 0 -35.5 -10t-47.5 -30l-36 -26l-63 -353h-90l63 354q5 32 -4.5 48.5t-32.5 16.5q-17 0 -35.5 -10t-47.5 -30l-37 -26l-62 -353h-89l75 432l-88 -32l-3 9l178 72l10 -8l-19 -108l156 116q55 0 76.5 -26.5t16.5 -74.5l-3 -15l157 116
q57 0 78 -28.5t13 -79.5l-62 -348l96 70l5 -7l-127 -104z" />
    <glyph glyph-name="n" unicode="n" horiz-adv-x="510" 
d="M138 0h-89l75 432l-88 -32l-3 9l178 72l10 -8l-18 -105l160 113q60 0 82 -28.5t13 -79.5l-62 -348l96 70l5 -7l-127 -104l-65 32l60 337q12 66 -42 66q-19 0 -39 -10t-51 -31l-32 -22z" />
    <glyph glyph-name="o" unicode="o" horiz-adv-x="461" 
d="M242 451q-32 -14 -53.5 -41.5t-34 -62t-18 -73t-5.5 -72.5q0 -45 8.5 -78.5t23 -56t33.5 -35.5t40 -17q32 13 54 41.5t35.5 64.5t19 74.5t5.5 73.5q0 46 -8 78.5t-22.5 54t-34.5 33t-43 16.5zM287 481q31 0 59.5 -11.5t50.5 -34.5t34.5 -58t12.5 -82q0 -44 -11.5 -86
t-34 -78t-56 -65.5t-77.5 -48.5l-72 -32q-32 0 -60 12.5t-50 36.5t-34.5 59.5t-12.5 82.5q0 89 45 162t135 112z" />
    <glyph glyph-name="p" unicode="p" horiz-adv-x="482" 
d="M204 353l-50 -289q21 -22 49 -31.5t46 -10.5q37 18 61 45t37 59.5t18 67t5 67.5q0 64 -23 103t-62 53zM102 -230h-89l116 662l-89 -32l-3 9l179 72l9 -8l-18 -105l140 113q50 -7 83.5 -49.5t33.5 -120.5q0 -42 -11 -83.5t-32 -78.5t-52.5 -67t-72.5 -51l-94 -46
q-17 2 -31.5 9t-26.5 14z" />
    <glyph glyph-name="q" unicode="q" horiz-adv-x="458" 
d="M347 409q-22 12 -51 22.5t-49 10.5q-60 -37 -88 -97.5t-28 -132.5q0 -47 18.5 -85.5t56.5 -64.5l94 82zM298 129l-151 -144q-51 24 -81 66.5t-30 107.5q0 46 14.5 89.5t40.5 81.5t63.5 68t82.5 49l80 34q13 -1 30.5 -4t35 -7.5t33.5 -10.5t27 -12l-119 -677h-90z" />
    <glyph glyph-name="r" unicode="r" horiz-adv-x="377" 
d="M48 0l76 432l-89 -32l-2 9l178 72l10 -8l-37 -207l139 205h66l-19 -102h-99l-91 -129l-42 -240h-90z" />
    <glyph glyph-name="s" unicode="s" horiz-adv-x="355" 
d="M105 -15q-11 4 -25 10.5t-28.5 14t-27 15t-19.5 12.5l49 65q26 -19 57.5 -38.5t76.5 -42.5q27 9 40 27t13 38q0 26 -10 43.5t-36 42.5l-81 69q-22 19 -34 41t-12 51q0 32 25 64.5t85 54.5l76 29q40 -4 96 -34l-45 -68q-29 19 -62 36t-65 30q-22 -8 -32 -25.5t-10 -34.5
q0 -23 9.5 -39.5t26.5 -32.5l82 -70q34 -30 46 -54.5t12 -56.5q0 -42 -26.5 -69t-71.5 -41z" />
    <glyph glyph-name="t" unicode="t" horiz-adv-x="295" 
d="M253 94l5 -7l-151 -103l-66 32l77 435h-63l2 10h63l10 54l89 80h14l-24 -134h100l-2 -10h-100l-75 -428z" />
    <glyph glyph-name="u" unicode="u" horiz-adv-x="506" 
d="M487 91l6 -6l-137 -101l-60 32l15 84l-157 -115q-60 0 -82 27.5t-13 79.5l62 344l-89 -29l-3 8l178 66l10 -8l-66 -368q-6 -32 5 -45t30 -13q20 0 39.5 9t54.5 34l33 23l62 353h90l-77 -441z" />
    <glyph glyph-name="v" unicode="v" horiz-adv-x="425" 
d="M-2 402l-3 8l175 71l12 -10l4 -450l199 322l-78 92l81 46l32 -34l-17 -105l-218 -352l-85 17l-12 428z" />
    <glyph glyph-name="w" unicode="w" horiz-adv-x="648" 
d="M329 7l-5 217l-145 -234l-79 17l-12 428l-90 -33l-3 8l175 71l12 -10l6 -440l135 218l-6 186l94 36l6 -440l194 315l-76 89l77 46l31 -34l-13 -100l-222 -357z" />
    <glyph glyph-name="x" unicode="x" horiz-adv-x="464" 
d="M450 94l5 -7l-132 -101l-58 27l-58 187l-135 -204h-77l19 95h101l88 121l-67 226l-98 -34l-3 9l169 69l14 -8l58 -194l121 191h76l-18 -94h-99l-76 -109l73 -242z" />
    <glyph glyph-name="y" unicode="y" horiz-adv-x="443" 
d="M-4 401l-4 9l174 73l13 -8l58 -441l170 316l-79 85l77 46l33 -33l-9 -98l-178 -332l-153 -254l-100 1l20 91h105l109 168l-84 -20l-60 431z" />
    <glyph glyph-name="z" unicode="z" horiz-adv-x="410" 
d="M352 74l35 49l7 -4l-63 -129l-290 38l-39 -33l-10 6l325 369l-214 27l-30 -51l-7 5l56 129l267 -30l29 23l9 -6l-317 -364z" />
    <glyph glyph-name="braceleft" unicode="{" horiz-adv-x="320" 
d="M47 250q26 10 42 24t25 31.5t13.5 37.5t8.5 41l34 191q6 32 20.5 58t34.5 44t45 28t52 10h48l-2 -10h-46q-26 0 -50.5 -23.5t-35.5 -85.5l-36 -207q-3 -18 -9.5 -36t-17.5 -35t-28 -31.5t-42 -24.5l66 -50l-58 -323q-5 -31 -2.5 -52t10.5 -33.5t20 -18t26 -5.5h46l-2 -10
h-50q-58 0 -87.5 38t-18.5 102l50 287l-57 48l1 5v0z" />
    <glyph glyph-name="bar" unicode="|" horiz-adv-x="369" 
d="M275 718h24l-170 -963h-24z" />
    <glyph glyph-name="braceright" unicode="}" horiz-adv-x="272" 
d="M257 252q-20 -6 -35 -19.5t-26 -30.5t-17.5 -36t-9.5 -35l-39 -221q-6 -32 -20 -58t-34.5 -44t-45.5 -28t-52 -10h-48l2 10h46q27 0 50.5 23.5t34.5 85.5l44 245q2 13 10.5 29t21 32t28.5 30t34 22q-6 3 -17 11.5t-21.5 18.5t-18 20t-6.5 15l50 284q6 31 3.5 52
t-10.5 33.5t-20 18t-26 5.5h-46l2 10h50q58 0 87.5 -38t18.5 -102l-45 -257q-1 -5 5.5 -14t15.5 -18.5t19 -17.5t15 -11v-5v0z" />
    <glyph glyph-name="asciitilde" unicode="~" horiz-adv-x="653" 
d="M111 280l-61 -77h-10l53 80l97 18l369 -60l59 74h10l-52 -76l-98 -22z" />
    <glyph glyph-name="exclamdown" unicode="&#xa1;" horiz-adv-x="256" 
d="M67 69l72 196h20l2 -195l-48 -315h-109zM148 373l-23 4l4 46l13 42l63 4l22 -4l-3 -49l-13 -39z" />
    <glyph glyph-name="cent" unicode="&#xa2;" horiz-adv-x="428" 
d="M380 112q-26 -20 -56 -39.5t-63 -42.5l-50 -35l-13 -75h-14l12 65q-27 1 -55 14t-50.5 37t-36.5 58.5t-14 79.5q0 92 51.5 156t152.5 112l41 20l15 81h14l-13 -73l22 11q18 -2 44 -13t46 -24l-48 -71q-29 20 -58.5 34t-60.5 26q-32 -20 -53.5 -43.5t-34.5 -49
t-18.5 -52.5t-5.5 -53q0 -40 9 -71.5t24.5 -55t36 -39.5t43.5 -24q12 6 28.5 15t34.5 19.5t35 21.5t29 19l6 -8v0z" />
    <glyph glyph-name="sterling" unicode="&#xa3;" horiz-adv-x="540" 
d="M360 675q-14 -6 -26 -14.5t-22.5 -22.5t-18.5 -35t-14 -52l-32 -180h170l-2 -10h-170l-37 -209q-6 -33 -11.5 -54.5t-13 -36.5t-18 -25.5t-24.5 -20.5h257l90 150h10l-29 -165h-459l2 10l81 10l60 341h-79l2 10h79l19 105q7 41 20.5 72.5t35 56.5t54 44t79.5 35l76 26
q33 -8 57 -17t41 -19l-49 -66q-35 24 -63 38t-65 29z" />
    <glyph glyph-name="currency" unicode="&#xa4;" 
d="M130 324q0 -34 11 -62t31.5 -48.5t48.5 -32t63 -11.5q39 0 76 16.5t66 45t47 66.5t18 80q0 33 -11.5 61t-32.5 48.5t-50.5 32t-65.5 11.5q-40 0 -76.5 -17t-64 -45.5t-44 -66t-16.5 -78.5zM110 321q0 98 68 162l-61 75l17 14l61 -75q30 23 66.5 37t74.5 14q37 0 72 -13
t58 -36l86 73l11 -14l-85 -72q16 -20 25 -49t9 -59q0 -47 -18.5 -87t-52.5 -72l56 -67l-17 -14l-55 67q-32 -25 -68.5 -39t-75.5 -14q-40 0 -75 14.5t-58 40.5l-81 -69l-11 14l81 69q-13 20 -20 46.5t-7 53.5z" />
    <glyph glyph-name="yen" unicode="&#xa5;" horiz-adv-x="600" 
d="M377 314l216 370l-86 6v10h167v-10l-56 -6l-234 -394l-2 -14h113l-2 -11h-113l-13 -83h110l-2 -11h-109l-24 -155l84 -6v-10h-271v10l85 6l23 155h-110l2 11h110l12 83h-106l2 11h106l2 11l-146 397l-60 7v9h255v-10l-82 -6z" />
    <glyph glyph-name="brokenbar" unicode="&#xa6;" horiz-adv-x="369" 
d="M199 288l76 430h24l-76 -430h-24zM181 185h24l-76 -430h-24z" />
    <glyph glyph-name="section" unicode="&#xa7;" horiz-adv-x="562" 
d="M400 -53q0 -51 -33.5 -87.5t-108.5 -62.5l-132 -42q-13 4 -31.5 13.5t-37 21t-36 23.5t-28.5 22l60 63q31 -26 67 -54t88 -53q51 17 77.5 45.5t26.5 59.5q0 24 -4 42t-14 35.5t-27 36t-43 43.5q-42 41 -70.5 70t-46 52.5t-24.5 44t-7 43.5q0 48 35.5 87.5t101.5 62.5
q-23 23 -35 47.5t-12 58.5q0 25 10.5 51t31.5 49.5t51.5 42.5t70.5 30l93 23q20 -2 50.5 -16.5t57.5 -35.5l-57 -57q-28 23 -65 44t-73 35q-50 -18 -70 -45t-20 -65q0 -37 15 -65t42 -53l186 -178v-52q0 -29 -12 -53.5t-32 -44.5t-47.5 -34.5t-58.5 -21.5q31 -31 46 -59
t15 -67zM311 318q-5 4 -19 17.5t-29.5 28.5t-28 27.5l-13.5 13.5q-35 -13 -52 -37t-17 -53q0 -21 5 -38t14.5 -32t23.5 -29.5t32 -31.5l106 -105q20 7 34 20t22.5 28t12.5 30.5t4 29.5v38z" />
    <glyph glyph-name="dieresis" unicode="&#xa8;" horiz-adv-x="501" 
d="M177 683l40 -5l-1 -44l-16 -39l-34 -5l-42 5l1 46l16 37zM348 683l39 -5l-1 -44l-16 -39l-34 -5l-42 5l1 46l17 37z" />
    <glyph glyph-name="copyright" unicode="&#xa9;" horiz-adv-x="840" 
d="M438 -15q-74 1 -141 26t-118 72.5t-81 116t-30 156.5q0 79 26.5 140.5t74.5 106t116 72.5t151 40q74 -1 141.5 -26t118.5 -72.5t81 -116t30 -156.5q0 -79 -26.5 -140.5t-75 -106t-116.5 -72.5t-151 -40zM436 3q63 0 120 23t100.5 67t69.5 107t26 144q0 91 -31 157.5
t-78 110t-102 64.5t-103 21q-62 0 -119 -23t-100.5 -67t-69.5 -107t-26 -144q0 -91 31 -157.5t78 -110t101.5 -64.5t102.5 -21zM604 281v-104q-19 -7 -36 -13t-35 -10.5t-38 -7.5t-44 -5q-45 0 -85.5 12.5t-71 38t-49 62.5t-18.5 87q0 99 62.5 153.5t169.5 64.5
q48 0 81.5 -8.5t62.5 -23.5v-102h-8l-46 89q-17 16 -36.5 25.5t-51.5 9.5q-29 0 -54 -12t-44 -37t-29.5 -62t-10.5 -86q0 -41 8.5 -77.5t26 -63.5t44 -43t63.5 -16q26 0 47.5 10t36.5 24l46 95h9z" />
    <glyph glyph-name="ordfeminine" unicode="&#xaa;" horiz-adv-x="403" 
d="M126 495q0 -38 10.5 -68.5t39.5 -53.5l84 71l37 207q-17 12 -37.5 20t-37.5 8q-48 -29 -72 -78t-24 -106zM317 348l77 55l5 -5l-102 -84l-56 25l17 94l-127 -118q-39 19 -60 52t-21 85q0 37 12 72t34.5 65t54 54.5t69.5 42.5l59 29q10 0 23 -2.5t26.5 -7t26 -9.5
t22.5 -11z" />
    <glyph glyph-name="guillemotleft" unicode="&#xab;" horiz-adv-x="448" 
d="M177 15l-142 220l221 220h13l-170 -220l92 -220h-14zM352 15l-142 220l221 220h12l-170 -220l92 -220h-13z" />
    <glyph glyph-name="logicalnot" unicode="&#xac;" 
d="M567 179h-24v151h-491v24h515v-175z" />
    <glyph glyph-name="softhyphen" unicode="&#xad;" horiz-adv-x="384" 
d="M54 293h305l-5 -31h-305z" />
    <glyph glyph-name="registered" unicode="&#xae;" horiz-adv-x="582" 
d="M283 430v-120l28 -3v-5h-112v5l29 3v254l-29 2v6h142q33 0 60 -15.5t27 -50.5t-32 -53t-83 -22l64 -13l68 -108l19 -3v-5h-78l-75 128h-28zM283 437h20q31 0 47.5 17.5t16.5 48.5q0 29 -15 46t-38 17l-31 -2v-127zM325 185q-51 0 -96.5 17.5t-80 50t-55 79.5t-20.5 107
q0 54 18 96t51 72.5t79 50t102 27.5q51 0 96.5 -17.5t80 -49.5t55 -79.5t20.5 -107.5q0 -54 -18 -96t-51 -72.5t-79 -50t-102 -27.5zM323 198q42 0 80 15.5t67 45t46 73t17 99.5q0 63 -20.5 108.5t-52 75t-68 43.5t-67.5 14q-42 0 -80 -15.5t-67 -45t-46 -73t-17 -99.5
q0 -63 20.5 -108.5t52 -75t67.5 -43.5t68 -14z" />
    <glyph glyph-name="macron" unicode="&#xaf;" horiz-adv-x="492" 
d="M107 658h285l-6 -35h-285z" />
    <glyph glyph-name="degree" unicode="&#xb0;" horiz-adv-x="358" 
d="M99 598q0 64 40.5 98t115.5 57q31 0 59 -12.5t49 -33.5t33.5 -49t12.5 -60q0 -63 -36 -100t-118 -55q-32 0 -60.5 12.5t-49.5 33.5t-33.5 49t-12.5 60zM135 598q0 -26 9.5 -49t26 -40t38.5 -27.5t46 -10.5q27 0 48.5 10.5t37.5 27.5t24.5 40t8.5 49q0 25 -9.5 48.5
t-26 40.5t-38 27.5t-45.5 10.5q-27 0 -49 -10.5t-38 -27.5t-24.5 -40.5t-8.5 -48.5z" />
    <glyph glyph-name="plusminus" unicode="&#xb1;" 
d="M294 138v242h-246v23h246v250h23v-250h246v-23h-246v-242h-23zM47 24h525v-24h-525v24z" />
    <glyph glyph-name="twosuperior" unicode="&#xb2;" horiz-adv-x="334" 
d="M353 456v-9l-27 -47h-273l-2 7l124 101q62 51 93.5 95t31.5 95q0 32 -14 53.5t-41 26.5l-27 -7l-44 -86h-40l3 69l133 40q56 0 81 -25.5t25 -58.5q0 -28 -11.5 -52t-31.5 -46t-47 -43t-58 -42l-105 -71h230z" />
    <glyph glyph-name="threesuperior" unicode="&#xb3;" horiz-adv-x="291" 
d="M149 688h-38l5 66l133 40q44 0 64.5 -17t19.5 -40q0 -36 -34.5 -61.5t-87.5 -37.5q54 -5 79 -25.5t25 -52.5q0 -25 -12.5 -44t-31.5 -33t-42.5 -25t-44.5 -19l-99 -42h-37l12 59h137q23 17 32.5 35t9.5 41q0 26 -21.5 47.5t-71.5 23.5l-2 6l43 24q74 38 74 94
q0 20 -12 34t-30 16l-27 -8z" />
    <glyph glyph-name="acute" unicode="&#xb4;" horiz-adv-x="496" 
d="M255 723h91l-179 -175h-12z" />
    <glyph glyph-name="uni00B5" unicode="&#xb5;" 
d="M165 -230h-89l123 696h89l-65 -361q-6 -32 5 -45t30 -13q20 0 39.5 9t54.5 34l33 23l62 353h90l-77 -441l99 66l6 -6l-137 -101l-60 32l15 84l-157 -115q-79 0 -95 49l-11 -64z" />
    <glyph glyph-name="paragraph" unicode="&#xb6;" horiz-adv-x="520" 
d="M227 398q-32 0 -62.5 9t-53.5 27t-37 44t-14 60q0 27 12.5 50.5t34 43.5t49.5 36.5t59 31.5h255v-10l-50 -6v-843h-23v845h-147v-845h-23v557z" />
    <glyph glyph-name="periodcentered" unicode="&#xb7;" horiz-adv-x="426" 
d="M290 458l26 -5l-4 -52l-15 -47l-72 -5l-25 5l5 54l15 45z" />
    <glyph glyph-name="cedilla" unicode="&#xb8;" horiz-adv-x="583" 
d="M342 1l-37 -47q36 -5 54.5 -23t18.5 -47q0 -21 -10 -37t-25 -27.5t-32.5 -19.5t-32.5 -14l-76 -29h-26l30 39h78q17 11 28.5 25t11.5 37q0 31 -16 43.5t-41 14.5l65 86z" />
    <glyph glyph-name="onesuperior" unicode="&#xb9;" horiz-adv-x="293" 
d="M124 718l-3 8l169 62h12l-73 -376l86 -4v-8h-247v8l91 4l64 338z" />
    <glyph glyph-name="ordmasculine" unicode="&#xba;" horiz-adv-x="395" 
d="M228 690q-26 -11 -43 -33t-27.5 -50t-15 -58.5t-4.5 -58.5q0 -37 7 -63.5t18.5 -44.5t27 -28.5t32.5 -13.5q26 11 43 34t27.5 51.5t15 59.5t4.5 59q0 37 -6.5 63.5t-17.5 43.5t-26.5 26t-34.5 13zM264 715q26 0 49.5 -9t41 -28t28 -47t10.5 -66q0 -72 -37 -132.5
t-110 -92.5l-58 -25q-26 0 -49.5 10t-41 29.5t-28 48t-10.5 66.5q0 72 37 130.5t110 90.5z" />
    <glyph glyph-name="guillemotright" unicode="&#xbb;" horiz-adv-x="467" 
d="M371 235l-91 220h12l144 -220l-220 -220h-14zM197 235l-92 220h13l143 -220l-220 -220h-13z" />
    <glyph glyph-name="onequarter" unicode="&#xbc;" horiz-adv-x="778" 
d="M127 633l-3 8l169 62h12l-73 -376l86 -4v-8h-247v8l91 4l64 338zM156 -50h-29l520 760h27zM629 129h74l-2 -11h-75l-22 -118h-72l23 118h-157l-4 10l223 257h92l-1 -7l-299 -248h149l16 85l70 37h9z" />
    <glyph glyph-name="onehalf" unicode="&#xbd;" horiz-adv-x="787" 
d="M156 -50h-29l520 760h27zM127 633l-3 8l169 62h12l-73 -376l86 -4v-8h-247v8l91 4l64 338zM697 56v-9l-27 -47h-273l-2 7l123 101q62 51 94 95t32 95q0 32 -14.5 53.5t-40.5 26.5l-28 -7l-43 -86h-41l4 69l133 40q56 0 81 -25.5t25 -58.5q0 -28 -11.5 -52t-32 -46
t-47.5 -43t-58 -42l-105 -71h231z" />
    <glyph glyph-name="threequarters" unicode="&#xbe;" horiz-adv-x="747" 
d="M172 603h-38l5 66l133 40q44 0 64.5 -17t19.5 -40q0 -36 -34.5 -61.5t-87.5 -37.5q54 -5 79 -25.5t25 -52.5q0 -25 -12.5 -44t-31.5 -33t-42.5 -25t-44.5 -19l-99 -42h-37l12 59h137q23 17 32.5 35t9.5 41q0 26 -21.5 47.5t-71.5 23.5l-2 6l43 24q74 38 74 94
q0 20 -12 34t-30 16l-27 -8zM129 -50h-29l520 760h27zM598 129h74l-2 -11h-75l-22 -118h-72l23 118h-157l-4 10l223 257h92l-1 -7l-299 -248h149l16 85l70 37h9z" />
    <glyph glyph-name="questiondown" unicode="&#xbf;" horiz-adv-x="405" 
d="M261 373l-24 5l4 46l14 41l63 5l22 -5l-3 -48l-14 -39zM200 93q-60 -36 -95 -85t-35 -114q0 -51 23 -85.5t74 -39.5l65 131h49l-14 -115l-114 -29q-50 0 -85 13t-56.5 34.5t-31.5 48t-10 53.5q0 60 42.5 102t114.5 68l74 30l55 156h19l-21 -134z" />
    <glyph glyph-name="Agrave" unicode="&#xc0;" horiz-adv-x="677" 
d="M446 248h-238l-128 -232l84 -6l-1 -10h-189l1 10l78 6l374 669l83 25l61 -694l76 -6l-1 -10h-269l1 10l85 6zM216 263h229l-27 365zM480 757l-111 145h87l35 -145h-11z" />
    <glyph glyph-name="Aacute" unicode="&#xc1;" horiz-adv-x="677" 
d="M446 248h-238l-128 -232l84 -6l-1 -10h-189l1 10l78 6l374 669l83 25l61 -694l76 -6l-1 -10h-269l1 10l85 6zM216 263h229l-27 365zM509 902h88l-123 -145h-13z" />
    <glyph glyph-name="Acircumflex" unicode="&#xc2;" horiz-adv-x="677" 
d="M446 248h-238l-128 -232l84 -6l-1 -10h-189l1 10l78 6l374 669l83 25l61 -694l76 -6l-1 -10h-269l1 10l85 6zM216 263h229l-27 365zM357 757h-13l156 155h23l91 -155h-13l-99 91h-4z" />
    <glyph glyph-name="Atilde" unicode="&#xc3;" horiz-adv-x="681" 
d="M446 248h-238l-128 -232l84 -6l-1 -10h-189l1 10l78 6l374 669l83 25l61 -694l76 -6l-1 -10h-269l1 10l85 6zM216 263h229l-27 365zM374 877l56 19l168 -83l52 82h9l-52 -109l-56 -19l-168 85l-51 -83h-8z" />
    <glyph glyph-name="Adieresis" unicode="&#xc4;" horiz-adv-x="677" 
d="M446 248h-238l-128 -232l84 -6l-1 -10h-189l1 10l78 6l374 669l83 25l61 -694l76 -6l-1 -10h-269l1 10l85 6zM216 263h229l-27 365zM414 870l40 -5l-1 -44l-16 -39l-35 -5l-42 5l1 46l17 37zM594 870l40 -5l-1 -44l-16 -39l-34 -5l-42 5v46l18 37z" />
    <glyph glyph-name="Aring" unicode="&#xc5;" horiz-adv-x="677" 
d="M446 248h-238l-128 -232l84 -6l-1 -10h-189l1 10l78 6l374 669l83 25l61 -694l76 -6l-1 -10h-269l1 10l85 6zM216 263h229l-27 365zM592 843q0 -24 -8.5 -39.5t-23 -27t-33.5 -19t-40 -14.5q-20 0 -38.5 5.5t-33.5 17t-24 30t-9 44.5q0 23 8.5 38.5t23 26.5t33.5 18.5
t40 15.5q20 0 39 -5t33.5 -16.5t23.5 -30t9 -44.5zM412 841q0 -35 21 -56t54 -21t54 21t21 56t-21 56t-54 21t-54 -21t-21 -56z" />
    <glyph glyph-name="AE" unicode="&#xc6;" horiz-adv-x="880" 
d="M163 0h-189l1 10l78 6l434 684h423l-29 -182h-10l-41 168h-233l-52 -340h124l65 118h9l-40 -250h-9l-27 118h-124l-47 -318h243l93 173h10l-30 -187h-495v10l77 6l47 315h-165l-196 -315l84 -6zM286 346h158l50 334z" />
    <glyph glyph-name="Ccedilla" unicode="&#xc7;" horiz-adv-x="604" 
d="M374 687q-50 -19 -89 -54t-66 -81.5t-41 -102.5t-14 -119q0 -140 55.5 -219t147.5 -99q15 6 33 14t35 16.5t31.5 16.5t22.5 14l86 145h11l-33 -166l-222 -70h-2l-22 -28q36 -5 54.5 -23t18.5 -47q0 -21 -10 -37t-25 -27.5t-32.5 -19.5t-32.5 -14l-76 -29h-26l30 39h78
q17 11 28.5 25t11.5 37q0 31 -16 43.5t-41 14.5l50 66q-59 2 -108.5 25t-85 62.5t-55.5 93t-20 118.5q0 60 16.5 120.5t52 115t90 99t129.5 71.5l91 31q63 0 107.5 -16t72.5 -33l-9 -176h-11l-45 136q-28 20 -69 36.5t-101 21.5z" />
    <glyph glyph-name="Egrave" unicode="&#xc8;" horiz-adv-x="563" 
d="M405 757l-110 145h87l35 -145h-12zM-6 10l77 6l101 668l-73 6v10h494l-29 -182h-10l-41 168h-239l-47 -313h124l65 119h9l-40 -250h-9l-28 118h-123l-52 -346h248l93 173h10l-30 -187h-500v10z" />
    <glyph glyph-name="Eacute" unicode="&#xc9;" horiz-adv-x="563" 
d="M423 902h88l-123 -145h-13zM-6 10l77 6l101 668l-73 6v10h494l-29 -182h-10l-41 168h-239l-47 -313h124l65 119h9l-40 -250h-9l-28 118h-123l-52 -346h248l93 173h10l-30 -187h-500v10z" />
    <glyph glyph-name="Ecircumflex" unicode="&#xca;" horiz-adv-x="563" 
d="M266 757h-12l156 155h23l91 -155h-13l-100 91h-4zM-6 10l77 6l101 668l-73 6v10h494l-29 -182h-10l-41 168h-239l-47 -313h124l65 119h9l-40 -250h-9l-28 118h-123l-52 -346h248l93 173h10l-30 -187h-500v10z" />
    <glyph glyph-name="Edieresis" unicode="&#xcb;" horiz-adv-x="563" 
d="M313 870l40 -5l-1 -44l-16 -39l-35 -5l-42 5l1 46l17 37zM493 870l40 -5l-1 -44l-16 -39l-34 -5l-42 5v46l18 37zM-6 10l77 6l101 668l-73 6v10h494l-29 -182h-10l-41 168h-239l-47 -313h124l65 119h9l-40 -250h-9l-28 118h-123l-52 -346h248l93 173h10l-30 -187h-500v10
z" />
    <glyph glyph-name="Igrave" unicode="&#xcc;" horiz-adv-x="301" 
d="M259 757l-111 145h87l35 -145h-11zM348 690l-74 -6l-100 -668l76 -6v-10h-256v10l78 6l100 668l-73 6v10h249v-10z" />
    <glyph glyph-name="Iacute" unicode="&#xcd;" horiz-adv-x="301" 
d="M275 902h88l-123 -145h-13zM348 690l-74 -6l-100 -668l76 -6v-10h-256v10l78 6l100 668l-73 6v10h249v-10z" />
    <glyph glyph-name="Icircumflex" unicode="&#xce;" horiz-adv-x="301" 
d="M112 757h-13l156 155h23l91 -155h-13l-99 91h-4zM348 690l-74 -6l-100 -668l76 -6v-10h-256v10l78 6l100 668l-73 6v10h249v-10z" />
    <glyph glyph-name="Idieresis" unicode="&#xcf;" horiz-adv-x="301" 
d="M167 870l40 -5v-44l-17 -39l-34 -5l-42 5l1 46l17 37zM343 870l40 -5l-1 -44l-17 -39l-33 -5l-43 5l1 46l18 37zM348 690l-74 -6l-100 -668l76 -6v-10h-256v10l78 6l100 668l-73 6v10h249v-10z" />
    <glyph glyph-name="Eth" unicode="&#xd0;" horiz-adv-x="650" 
d="M-6 0v10l77 6l52 346h-81l2 10h81l47 312l-73 6v10h265q60 0 111.5 -21t88.5 -58t58.5 -88t21.5 -111q0 -63 -16.5 -124t-49.5 -113t-84 -92.5t-120 -62.5l-92 -30h-288zM314 23q50 26 90 67.5t67.5 93.5t43 112.5t15.5 125.5q0 62 -13.5 111t-38 82.5t-58 51.5t-73.5 18
h-73l-48 -313h127l-2 -10h-126l-51 -339h140z" />
    <glyph glyph-name="Ntilde" unicode="&#xd1;" horiz-adv-x="662" 
d="M327 877l56 19l167 -83l53 82h9l-52 -109l-56 -19l-169 85l-50 -83h-9zM619 684l-80 6v10h179v-10l-77 -6l-108 -684h-63l-275 665l-102 -649l80 -6l-1 -10h-178v10l77 6l106 668l-73 6v10h187l241 -572z" />
    <glyph glyph-name="Ograve" unicode="&#xd2;" horiz-adv-x="667" 
d="M433 757l-110 145h87l35 -145h-12zM164 302q0 -68 13.5 -121t37.5 -91t57 -59.5t72 -25.5q47 16 84.5 54t64 91t40.5 117t14 131q0 68 -13.5 121.5t-37.5 91.5t-57 60t-72 26q-46 -14 -83.5 -52t-64 -92t-41 -119t-14.5 -132zM396 718q57 0 105.5 -22t84 -62t55.5 -95.5
t20 -121.5q0 -60 -15 -121.5t-47 -117t-84 -100t-125 -70.5l-75 -26q-57 0 -105.5 22t-84 62t-55.5 95.5t-20 122.5q0 60 14.5 122t47 118t84 100.5t125.5 69.5z" />
    <glyph glyph-name="Oacute" unicode="&#xd3;" horiz-adv-x="667" 
d="M415 902h88l-123 -145h-13zM164 302q0 -68 13.5 -121t37.5 -91t57 -59.5t72 -25.5q47 16 84.5 54t64 91t40.5 117t14 131q0 68 -13.5 121.5t-37.5 91.5t-57 60t-72 26q-46 -14 -83.5 -52t-64 -92t-41 -119t-14.5 -132zM396 718q57 0 105.5 -22t84 -62t55.5 -95.5
t20 -121.5q0 -60 -15 -121.5t-47 -117t-84 -100t-125 -70.5l-75 -26q-57 0 -105.5 22t-84 62t-55.5 95.5t-20 122.5q0 60 14.5 122t47 118t84 100.5t125.5 69.5z" />
    <glyph glyph-name="Ocircumflex" unicode="&#xd4;" horiz-adv-x="667" 
d="M298 757h-13l157 155h23l90 -155h-12l-100 91h-4zM164 302q0 -68 13.5 -121t37.5 -91t57 -59.5t72 -25.5q47 16 84.5 54t64 91t40.5 117t14 131q0 68 -13.5 121.5t-37.5 91.5t-57 60t-72 26q-46 -14 -83.5 -52t-64 -92t-41 -119t-14.5 -132zM396 718q57 0 105.5 -22
t84 -62t55.5 -95.5t20 -121.5q0 -60 -15 -121.5t-47 -117t-84 -100t-125 -70.5l-75 -26q-57 0 -105.5 22t-84 62t-55.5 95.5t-20 122.5q0 60 14.5 122t47 118t84 100.5t125.5 69.5z" />
    <glyph glyph-name="Otilde" unicode="&#xd5;" horiz-adv-x="667" 
d="M312 877l56 19l168 -83l53 82h8l-51 -109l-57 -19l-168 85l-50 -83h-9zM164 302q0 -68 13.5 -121t37.5 -91t57 -59.5t72 -25.5q47 16 84.5 54t64 91t40.5 117t14 131q0 68 -13.5 121.5t-37.5 91.5t-57 60t-72 26q-46 -14 -83.5 -52t-64 -92t-41 -119t-14.5 -132zM396 718
q57 0 105.5 -22t84 -62t55.5 -95.5t20 -121.5q0 -60 -15 -121.5t-47 -117t-84 -100t-125 -70.5l-75 -26q-57 0 -105.5 22t-84 62t-55.5 95.5t-20 122.5q0 60 14.5 122t47 118t84 100.5t125.5 69.5z" />
    <glyph glyph-name="Odieresis" unicode="&#xd6;" horiz-adv-x="667" 
d="M347 870l41 -5l-1 -44l-17 -39l-34 -5l-42 5l1 46l17 37zM528 870l40 -5l-1 -44l-16 -39l-34 -5l-43 5l1 46l18 37zM164 302q0 -68 13.5 -121t37.5 -91t57 -59.5t72 -25.5q47 16 84.5 54t64 91t40.5 117t14 131q0 68 -13.5 121.5t-37.5 91.5t-57 60t-72 26
q-46 -14 -83.5 -52t-64 -92t-41 -119t-14.5 -132zM396 718q57 0 105.5 -22t84 -62t55.5 -95.5t20 -121.5q0 -60 -15 -121.5t-47 -117t-84 -100t-125 -70.5l-75 -26q-57 0 -105.5 22t-84 62t-55.5 95.5t-20 122.5q0 60 14.5 122t47 118t84 100.5t125.5 69.5z" />
    <glyph glyph-name="multiply" unicode="&#xd7;" 
d="M489 30l-179 178l-179 -180l-17 17l179 180l-180 180l17 17l180 -181l178 179l17 -16l-178 -179l179 -179z" />
    <glyph glyph-name="Oslash" unicode="&#xd8;" horiz-adv-x="667" 
d="M396 718q57 0 105.5 -22t83.5 -62l67 77h15l-75 -86q32 -39 50.5 -92t18.5 -116q0 -60 -15 -121.5t-47 -117t-84 -100t-125 -70.5l-75 -26q-61 0 -112.5 25.5t-87.5 70.5l-81 -93h-17l91 104q-28 38 -43 87.5t-15 107.5q0 60 14.5 122t47 118t84 100.5t125.5 69.5z
M547 398q0 44 -5.5 81t-16.5 69l-341 -391q23 -69 64.5 -108t95.5 -44q47 16 84.5 54t64 91t40.5 117t14 131zM164 302q0 -76 16 -131l340 390q-23 61 -62.5 96t-90.5 40q-46 -14 -83.5 -52t-64 -92t-41 -119t-14.5 -132z" />
    <glyph glyph-name="Ugrave" unicode="&#xd9;" horiz-adv-x="611" 
d="M433 757l-111 145h87l35 -145h-11zM182 230q-7 -46 -1 -83.5t25.5 -64.5t53.5 -41.5t83 -14.5q33 12 59 28t46.5 40t34.5 58.5t22 83.5l72 448l-76 6v10h177v-10l-78 -6l-70 -444q-7 -43 -18 -78t-30.5 -63.5t-48.5 -49.5t-72 -36l-84 -30q-62 0 -103.5 16.5t-65 47
t-30.5 74t1 97.5l70 466l-73 6v10h249v-10l-74 -6z" />
    <glyph glyph-name="Uacute" unicode="&#xda;" horiz-adv-x="611" 
d="M451 902h88l-123 -145h-13zM182 230q-7 -46 -1 -83.5t25.5 -64.5t53.5 -41.5t83 -14.5q33 12 59 28t46.5 40t34.5 58.5t22 83.5l72 448l-76 6v10h177v-10l-78 -6l-70 -444q-7 -43 -18 -78t-30.5 -63.5t-48.5 -49.5t-72 -36l-84 -30q-62 0 -103.5 16.5t-65 47t-30.5 74
t1 97.5l70 466l-73 6v10h249v-10l-74 -6z" />
    <glyph glyph-name="Ucircumflex" unicode="&#xdb;" horiz-adv-x="611" 
d="M303 757h-13l157 155h23l90 -155h-12l-100 91h-4zM182 230q-7 -46 -1 -83.5t25.5 -64.5t53.5 -41.5t83 -14.5q33 12 59 28t46.5 40t34.5 58.5t22 83.5l72 448l-76 6v10h177v-10l-78 -6l-70 -444q-7 -43 -18 -78t-30.5 -63.5t-48.5 -49.5t-72 -36l-84 -30
q-62 0 -103.5 16.5t-65 47t-30.5 74t1 97.5l70 466l-73 6v10h249v-10l-74 -6z" />
    <glyph glyph-name="Udieresis" unicode="&#xdc;" horiz-adv-x="611" 
d="M343 870l40 -5v-44l-17 -39l-34 -5l-42 5l1 46l17 37zM524 870l40 -5l-1 -44l-17 -39l-33 -5l-43 5l1 46l18 37zM182 230q-7 -46 -1 -83.5t25.5 -64.5t53.5 -41.5t83 -14.5q33 12 59 28t46.5 40t34.5 58.5t22 83.5l72 448l-76 6v10h177v-10l-78 -6l-70 -444
q-7 -43 -18 -78t-30.5 -63.5t-48.5 -49.5t-72 -36l-84 -30q-62 0 -103.5 16.5t-65 47t-30.5 74t1 97.5l70 466l-73 6v10h249v-10l-74 -6z" />
    <glyph glyph-name="Yacute" unicode="&#xdd;" horiz-adv-x="614" 
d="M466 902h88l-123 -145h-13zM383 314l224 370l-86 6v10h167v-10l-56 -6l-242 -394l-42 -274l84 -6v-10h-271v10l85 6l41 271l-153 397l-60 7v9h255v-10l-82 -6z" />
    <glyph glyph-name="Thorn" unicode="&#xde;" horiz-adv-x="539" 
d="M-6 0v10l78 6l100 668l-73 6v10h249v-10l-74 -6l-20 -132h126q91 0 139 -42t48 -106q0 -74 -49.5 -124.5t-145.5 -84.5l-78 -29h-98l-22 -150l102 -6v-10h-282zM317 189q24 12 48 29.5t43.5 42t32 57t12.5 74.5q0 69 -31.5 107t-96.5 38h-73l-53 -348h118z" />
    <glyph glyph-name="germandbls" unicode="&#xdf;" horiz-adv-x="506" 
d="M351 715q28 0 53.5 -5t44.5 -17t30 -32.5t11 -53.5q0 -27 -10.5 -49t-27 -40.5t-37 -33t-41.5 -24.5l-51 -29q-5 -8 -7.5 -20t-2.5 -23q0 -24 11 -40.5t28 -31.5l74 -70q32 -31 45.5 -56.5t13.5 -55.5q0 -43 -27.5 -70t-72.5 -43l-105 -36q-11 4 -25 10.5t-28.5 14
t-27 15t-19.5 12.5l49 65q26 -19 56.5 -38t73.5 -41q28 8 41 26.5t13 37.5q0 27 -11 47t-43 49l-69 64q-20 19 -31 40t-13 47q-1 14 1 25t5 21l78 69q29 24 49.5 58t20.5 80q0 26 -8 44t-20 29t-26 16.5t-25 5.5q-27 -16 -44 -33.5t-27 -36.5t-15.5 -38.5t-8.5 -38.5
l-96 -546q-7 -42 -26 -75t-59 -61l-124 -88h-46l16 85h115q10 20 16.5 43t11.5 56l86 502h-66l2 10h66q16 78 42 119t64 63l123 72v0z" />
    <glyph glyph-name="agrave" unicode="&#xe0;" horiz-adv-x="471" 
d="M123 209q0 -47 14.5 -85.5t52.5 -67.5l102 88l46 262q-21 14 -47.5 23t-48.5 9q-60 -36 -89.5 -97t-29.5 -132zM360 25l96 70l5 -7l-126 -104l-66 32l21 115l-157 -146q-48 23 -74 64t-26 106q0 46 15 89t42 80.5t64.5 68t83.5 52.5l75 36q12 0 28 -3t32.5 -8t32.5 -12
t28 -14zM250 723h92l30 -175h-12z" />
    <glyph glyph-name="aacute" unicode="&#xe1;" horiz-adv-x="471" 
d="M123 209q0 -47 14.5 -85.5t52.5 -67.5l102 88l46 262q-21 14 -47.5 23t-48.5 9q-60 -36 -89.5 -97t-29.5 -132zM360 25l96 70l5 -7l-126 -104l-66 32l21 115l-157 -146q-48 23 -74 64t-26 106q0 46 15 89t42 80.5t64.5 68t83.5 52.5l75 36q12 0 28 -3t32.5 -8t32.5 -12
t28 -14zM363 723h91l-179 -175h-12z" />
    <glyph glyph-name="acircumflex" unicode="&#xe2;" horiz-adv-x="471" 
d="M123 209q0 -47 14.5 -85.5t52.5 -67.5l102 88l46 262q-21 14 -47.5 23t-48.5 9q-60 -36 -89.5 -97t-29.5 -132zM360 25l96 70l5 -7l-126 -104l-66 32l21 115l-157 -146q-48 23 -74 64t-26 106q0 46 15 89t42 80.5t64.5 68t83.5 52.5l75 36q12 0 28 -3t32.5 -8t32.5 -12
t28 -14zM208 548h-12l152 184h21l85 -184h-11l-96 108h-3z" />
    <glyph glyph-name="atilde" unicode="&#xe3;" horiz-adv-x="471" 
d="M123 209q0 -47 14.5 -85.5t52.5 -67.5l102 88l46 262q-21 14 -47.5 23t-48.5 9q-60 -36 -89.5 -97t-29.5 -132zM360 25l96 70l5 -7l-126 -104l-66 32l21 115l-157 -146q-48 23 -74 64t-26 106q0 46 15 89t42 80.5t64.5 68t83.5 52.5l75 36q12 0 28 -3t32.5 -8t32.5 -12
t28 -14zM233 689l56 19l167 -84l53 82h9l-52 -109l-56 -19l-169 86l-50 -84h-9z" />
    <glyph glyph-name="adieresis" unicode="&#xe4;" horiz-adv-x="471" 
d="M123 209q0 -47 14.5 -85.5t52.5 -67.5l102 88l46 262q-21 14 -47.5 23t-48.5 9q-60 -36 -89.5 -97t-29.5 -132zM360 25l96 70l5 -7l-126 -104l-66 32l21 115l-157 -146q-48 23 -74 64t-26 106q0 46 15 89t42 80.5t64.5 68t83.5 52.5l75 36q12 0 28 -3t32.5 -8t32.5 -12
t28 -14zM278 683l40 -5l-1 -44l-16 -39l-34 -5l-42 5l1 46l16 37zM449 683l39 -5l-1 -44l-16 -39l-34 -5l-42 5l1 46l17 37z" />
    <glyph glyph-name="aring" unicode="&#xe5;" horiz-adv-x="471" 
d="M123 209q0 -47 14.5 -85.5t52.5 -67.5l102 88l46 262q-21 14 -47.5 23t-48.5 9q-60 -36 -89.5 -97t-29.5 -132zM360 25l96 70l5 -7l-126 -104l-66 32l21 115l-157 -146q-48 23 -74 64t-26 106q0 46 15 89t42 80.5t64.5 68t83.5 52.5l75 36q12 0 28 -3t32.5 -8t32.5 -12
t28 -14zM295 640q0 -35 20.5 -56t53.5 -21t54.5 21t21.5 56t-21.5 56t-54.5 21t-53.5 -21t-20.5 -56zM474 641q0 -24 -8.5 -39.5t-22.5 -26.5t-33 -18.5t-40 -14.5q-20 0 -38.5 5t-33.5 16.5t-24 30t-9 44.5q0 24 8.5 39.5t23 26.5t33.5 18.5t39 14.5q20 0 39 -5t33.5 -16.5
t23.5 -29.5t9 -45z" />
    <glyph glyph-name="ae" unicode="&#xe6;" horiz-adv-x="660" 
d="M366 223q2 -41 12.5 -70.5t27 -51t37.5 -35t43 -21.5q12 6 29 16t34.5 20.5t33.5 20t27 16.5l6 -9q-26 -19 -55.5 -39t-61.5 -41l-68 -44q-26 3 -50 14t-44.5 29.5t-35.5 44t-22 57.5l-146 -145q-48 23 -74 64t-26 106q0 46 15 89t42 80.5t64.5 68t83.5 52.5l75 36
q15 0 32 -3.5t35 -10t34.5 -15.5t29.5 -20l113 49q38 -8 62 -33t24 -73q0 -17 -3.5 -34t-15.5 -40zM123 209q0 -47 14.5 -85.5t52.5 -67.5l88 82q-2 8 -3 18.5t-1 19.5q0 60 23.5 113.5t71.5 95.5q-28 22 -62 37.5t-65 15.5q-60 -36 -89.5 -97t-29.5 -132zM487 444
q-29 -17 -50.5 -42t-37.5 -53q-15 -24 -24 -53t-10 -65l164 55q8 17 11.5 35.5t3.5 37.5q0 35 -15.5 56.5t-41.5 28.5z" />
    <glyph glyph-name="ccedilla" unicode="&#xe7;" horiz-adv-x="410" 
d="M197 -13l-26 -33q36 -5 54.5 -23t18.5 -47q0 -21 -10 -37t-25 -27.5t-32.5 -19.5t-32.5 -14l-76 -29h-26l30 39h78q17 11 28.5 25t11.5 37q0 31 -16 43.5t-41 14.5l52 70q-26 3 -52.5 16t-48 37t-35 57.5t-13.5 77.5q0 92 51.5 156t152.5 112l79 39q19 -2 44.5 -13
t45.5 -24l-47 -71q-29 20 -59 34t-61 26q-32 -20 -53.5 -43.5t-34.5 -49t-18 -52.5t-5 -53q0 -80 33.5 -127t78.5 -63q12 6 28.5 15t34.5 19.5t35 21.5t29 19l6 -8q-26 -20 -56 -39.5t-62 -42.5z" />
    <glyph glyph-name="egrave" unicode="&#xe8;" horiz-adv-x="422" 
d="M125 221q3 -38 13.5 -67t27 -50.5t38 -36t44.5 -22.5q12 6 28.5 16t34.5 20.5t34 20t26 16.5l7 -9q-50 -36 -118 -80l-68 -44q-29 4 -57 18t-50 38.5t-35.5 58t-13.5 76.5q0 88 50 160t149 111l84 34q38 -8 62 -33t24 -73q0 -17 -3.5 -34t-16.5 -40zM125 230l166 59
q8 17 11 34t3 36q0 35 -15.5 56.5t-41.5 28.5q-52 -29 -87.5 -80t-35.5 -125v-9zM198 723h92l30 -175h-12z" />
    <glyph glyph-name="eacute" unicode="&#xe9;" horiz-adv-x="422" 
d="M125 221q3 -38 13.5 -67t27 -50.5t38 -36t44.5 -22.5q12 6 28.5 16t34.5 20.5t34 20t26 16.5l7 -9q-50 -36 -118 -80l-68 -44q-29 4 -57 18t-50 38.5t-35.5 58t-13.5 76.5q0 88 50 160t149 111l84 34q38 -8 62 -33t24 -73q0 -17 -3.5 -34t-16.5 -40zM125 230l166 59
q8 17 11 34t3 36q0 35 -15.5 56.5t-41.5 28.5q-52 -29 -87.5 -80t-35.5 -125v-9zM345 723h91l-179 -175h-12z" />
    <glyph glyph-name="ecircumflex" unicode="&#xea;" horiz-adv-x="422" 
d="M125 221q3 -38 13.5 -67t27 -50.5t38 -36t44.5 -22.5q12 6 28.5 16t34.5 20.5t34 20t26 16.5l7 -9q-50 -36 -118 -80l-68 -44q-29 4 -57 18t-50 38.5t-35.5 58t-13.5 76.5q0 88 50 160t149 111l84 34q38 -8 62 -33t24 -73q0 -17 -3.5 -34t-16.5 -40zM125 230l166 59
q8 17 11 34t3 36q0 35 -15.5 56.5t-41.5 28.5q-52 -29 -87.5 -80t-35.5 -125v-9zM187 548h-12l152 184h21l85 -184h-11l-96 108h-3z" />
    <glyph glyph-name="edieresis" unicode="&#xeb;" horiz-adv-x="422" 
d="M125 221q3 -38 13.5 -67t27 -50.5t38 -36t44.5 -22.5q12 6 28.5 16t34.5 20.5t34 20t26 16.5l7 -9q-50 -36 -118 -80l-68 -44q-29 4 -57 18t-50 38.5t-35.5 58t-13.5 76.5q0 88 50 160t149 111l84 34q38 -8 62 -33t24 -73q0 -17 -3.5 -34t-16.5 -40zM125 230l166 59
q8 17 11 34t3 36q0 35 -15.5 56.5t-41.5 28.5q-52 -29 -87.5 -80t-35.5 -125v-9zM235 683l40 -5l-1 -44l-16 -39l-34 -5l-42 5l1 46l16 37zM406 683l39 -5l-1 -44l-16 -39l-34 -5l-42 5l1 46l17 37z" />
    <glyph glyph-name="igrave" unicode="&#xec;" horiz-adv-x="267" 
d="M51 16l73 416l-89 -32l-2 9l178 72l10 -8l-79 -450l96 72l5 -7l-127 -104zM104 723h92l30 -175h-12z" />
    <glyph glyph-name="iacute" unicode="&#xed;" horiz-adv-x="267" 
d="M228 723h91l-179 -175h-12zM51 16l73 416l-89 -32l-2 9l178 72l10 -8l-79 -450l96 72l5 -7l-127 -104z" />
    <glyph glyph-name="icircumflex" unicode="&#xee;" horiz-adv-x="267" 
d="M66 548h-12l152 184h21l85 -184h-11l-96 108h-3zM51 16l73 416l-89 -32l-2 9l178 72l10 -8l-79 -450l96 72l5 -7l-127 -104z" />
    <glyph glyph-name="idieresis" unicode="&#xef;" horiz-adv-x="267" 
d="M122 683l40 -5l-1 -44l-16 -39l-34 -5l-42 5l1 46l16 37zM293 683l39 -5l-1 -44l-16 -39l-34 -5l-42 5l1 46l17 37zM51 16l73 416l-89 -32l-2 9l178 72l10 -8l-79 -450l96 72l5 -7l-127 -104z" />
    <glyph glyph-name="eth" unicode="&#xf0;" horiz-adv-x="491" 
d="M474 319q0 -66 -17 -117t-45 -88.5t-64.5 -63t-75.5 -40.5l-65 -25q-45 10 -77 34t-53 56t-31 70.5t-10 76.5t10.5 75t32.5 69.5t55.5 58t78.5 40.5l62 20l102 -80q-2 62 -20.5 118.5t-56.5 100.5l-134 -62l1 11l126 59q-23 25 -52.5 44.5t-67.5 32.5l4 10q45 -14 81 -32
t66 -41l111 52l-1 -11l-102 -48q39 -32 66.5 -70t44 -79.5t24 -85t7.5 -85.5zM228 9q38 16 66 42.5t46 68.5t27 101t9 140l-13 40q-28 13 -48.5 18.5t-38.5 6.5q-34 -4 -60.5 -22.5t-45 -48t-28 -68t-9.5 -81.5q0 -45 8.5 -78t22 -56.5t30.5 -38.5t34 -24z" />
    <glyph glyph-name="ntilde" unicode="&#xf1;" horiz-adv-x="510" 
d="M138 0h-89l75 432l-88 -32l-3 9l178 72l10 -8l-18 -105l160 113q60 0 82 -28.5t13 -79.5l-62 -348l96 70l5 -7l-127 -104l-65 32l60 337q12 66 -42 66q-19 0 -39 -10t-51 -31l-32 -22zM234 689l56 19l167 -84l53 82h9l-52 -109l-56 -19l-169 86l-50 -84h-9z" />
    <glyph glyph-name="ograve" unicode="&#xf2;" horiz-adv-x="461" 
d="M242 451q-32 -14 -53.5 -41.5t-34 -62t-18 -73t-5.5 -72.5q0 -45 8.5 -78.5t23 -56t33.5 -35.5t40 -17q32 13 54 41.5t35.5 64.5t19 74.5t5.5 73.5q0 46 -8 78.5t-22.5 54t-34.5 33t-43 16.5zM287 481q31 0 59.5 -11.5t50.5 -34.5t34.5 -58t12.5 -82q0 -44 -11.5 -86
t-34 -78t-56 -65.5t-77.5 -48.5l-72 -32q-32 0 -60 12.5t-50 36.5t-34.5 59.5t-12.5 82.5q0 89 45 162t135 112zM204 723h92l30 -175h-12z" />
    <glyph glyph-name="oacute" unicode="&#xf3;" horiz-adv-x="461" 
d="M361 723h91l-179 -175h-12zM242 451q-32 -14 -53.5 -41.5t-34 -62t-18 -73t-5.5 -72.5q0 -45 8.5 -78.5t23 -56t33.5 -35.5t40 -17q32 13 54 41.5t35.5 64.5t19 74.5t5.5 73.5q0 46 -8 78.5t-22.5 54t-34.5 33t-43 16.5zM287 481q31 0 59.5 -11.5t50.5 -34.5t34.5 -58
t12.5 -82q0 -44 -11.5 -86t-34 -78t-56 -65.5t-77.5 -48.5l-72 -32q-32 0 -60 12.5t-50 36.5t-34.5 59.5t-12.5 82.5q0 89 45 162t135 112z" />
    <glyph glyph-name="ocircumflex" unicode="&#xf4;" horiz-adv-x="461" 
d="M186 548h-12l152 184h21l85 -184h-11l-96 108h-3zM242 451q-32 -14 -53.5 -41.5t-34 -62t-18 -73t-5.5 -72.5q0 -45 8.5 -78.5t23 -56t33.5 -35.5t40 -17q32 13 54 41.5t35.5 64.5t19 74.5t5.5 73.5q0 46 -8 78.5t-22.5 54t-34.5 33t-43 16.5zM287 481q31 0 59.5 -11.5
t50.5 -34.5t34.5 -58t12.5 -82q0 -44 -11.5 -86t-34 -78t-56 -65.5t-77.5 -48.5l-72 -32q-32 0 -60 12.5t-50 36.5t-34.5 59.5t-12.5 82.5q0 89 45 162t135 112z" />
    <glyph glyph-name="otilde" unicode="&#xf5;" horiz-adv-x="461" 
d="M242 451q-32 -14 -53.5 -41.5t-34 -62t-18 -73t-5.5 -72.5q0 -45 8.5 -78.5t23 -56t33.5 -35.5t40 -17q32 13 54 41.5t35.5 64.5t19 74.5t5.5 73.5q0 46 -8 78.5t-22.5 54t-34.5 33t-43 16.5zM287 481q31 0 59.5 -11.5t50.5 -34.5t34.5 -58t12.5 -82q0 -44 -11.5 -86
t-34 -78t-56 -65.5t-77.5 -48.5l-72 -32q-32 0 -60 12.5t-50 36.5t-34.5 59.5t-12.5 82.5q0 89 45 162t135 112zM222 689l56 19l167 -84l53 82h9l-52 -109l-56 -19l-169 86l-50 -84h-9z" />
    <glyph glyph-name="odieresis" unicode="&#xf6;" horiz-adv-x="461" 
d="M262 683l40 -5l-1 -44l-16 -39l-34 -5l-42 5l1 46l16 37zM433 683l39 -5l-1 -44l-16 -39l-34 -5l-42 5l1 46l17 37zM242 451q-32 -14 -53.5 -41.5t-34 -62t-18 -73t-5.5 -72.5q0 -45 8.5 -78.5t23 -56t33.5 -35.5t40 -17q32 13 54 41.5t35.5 64.5t19 74.5t5.5 73.5
q0 46 -8 78.5t-22.5 54t-34.5 33t-43 16.5zM287 481q31 0 59.5 -11.5t50.5 -34.5t34.5 -58t12.5 -82q0 -44 -11.5 -86t-34 -78t-56 -65.5t-77.5 -48.5l-72 -32q-32 0 -60 12.5t-50 36.5t-34.5 59.5t-12.5 82.5q0 89 45 162t135 112z" />
    <glyph glyph-name="divide" unicode="&#xf7;" 
d="M331 115l24 -5l5 -46l-7 -41l-62 -5l-23 5l-5 48l6 39zM47 261h525v-23h-525v23zM331 477l24 -5l5 -46l-7 -41l-62 -5l-23 5l-5 48l6 39z" />
    <glyph glyph-name="oslash" unicode="&#xf8;" horiz-adv-x="461" 
d="M287 481q35 0 66.5 -15t54.5 -45l58 62h11l-64 -69q14 -22 22.5 -51.5t8.5 -67.5q0 -44 -11.5 -86t-34 -78t-56 -65.5t-77.5 -48.5l-72 -32q-36 0 -67.5 15.5t-54.5 47.5l-57 -62h-12l65 69q-31 48 -31 121q0 89 45 162t135 112zM350 269q0 20 -2 38t-5 33l-203 -219
q12 -49 38 -74t58 -32q32 13 54 41.5t35.5 64.5t19 74.5t5.5 73.5zM242 451q-32 -14 -53.5 -41.5t-34 -62t-18 -73t-5.5 -72.5q0 -40 6 -71l204 219q-12 48 -38 70.5t-61 30.5z" />
    <glyph glyph-name="ugrave" unicode="&#xf9;" horiz-adv-x="506" 
d="M487 91l6 -6l-137 -101l-60 32l15 84l-157 -115q-60 0 -82 27.5t-13 79.5l62 344l-89 -29l-3 8l178 66l10 -8l-66 -368q-6 -32 5 -45t30 -13q20 0 39.5 9t54.5 34l33 23l62 353h90l-77 -441zM225 723h92l30 -175h-12z" />
    <glyph glyph-name="uacute" unicode="&#xfa;" horiz-adv-x="506" 
d="M353 723h91l-179 -175h-12zM487 91l6 -6l-137 -101l-60 32l15 84l-157 -115q-60 0 -82 27.5t-13 79.5l62 344l-89 -29l-3 8l178 66l10 -8l-66 -368q-6 -32 5 -45t30 -13q20 0 39.5 9t54.5 34l33 23l62 353h90l-77 -441z" />
    <glyph glyph-name="ucircumflex" unicode="&#xfb;" horiz-adv-x="506" 
d="M201 548h-12l152 184h21l85 -184h-11l-96 108h-3zM487 91l6 -6l-137 -101l-60 32l15 84l-157 -115q-60 0 -82 27.5t-13 79.5l62 344l-89 -29l-3 8l178 66l10 -8l-66 -368q-6 -32 5 -45t30 -13q20 0 39.5 9t54.5 34l33 23l62 353h90l-77 -441z" />
    <glyph glyph-name="udieresis" unicode="&#xfc;" horiz-adv-x="506" 
d="M268 683l40 -5l-1 -44l-16 -39l-34 -5l-42 5l1 46l16 37zM439 683l39 -5l-1 -44l-16 -39l-34 -5l-42 5l1 46l17 37zM487 91l6 -6l-137 -101l-60 32l15 84l-157 -115q-60 0 -82 27.5t-13 79.5l62 344l-89 -29l-3 8l178 66l10 -8l-66 -368q-6 -32 5 -45t30 -13q20 0 39.5 9
t54.5 34l33 23l62 353h90l-77 -441z" />
    <glyph glyph-name="yacute" unicode="&#xfd;" horiz-adv-x="443" 
d="M-4 401l-4 9l174 73l13 -8l58 -441l170 316l-79 85l77 46l33 -33l-9 -98l-178 -332l-153 -254l-100 1l20 91h105l109 168l-84 -20l-60 431zM351 723h91l-179 -175h-12z" />
    <glyph glyph-name="thorn" unicode="&#xfe;" horiz-adv-x="482" 
d="M78 650l-2 9l178 57l13 -10l-60 -338l140 113q50 -7 83.5 -49.5t33.5 -120.5q0 -42 -11 -83.5t-32 -78.5t-52.5 -67t-72.5 -51l-94 -46q-14 2 -31 10t-27 13l-42 -238h-89l159 905zM204 353l-50 -289q21 -22 49 -31.5t46 -10.5q37 18 61 45t37 59.5t18 67t5 67.5
q0 64 -23 103t-62 53z" />
    <glyph glyph-name="ydieresis" unicode="&#xff;" horiz-adv-x="443" 
d="M-4 401l-4 9l174 73l13 -8l58 -441l170 316l-79 85l77 46l33 -33l-9 -98l-178 -332l-153 -254l-100 1l20 91h105l109 168l-84 -20l-60 431zM256 683l40 -5l-1 -44l-16 -39l-34 -5l-42 5l1 46l16 37zM427 683l39 -5l-1 -44l-16 -39l-34 -5l-42 5l1 46l17 37z" />
    <glyph glyph-name="Amacron" unicode="&#x100;" horiz-adv-x="677" 
d="M446 248h-238l-128 -232l84 -6l-1 -10h-189l1 10l78 6l374 669l83 25l61 -694l76 -6l-1 -10h-269l1 10l85 6zM216 263h229l-27 365zM353 841h285l-6 -35h-285z" />
    <glyph glyph-name="amacron" unicode="&#x101;" horiz-adv-x="471" 
d="M123 209q0 -47 14.5 -85.5t52.5 -67.5l102 88l46 262q-21 14 -47.5 23t-48.5 9q-60 -36 -89.5 -97t-29.5 -132zM360 25l96 70l5 -7l-126 -104l-66 32l21 115l-157 -146q-48 23 -74 64t-26 106q0 46 15 89t42 80.5t64.5 68t83.5 52.5l75 36q12 0 28 -3t32.5 -8t32.5 -12
t28 -14zM223 658h285l-6 -35h-285z" />
    <glyph glyph-name="Abreve" unicode="&#x102;" horiz-adv-x="677" 
d="M446 248h-238l-128 -232l84 -6l-1 -10h-189l1 10l78 6l374 669l83 25l61 -694l76 -6l-1 -10h-269l1 10l85 6zM216 263h229l-27 365zM482 812q25 0 47 8.5t40 21.5t31.5 27t21.5 26l7 -6q-20 -38 -52 -70.5t-94 -61.5q-30 0 -52.5 12t-38.5 30.5t-27 41.5t-17 45l9 6
q6 -11 17 -25t26.5 -26t35.5 -20.5t46 -8.5z" />
    <glyph glyph-name="abreve" unicode="&#x103;" horiz-adv-x="471" 
d="M123 209q0 -47 14.5 -85.5t52.5 -67.5l102 88l46 262q-21 14 -47.5 23t-48.5 9q-60 -36 -89.5 -97t-29.5 -132zM360 25l96 70l5 -7l-126 -104l-66 32l21 115l-157 -146q-48 23 -74 64t-26 106q0 46 15 89t42 80.5t64.5 68t83.5 52.5l75 36q12 0 28 -3t32.5 -8t32.5 -12
t28 -14zM354 611q24 0 45.5 9t38.5 22t30.5 28t21.5 27l7 -6q-10 -20 -22 -38t-28.5 -35t-39 -32.5t-52.5 -30.5q-29 0 -51 12.5t-38 31.5t-26.5 42.5t-16.5 46.5l10 6q6 -12 16.5 -26t25.5 -27t34.5 -21.5t44.5 -8.5z" />
    <glyph glyph-name="Aogonek" unicode="&#x104;" horiz-adv-x="677" 
d="M488 -243q-95 0 -130 25.5t-26 75.5l8 44l124 114l-18 232h-238l-128 -232l84 -6l-1 -10h-189l1 10l78 6l374 669l83 25l61 -694l76 -6l-1 -10h-181l-71 -121l-8 -45q-12 -69 103 -69zM216 263h229l-27 365z" />
    <glyph glyph-name="aogonek" unicode="&#x105;" horiz-adv-x="471" 
d="M378 -243q-95 0 -130 25.5t-26 75.5l8 44l97 87l-58 27l21 115l-157 -146q-48 23 -74 64t-26 106q0 46 15 89t42 80.5t64.5 68t83.5 52.5l75 36q12 0 28 -3t32.5 -8t32.5 -12t28 -14l-74 -419l96 70l5 -7l-95 -79l-82 -130l-8 -45q-12 -69 103 -69zM338 406
q-21 14 -47.5 23t-48.5 9q-60 -36 -89.5 -97t-29.5 -132q0 -47 14.5 -85.5t52.5 -67.5l102 88z" />
    <glyph glyph-name="Cacute" unicode="&#x106;" horiz-adv-x="604" 
d="M479 902h89l-124 -145h-12zM374 687q-50 -19 -89 -54t-66 -81.5t-41 -102.5t-14 -119q0 -140 55.5 -219t147.5 -99q15 6 33 14t35 16.5t31.5 16.5t22.5 14l86 145h11l-33 -166l-222 -70q-62 0 -113.5 22t-88.5 61.5t-58 94.5t-21 121q0 60 16.5 120.5t52 115t90 99
t129.5 71.5l91 31q63 0 107.5 -16t72.5 -33l-9 -176h-11l-45 136q-28 20 -69 36.5t-101 21.5z" />
    <glyph glyph-name="cacute" unicode="&#x107;" horiz-adv-x="410" 
d="M343 723h91l-179 -175h-12zM194 -15q-27 1 -55 13.5t-51 36.5t-37.5 59t-14.5 80q0 92 51.5 156t152.5 112l79 39q19 -2 44.5 -13t45.5 -24l-47 -71q-29 20 -59 34t-61 26q-32 -20 -53.5 -43.5t-34.5 -49t-18 -52.5t-5 -53q0 -80 33.5 -127t78.5 -63q12 6 28.5 15
t34.5 19.5t35 21.5t29 19l6 -8q-26 -20 -56 -39.5t-62 -42.5z" />
    <glyph glyph-name="Ccircumflex" unicode="&#x108;" horiz-adv-x="604" 
d="M328 757h-13l156 155h23l91 -155h-13l-99 91h-4zM374 687q-50 -19 -89 -54t-66 -81.5t-41 -102.5t-14 -119q0 -140 55.5 -219t147.5 -99q15 6 33 14t35 16.5t31.5 16.5t22.5 14l86 145h11l-33 -166l-222 -70q-62 0 -113.5 22t-88.5 61.5t-58 94.5t-21 121
q0 60 16.5 120.5t52 115t90 99t129.5 71.5l91 31q63 0 107.5 -16t72.5 -33l-9 -176h-11l-45 136q-28 20 -69 36.5t-101 21.5z" />
    <glyph glyph-name="ccircumflex" unicode="&#x109;" horiz-adv-x="410" 
d="M187 548h-12l152 184h21l85 -184h-11l-96 108h-3zM194 -15q-27 1 -55 13.5t-51 36.5t-37.5 59t-14.5 80q0 92 51.5 156t152.5 112l79 39q19 -2 44.5 -13t45.5 -24l-47 -71q-29 20 -59 34t-61 26q-32 -20 -53.5 -43.5t-34.5 -49t-18 -52.5t-5 -53q0 -80 33.5 -127
t78.5 -63q12 6 28.5 15t34.5 19.5t35 21.5t29 19l6 -8q-26 -20 -56 -39.5t-62 -42.5z" />
    <glyph glyph-name="Cdotaccent" unicode="&#x10a;" horiz-adv-x="604" 
d="M430 874l37 4l50 -5l-2 -50l-17 -43l-35 -4l-55 4l4 51zM374 687q-50 -19 -89 -54t-66 -81.5t-41 -102.5t-14 -119q0 -140 55.5 -219t147.5 -99q15 6 33 14t35 16.5t31.5 16.5t22.5 14l86 145h11l-33 -166l-222 -70q-62 0 -113.5 22t-88.5 61.5t-58 94.5t-21 121
q0 60 16.5 120.5t52 115t90 99t129.5 71.5l91 31q63 0 107.5 -16t72.5 -33l-9 -176h-11l-45 136q-28 20 -69 36.5t-101 21.5z" />
    <glyph glyph-name="cdotaccent" unicode="&#x10b;" horiz-adv-x="410" 
d="M194 -15q-27 1 -55 13.5t-51 36.5t-37.5 59t-14.5 80q0 92 51.5 156t152.5 112l79 39q19 -2 44.5 -13t45.5 -24l-47 -71q-29 20 -59 34t-61 26q-32 -20 -53.5 -43.5t-34.5 -49t-18 -52.5t-5 -53q0 -80 33.5 -127t78.5 -63q12 6 28.5 15t34.5 19.5t35 21.5t29 19l6 -8
q-26 -20 -56 -39.5t-62 -42.5zM301 698l37 4l49 -4l-1 -50l-17 -43l-35 -5l-55 5l4 50z" />
    <glyph glyph-name="Ccaron" unicode="&#x10c;" horiz-adv-x="604" 
d="M443 821l141 91h13l-157 -155h-23l-90 155h12l100 -91h4zM374 687q-50 -19 -89 -54t-66 -81.5t-41 -102.5t-14 -119q0 -140 55.5 -219t147.5 -99q15 6 33 14t35 16.5t31.5 16.5t22.5 14l86 145h11l-33 -166l-222 -70q-62 0 -113.5 22t-88.5 61.5t-58 94.5t-21 121
q0 60 16.5 120.5t52 115t90 99t129.5 71.5l91 31q63 0 107.5 -16t72.5 -33l-9 -176h-11l-45 136q-28 20 -69 36.5t-101 21.5z" />
    <glyph glyph-name="ccaron" unicode="&#x10d;" horiz-adv-x="410" 
d="M316 624l137 108h11l-152 -184h-20l-88 184h12l97 -108h3zM194 -15q-27 1 -55 13.5t-51 36.5t-37.5 59t-14.5 80q0 92 51.5 156t152.5 112l79 39q19 -2 44.5 -13t45.5 -24l-47 -71q-29 20 -59 34t-61 26q-32 -20 -53.5 -43.5t-34.5 -49t-18 -52.5t-5 -53q0 -80 33.5 -127
t78.5 -63q12 6 28.5 15t34.5 19.5t35 21.5t29 19l6 -8q-26 -20 -56 -39.5t-62 -42.5z" />
    <glyph glyph-name="Dcaron" unicode="&#x10e;" horiz-adv-x="650" 
d="M388 821l141 91h13l-156 -155h-23l-91 155h13l99 -91h4zM-6 0v10l77 6l101 668l-73 6v10h265q60 0 111.5 -21t88.5 -58t58.5 -88t21.5 -111q0 -63 -16.5 -124t-49.5 -113t-84 -92.5t-120 -62.5l-92 -30h-288zM314 23q50 26 90 67.5t67.5 93.5t43 112.5t15.5 125.5
q0 62 -13.5 111t-38 82.5t-58 51.5t-73.5 18h-73l-100 -662h140z" />
    <glyph glyph-name="dcaron" unicode="&#x10f;" horiz-adv-x="619" 
d="M496 477l88 151l-53 43l8 37h110l-11 -73l-134 -160zM278 16l20 115l-152 -146q-46 21 -78 68t-32 111q0 46 14.5 88.5t41.5 79t64.5 65.5t82.5 49l81 35q8 0 18 -3.5t20 -7.5l36 205l-93 -25l-3 9l178 57l13 -10l-120 -681l95 70l6 -7l-126 -104zM300 144l47 263
q-23 14 -51.5 23.5t-50.5 10.5q-57 -35 -85.5 -94.5t-28.5 -131.5q0 -48 17 -86.5t58 -69.5z" />
    <glyph glyph-name="Dcroat" unicode="&#x110;" horiz-adv-x="650" 
d="M-6 0v10l77 6l52 346h-81l2 10h81l47 312l-73 6v10h265q60 0 111.5 -21t88.5 -58t58.5 -88t21.5 -111q0 -63 -16.5 -124t-49.5 -113t-84 -92.5t-120 -62.5l-92 -30h-288zM314 23q50 26 90 67.5t67.5 93.5t43 112.5t15.5 125.5q0 62 -13.5 111t-38 82.5t-58 51.5t-73.5 18
h-73l-48 -313h127l-2 -10h-126l-51 -339h140z" />
    <glyph glyph-name="dcroat" unicode="&#x111;" horiz-adv-x="496" 
d="M278 16l20 115l-152 -146q-46 21 -78 68t-32 111q0 46 14.5 88.5t41.5 79t64.5 65.5t82.5 49l81 35q8 0 18 -3.5t20 -7.5l16 90h-136l2 10h135l19 105l-93 -25l-3 9l178 57l13 -10l-24 -136h85l-2 -10h-85l-94 -535l95 70l6 -7l-126 -104zM300 144l47 263
q-23 14 -51.5 23.5t-50.5 10.5q-57 -35 -85.5 -94.5t-28.5 -131.5q0 -48 17 -86.5t58 -69.5z" />
    <glyph glyph-name="Emacron" unicode="&#x112;" horiz-adv-x="563" 
d="M253 841h285l-6 -35h-285zM-6 10l77 6l101 668l-73 6v10h494l-29 -182h-10l-41 168h-239l-47 -313h124l65 119h9l-40 -250h-9l-28 118h-123l-52 -346h248l93 173h10l-30 -187h-500v10z" />
    <glyph glyph-name="emacron" unicode="&#x113;" horiz-adv-x="422" 
d="M125 221q3 -38 13.5 -67t27 -50.5t38 -36t44.5 -22.5q12 6 28.5 16t34.5 20.5t34 20t26 16.5l7 -9q-50 -36 -118 -80l-68 -44q-29 4 -57 18t-50 38.5t-35.5 58t-13.5 76.5q0 88 50 160t149 111l84 34q38 -8 62 -33t24 -73q0 -17 -3.5 -34t-16.5 -40zM125 230l166 59
q8 17 11 34t3 36q0 35 -15.5 56.5t-41.5 28.5q-52 -29 -87.5 -80t-35.5 -125v-9zM180 658h285l-6 -35h-285z" />
    <glyph glyph-name="Ebreve" unicode="&#x114;" horiz-adv-x="563" 
d="M391 812q25 0 47 8.5t40 21.5t31.5 27t21.5 26l7 -6q-20 -38 -52 -70.5t-93 -61.5q-30 0 -52.5 12t-39 30.5t-27 41.5t-17.5 45l10 6q6 -11 16.5 -25t26 -26t36 -20.5t45.5 -8.5zM-6 10l77 6l101 668l-73 6v10h494l-29 -182h-10l-41 168h-239l-47 -313h124l65 119h9
l-40 -250h-9l-28 118h-123l-52 -346h248l93 173h10l-30 -187h-500v10z" />
    <glyph glyph-name="ebreve" unicode="&#x115;" horiz-adv-x="422" 
d="M125 221q3 -38 13.5 -67t27 -50.5t38 -36t44.5 -22.5q12 6 28.5 16t34.5 20.5t34 20t26 16.5l7 -9q-50 -36 -118 -80l-68 -44q-29 4 -57 18t-50 38.5t-35.5 58t-13.5 76.5q0 88 50 160t149 111l84 34q38 -8 62 -33t24 -73q0 -17 -3.5 -34t-16.5 -40zM125 230l166 59
q8 17 11 34t3 36q0 35 -15.5 56.5t-41.5 28.5q-52 -29 -87.5 -80t-35.5 -125v-9zM308 611q24 0 45.5 9t38.5 22t30.5 28t21.5 27l7 -6q-10 -20 -22 -38t-28.5 -35t-39 -32.5t-52.5 -30.5q-29 0 -51 12.5t-38 31.5t-26.5 42.5t-16.5 46.5l10 6q6 -12 16.5 -26t25.5 -27
t34.5 -21.5t44.5 -8.5z" />
    <glyph glyph-name="Edotaccent" unicode="&#x116;" horiz-adv-x="563" 
d="M368 871l38 4l49 -4l-1 -50l-18 -43l-34 -5l-55 5l4 50zM-6 10l77 6l101 668l-73 6v10h494l-29 -182h-10l-41 168h-239l-47 -313h124l65 119h9l-40 -250h-9l-28 118h-123l-52 -346h248l93 173h10l-30 -187h-500v10z" />
    <glyph glyph-name="edotaccent" unicode="&#x117;" horiz-adv-x="422" 
d="M125 221q3 -38 13.5 -67t27 -50.5t38 -36t44.5 -22.5q12 6 28.5 16t34.5 20.5t34 20t26 16.5l7 -9q-50 -36 -118 -80l-68 -44q-29 4 -57 18t-50 38.5t-35.5 58t-13.5 76.5q0 88 50 160t149 111l84 34q38 -8 62 -33t24 -73q0 -17 -3.5 -34t-16.5 -40zM125 230l166 59
q8 17 11 34t3 36q0 35 -15.5 56.5t-41.5 28.5q-52 -29 -87.5 -80t-35.5 -125v-9zM279 698l37 4l49 -4l-1 -50l-17 -43l-35 -5l-55 5l4 50z" />
    <glyph glyph-name="Eogonek" unicode="&#x118;" horiz-adv-x="563" 
d="M-6 10l77 6l101 668l-73 6v10h494l-29 -182h-10l-41 168h-239l-47 -313h124l65 119h9l-40 -250h-9l-28 118h-123l-52 -346h248l93 173h10l-30 -187h-54l-76 -121l-9 -45q-11 -69 104 -69l-1 -8q-95 0 -130 25.5t-26 75.5l8 44l111 98h-427v10z" />
    <glyph glyph-name="eogonek" unicode="&#x119;" horiz-adv-x="422" 
d="M253 -243q-95 0 -129.5 25t-25.5 76l7 44l87 83q-29 4 -57 18t-50 38.5t-35.5 58t-13.5 76.5q0 88 50 160t149 111l84 34q38 -8 62 -33t24 -73q0 -17 -3.5 -34t-16.5 -40l-257 -79q2 -40 12.5 -70t27 -51t37.5 -34.5t43 -21.5q12 6 28.5 16t34.5 20.5t34 20t26 16.5l7 -9
q-50 -36 -118 -80l-19 -13l-82 -137l-8 -45q-12 -69 104 -69zM248 444q-51 -29 -86 -78.5t-37 -121.5q0 -3 0.5 -6t1.5 -7l164 58q8 17 11 34t3 36q0 35 -15.5 56.5t-41.5 28.5z" />
    <glyph glyph-name="Ecaron" unicode="&#x11a;" horiz-adv-x="563" 
d="M389 821l141 91h13l-157 -155h-23l-90 155h12l100 -91h4zM-6 10l77 6l101 668l-73 6v10h494l-29 -182h-10l-41 168h-239l-47 -313h124l65 119h9l-40 -250h-9l-28 118h-123l-52 -346h248l93 173h10l-30 -187h-500v10z" />
    <glyph glyph-name="ecaron" unicode="&#x11b;" horiz-adv-x="422" 
d="M125 221q3 -38 13.5 -67t27 -50.5t38 -36t44.5 -22.5q12 6 28.5 16t34.5 20.5t34 20t26 16.5l7 -9q-50 -36 -118 -80l-68 -44q-29 4 -57 18t-50 38.5t-35.5 58t-13.5 76.5q0 88 50 160t149 111l84 34q38 -8 62 -33t24 -73q0 -17 -3.5 -34t-16.5 -40zM125 230l166 59
q8 17 11 34t3 36q0 35 -15.5 56.5t-41.5 28.5q-52 -29 -87.5 -80t-35.5 -125v-9zM306 624l137 108h11l-152 -184h-20l-88 184h12l97 -108h3z" />
    <glyph glyph-name="Gcircumflex" unicode="&#x11c;" horiz-adv-x="641" 
d="M328 757h-12l156 155h23l91 -155h-13l-100 91h-4zM313 -18q-59 0 -107.5 23.5t-83 64.5t-53.5 95t-19 116t17 124t52.5 116.5t91 98.5t132.5 69l95 29q66 0 113 -20.5t75 -41.5l-17 -164h-10l-37 119q-29 26 -74 48.5t-117 27.5q-46 -21 -84 -55.5t-65.5 -80t-42.5 -101
t-15 -118.5q0 -73 14.5 -128.5t40.5 -95t63 -64t82 -35.5q14 5 29.5 11.5t29.5 13.5t25 13t17 10l36 242l-72 7v10h225v-10l-52 -7l-37 -246z" />
    <glyph glyph-name="gcircumflex" unicode="&#x11d;" horiz-adv-x="468" 
d="M211 548h-12l152 184h21l85 -184h-11l-96 108h-3zM9 -235l15 84h187q10 10 20 25.5t19 34t16.5 39t10.5 40.5l26 142l-152 -144q-49 26 -80 69t-31 106q0 46 15 88.5t42.5 79t66.5 66t87 50.5l81 36q25 -2 58.5 -11.5t57.5 -23.5l-80 -450q-7 -35 -49 -75t-99 -79
l-112 -77h-99zM134 217q0 -49 18.5 -89t56.5 -69l96 85l46 261q-21 14 -49 23t-49 10q-60 -36 -89.5 -94t-29.5 -127z" />
    <glyph glyph-name="Gbreve" unicode="&#x11e;" horiz-adv-x="641" 
d="M445 812q25 0 47 8.5t39.5 21.5t31 27t21.5 26l7 -6q-20 -38 -51.5 -70.5t-93.5 -61.5q-30 0 -52.5 12t-39 30.5t-27 41.5t-16.5 45l9 6q6 -11 17 -25t26.5 -26t35.5 -20.5t46 -8.5zM313 -18q-59 0 -107.5 23.5t-83 64.5t-53.5 95t-19 116t17 124t52.5 116.5t91 98.5
t132.5 69l95 29q66 0 113 -20.5t75 -41.5l-17 -164h-10l-37 119q-29 26 -74 48.5t-117 27.5q-46 -21 -84 -55.5t-65.5 -80t-42.5 -101t-15 -118.5q0 -73 14.5 -128.5t40.5 -95t63 -64t82 -35.5q14 5 29.5 11.5t29.5 13.5t25 13t17 10l36 242l-72 7v10h225v-10l-52 -7
l-37 -246z" />
    <glyph glyph-name="gbreve" unicode="&#x11f;" horiz-adv-x="468" 
d="M9 -235l15 84h187q10 10 20 25.5t19 34t16.5 39t10.5 40.5l26 142l-152 -144q-49 26 -80 69t-31 106q0 46 15 88.5t42.5 79t66.5 66t87 50.5l81 36q25 -2 58.5 -11.5t57.5 -23.5l-80 -450q-7 -35 -49 -75t-99 -79l-112 -77h-99zM134 217q0 -49 18.5 -89t56.5 -69l96 85
l46 261q-21 14 -49 23t-49 10q-60 -36 -89.5 -94t-29.5 -127zM324 611q24 0 45.5 9t38.5 22t30.5 28t21.5 27l7 -6q-10 -20 -22 -38t-28.5 -35t-39 -32.5t-52.5 -30.5q-29 0 -51 12.5t-38 31.5t-26.5 42.5t-16.5 46.5l10 6q6 -12 16.5 -26t25.5 -27t34.5 -21.5t44.5 -8.5z
" />
    <glyph glyph-name="Gdotaccent" unicode="&#x120;" horiz-adv-x="641" 
d="M419 874l37 4l50 -5l-1 -50l-18 -43l-34 -4l-55 4l3 51zM313 -18q-59 0 -107.5 23.5t-83 64.5t-53.5 95t-19 116t17 124t52.5 116.5t91 98.5t132.5 69l95 29q66 0 113 -20.5t75 -41.5l-17 -164h-10l-37 119q-29 26 -74 48.5t-117 27.5q-46 -21 -84 -55.5t-65.5 -80
t-42.5 -101t-15 -118.5q0 -73 14.5 -128.5t40.5 -95t63 -64t82 -35.5q14 5 29.5 11.5t29.5 13.5t25 13t17 10l36 242l-72 7v10h225v-10l-52 -7l-37 -246z" />
    <glyph glyph-name="gdotaccent" unicode="&#x121;" horiz-adv-x="468" 
d="M9 -235l15 84h187q10 10 20 25.5t19 34t16.5 39t10.5 40.5l26 142l-152 -144q-49 26 -80 69t-31 106q0 46 15 88.5t42.5 79t66.5 66t87 50.5l81 36q25 -2 58.5 -11.5t57.5 -23.5l-80 -450q-7 -35 -49 -75t-99 -79l-112 -77h-99zM134 217q0 -49 18.5 -89t56.5 -69l96 85
l46 261q-21 14 -49 23t-49 10q-60 -36 -89.5 -94t-29.5 -127zM305 698l37 4l49 -4l-1 -50l-17 -43l-35 -5l-55 5l4 50z" />
    <glyph glyph-name="Gcommaaccent" unicode="&#x122;" horiz-adv-x="641" 
d="M291 -129l-34 30l7 44h95l-13 -73l-114 -110l-9 2zM313 -18q-59 0 -107.5 23.5t-83 64.5t-53.5 95t-19 116t17 124t52.5 116.5t91 98.5t132.5 69l95 29q66 0 113 -20.5t75 -41.5l-17 -164h-10l-37 119q-29 26 -74 48.5t-117 27.5q-46 -21 -84 -55.5t-65.5 -80t-42.5 -101
t-15 -118.5q0 -73 14.5 -128.5t40.5 -95t63 -64t82 -35.5q14 5 29.5 11.5t29.5 13.5t25 13t17 10l36 242l-72 7v10h225v-10l-52 -7l-37 -246z" />
    <glyph glyph-name="gcommaaccent" unicode="&#x123;" horiz-adv-x="468" 
d="M336 626l33 -32l-8 -45h-95l14 75l115 115l9 -3zM9 -235l15 84h187q10 10 20 25.5t19 34t16.5 39t10.5 40.5l26 142l-152 -144q-49 26 -80 69t-31 106q0 46 15 88.5t42.5 79t66.5 66t87 50.5l81 36q25 -2 58.5 -11.5t57.5 -23.5l-80 -450q-7 -35 -49 -75t-99 -79
l-112 -77h-99zM134 217q0 -49 18.5 -89t56.5 -69l96 85l46 261q-21 14 -49 23t-49 10q-60 -36 -89.5 -94t-29.5 -127z" />
    <glyph glyph-name="Hcircumflex" unicode="&#x124;" horiz-adv-x="679" 
d="M726 690l-74 -6l-100 -668l76 -6v-10h-256v10l78 6l51 340h-276l-51 -340l76 -6v-10h-256v10l78 6l100 668l-73 6v10h249v-10l-74 -6l-47 -313h276l47 313l-73 6v10h249v-10zM313 757h-12l156 155h23l90 -155h-12l-100 91h-4z" />
    <glyph glyph-name="hcircumflex" unicode="&#x125;" horiz-adv-x="499" 
d="M92 749h-12l154 173h23l90 -173h-12l-100 102h-4zM127 0h-89l118 675l-93 -25l-2 9l178 57l13 -10l-60 -339l161 114q59 0 81.5 -28.5t13.5 -79.5l-62 -348l95 70l6 -7l-127 -104l-66 32l61 337q11 66 -42 66q-19 0 -39 -10t-52 -31l-32 -23z" />
    <glyph glyph-name="Hbar" unicode="&#x126;" horiz-adv-x="679" 
d="M726 690l-74 -6l-100 -668l76 -6v-10h-256v10l78 6l51 340h-276l-51 -340l76 -6v-10h-256v10l78 6l100 668l-73 6v10h249v-10l-74 -6l-23 -152h276l23 152l-73 6v10h249v-10zM227 371h276l22 151h-276z" />
    <glyph glyph-name="hbar" unicode="&#x127;" horiz-adv-x="499" 
d="M127 0h-89l98 560h-84l2 10h83l19 105l-93 -25l-2 9l178 57l13 -10l-24 -136h136l-2 -10h-136l-34 -193l161 114q59 0 81.5 -28.5t13.5 -79.5l-62 -348l95 70l6 -7l-127 -104l-66 32l61 337q11 66 -42 66q-19 0 -39 -10t-52 -31l-32 -23z" />
    <glyph glyph-name="Itilde" unicode="&#x128;" horiz-adv-x="301" 
d="M144 877l56 19l168 -83l53 82h8l-51 -109l-57 -19l-168 85l-50 -83h-9zM348 690l-74 -6l-100 -668l76 -6v-10h-256v10l78 6l100 668l-73 6v10h249v-10z" />
    <glyph glyph-name="itilde" unicode="&#x129;" horiz-adv-x="267" 
d="M51 16l73 416l-89 -32l-2 9l178 72l10 -8l-79 -450l96 72l5 -7l-127 -104zM81 689l56 19l167 -84l53 82h9l-52 -109l-56 -19l-169 86l-50 -84h-9z" />
    <glyph glyph-name="Imacron" unicode="&#x12a;" horiz-adv-x="301" 
d="M108 841h285l-6 -35h-285zM348 690l-74 -6l-100 -668l76 -6v-10h-256v10l78 6l100 668l-73 6v10h249v-10z" />
    <glyph glyph-name="imacron" unicode="&#x12b;" horiz-adv-x="267" 
d="M51 16l73 416l-89 -32l-2 9l178 72l10 -8l-79 -450l96 72l5 -7l-127 -104zM60 658h285l-6 -35h-285z" />
    <glyph glyph-name="Ibreve" unicode="&#x12c;" horiz-adv-x="301" 
d="M250 812q25 0 47 8.5t39.5 21.5t31 27t21.5 26l7 -6q-20 -38 -51.5 -70.5t-93.5 -61.5q-30 0 -52.5 12t-39 30.5t-27 41.5t-16.5 45l9 6q6 -11 17 -25t26.5 -26t35.5 -20.5t46 -8.5zM348 690l-74 -6l-100 -668l76 -6v-10h-256v10l78 6l100 668l-73 6v10h249v-10z" />
    <glyph glyph-name="ibreve" unicode="&#x12d;" horiz-adv-x="267" 
d="M51 16l73 416l-89 -32l-2 9l178 72l10 -8l-79 -450l96 72l5 -7l-127 -104zM196 611q24 0 45.5 9t38.5 22t30.5 28t21.5 27l7 -6q-10 -20 -22 -38t-28.5 -35t-39 -32.5t-52.5 -30.5q-29 0 -51 12.5t-38 31.5t-26.5 42.5t-16.5 46.5l10 6q6 -12 16.5 -26t25.5 -27
t34.5 -21.5t44.5 -8.5z" />
    <glyph glyph-name="Iogonek" unicode="&#x12e;" horiz-adv-x="301" 
d="M348 690l-74 -6l-100 -668l76 -6v-10h-103l-76 -121l-9 -45q-11 -69 104 -69l-1 -8q-95 0 -130 25.5t-26 75.5l8 44l111 98h-134v10l78 6l100 668l-73 6v10h249v-10z" />
    <glyph glyph-name="iogonek" unicode="&#x12f;" horiz-adv-x="267" 
d="M124 432l-89 -32l-2 9l178 72l10 -8l-79 -450l96 72l5 -7l-93 -76l-84 -133l-9 -45q-11 -69 104 -69l-1 -8q-95 0 -130 25.5t-26 75.5l8 44l97 86l-58 28zM173 689l31 6l56 -6v-51l-19 -42l-28 -6l-62 6l4 50z" />
    <glyph glyph-name="Idotaccent" unicode="&#x130;" horiz-adv-x="301" 
d="M218 871l38 4l49 -4l-1 -50l-18 -43l-34 -5l-55 5l4 50zM348 690l-74 -6l-100 -668l76 -6v-10h-256v10l78 6l100 668l-73 6v10h249v-10z" />
    <glyph glyph-name="dotlessi" unicode="&#x131;" horiz-adv-x="267" 
d="M51 16l73 416l-89 -32l-2 9l178 72l10 -8l-79 -450l96 72l5 -7l-127 -104z" />
    <glyph glyph-name="IJ" unicode="&#x132;" horiz-adv-x="586" 
d="M348 690l-74 -6l-100 -668l76 -6v-10h-256v10l78 6l100 668l-73 6v10h249v-10zM466 684l-73 6v10h250v-10l-75 -6l-87 -587q-5 -34 -17 -62t-27.5 -50.5t-33 -40.5t-33.5 -33l-108 -85h-54l17 90h113q25 76 36 152z" />
    <glyph glyph-name="ij" unicode="&#x133;" horiz-adv-x="498" 
d="M124 432l-89 -32l-2 9l178 72l10 -8l-79 -450l96 72l5 -7l-127 -104l-65 32zM173 689l31 6l56 -6v-51l-19 -42l-28 -6l-62 6l4 50zM414 689l30 6l57 -6v-51l-19 -42l-28 -6l-62 6l3 50zM365 432l-89 -32l-3 9l179 72l10 -8l-84 -477q-8 -44 -34.5 -81.5t-67.5 -66.5
l-114 -83h-45l16 85h121q9 22 14.5 44t11.5 55z" />
    <glyph glyph-name="Jcircumflex" unicode="&#x134;" horiz-adv-x="305" 
d="M114 757h-13l156 155h23l91 -155h-13l-99 91h-4zM175 684l-73 6v10h249v-10l-74 -6l-88 -588q-5 -34 -16.5 -61.5t-27 -50t-33 -40.5t-34.5 -33l-108 -85h-54l17 90h113q14 38 22.5 76t13.5 75z" />
    <glyph glyph-name="jcircumflex" unicode="&#x135;" horiz-adv-x="265" 
d="M132 432l-89 -32l-3 9l179 72l9 -8l-83 -477q-8 -44 -35 -81.5t-67 -66.5l-114 -83h-45l16 85h120q10 22 15.5 44t11.5 55zM74 548h-12l152 184h21l85 -184h-11l-96 108h-3z" />
    <glyph glyph-name="Kcommaaccent" unicode="&#x136;" horiz-adv-x="674" 
d="M305 -129l-34 30l7 44h95l-12 -73l-115 -110l-9 2zM228 379l348 305l-89 6v10h203v-10l-85 -6l-348 -302l83 -10l235 -356l58 -6v-10h-173l-233 369l-53 -353l76 -6v-10h-256v10l78 6l100 668l-73 6v10h249v-10l-74 -6z" />
    <glyph glyph-name="kcommaaccent" unicode="&#x137;" horiz-adv-x="471" 
d="M168 -129l-34 30l7 44h95l-12 -73l-115 -110l-9 2zM278 8l-102 265l-49 -273h-89l118 675l-93 -25l-2 9l178 57l13 -10l-75 -426l206 191h72l-18 -96h-131l-118 -99l96 -27l91 -219l81 62l6 -7l-123 -101z" />
    <glyph glyph-name="kgreenlandic" unicode="&#x138;" horiz-adv-x="456" 
d="M176 271l207 200h73l-18 -96h-132l-119 -107l96 -27l92 -211l82 62l5 -7l-122 -101l-61 24l-104 257l-47 -265h-90l76 436l-89 -26l-3 8l176 63l12 -10z" />
    <glyph glyph-name="Lacute" unicode="&#x139;" horiz-adv-x="526" 
d="M275 902h88l-123 -145h-13zM173 14h218l109 175h10l-38 -189h-478v10l77 6l101 668l-73 6v10h249v-10l-74 -6z" />
    <glyph glyph-name="lacute" unicode="&#x13a;" horiz-adv-x="265" 
d="M245 902h88l-123 -145h-13zM46 16l116 659l-93 -25l-2 9l178 57l13 -10l-120 -681l95 70l6 -7l-127 -104z" />
    <glyph glyph-name="Lcommaaccent" unicode="&#x13b;" horiz-adv-x="526" 
d="M239 -129l-34 30l7 44h95l-12 -73l-115 -110l-9 2zM173 14h218l109 175h10l-38 -189h-478v10l77 6l101 668l-73 6v10h249v-10l-74 -6z" />
    <glyph glyph-name="lcommaaccent" unicode="&#x13c;" horiz-adv-x="265" 
d="M63 -129l-34 30l7 44h95l-13 -73l-114 -110l-9 2zM46 16l116 659l-93 -25l-2 9l178 57l13 -10l-120 -681l95 70l6 -7l-127 -104z" />
    <glyph glyph-name="Lcaron" unicode="&#x13d;" horiz-adv-x="521" 
d="M409 449l93 153l-44 -2l-25 5l4 56l17 44l73 5l28 -5l-5 -52l-18 -48l-116 -159zM168 14h218l109 175h10l-38 -189h-478v10l77 6l101 668l-73 6v10h249v-10l-74 -6z" />
    <glyph glyph-name="lcaron" unicode="&#x13e;" horiz-adv-x="408" 
d="M278 478l89 138l-54 55l7 37h111l-15 -83l-129 -150zM46 16l116 659l-93 -25l-2 9l178 57l13 -10l-120 -681l95 70l6 -7l-127 -104z" />
    <glyph glyph-name="Ldot" unicode="&#x13f;" horiz-adv-x="526" 
d="M406 456l45 -5l-1 -51l-16 -44l-44 -5l-50 5l4 51l17 44zM173 14h218l109 175h10l-38 -189h-478v10l77 6l101 668l-73 6v10h249v-10l-74 -6z" />
    <glyph glyph-name="ldot" unicode="&#x140;" horiz-adv-x="343" 
d="M262 450l45 5l46 -5l-1 -51l-17 -44l-43 -5l-50 5l4 51zM46 16l116 659l-93 -25l-2 9l178 57l13 -10l-120 -681l95 70l6 -7l-127 -104z" />
    <glyph glyph-name="Lslash" unicode="&#x141;" horiz-adv-x="526" 
d="M231 400l128 58l-3 -12l-127 -58l-56 -374h218l109 175h10l-38 -189h-478v10l77 6l48 322l-81 -37l2 12l81 37l51 334l-73 6v10h249v-10l-74 -6z" />
    <glyph glyph-name="lslash" unicode="&#x142;" horiz-adv-x="265" 
d="M46 16l57 323l-74 -33l2 11l74 34l57 324l-93 -25l-2 9l178 57l13 -10l-55 -310l101 46l-2 -12l-101 -46l-63 -359l95 70l6 -7l-127 -104z" />
    <glyph glyph-name="Nacute" unicode="&#x143;" horiz-adv-x="662" 
d="M468 902h88l-123 -145h-13zM619 684l-80 6v10h179v-10l-77 -6l-108 -684h-63l-275 665l-102 -649l80 -6l-1 -10h-178v10l77 6l106 668l-73 6v10h187l241 -572z" />
    <glyph glyph-name="nacute" unicode="&#x144;" horiz-adv-x="510" 
d="M364 723h91l-179 -175h-12zM138 0h-89l75 432l-88 -32l-3 9l178 72l10 -8l-18 -105l160 113q60 0 82 -28.5t13 -79.5l-62 -348l96 70l5 -7l-127 -104l-65 32l60 337q12 66 -42 66q-19 0 -39 -10t-51 -31l-32 -22z" />
    <glyph glyph-name="Ncommaaccent" unicode="&#x145;" horiz-adv-x="662" 
d="M282 -129l-34 30l7 44h95l-13 -73l-114 -110l-9 2zM619 684l-80 6v10h179v-10l-77 -6l-108 -684h-63l-275 665l-102 -649l80 -6l-1 -10h-178v10l77 6l106 668l-73 6v10h187l241 -572z" />
    <glyph glyph-name="ncommaaccent" unicode="&#x146;" horiz-adv-x="510" 
d="M202 -129l-34 30l7 44h95l-13 -73l-114 -110l-9 2zM138 0h-89l75 432l-88 -32l-3 9l178 72l10 -8l-18 -105l160 113q60 0 82 -28.5t13 -79.5l-62 -348l96 70l5 -7l-127 -104l-65 32l60 337q12 66 -42 66q-19 0 -39 -10t-51 -31l-32 -22z" />
    <glyph glyph-name="Ncaron" unicode="&#x147;" horiz-adv-x="662" 
d="M433 821l141 91h13l-156 -155h-23l-91 155h13l99 -91h4zM619 684l-80 6v10h179v-10l-77 -6l-108 -684h-63l-275 665l-102 -649l80 -6l-1 -10h-178v10l77 6l106 668l-73 6v10h187l241 -572z" />
    <glyph glyph-name="ncaron" unicode="&#x148;" horiz-adv-x="510" 
d="M333 624l137 108h11l-152 -184h-20l-88 184h12l97 -108h3zM138 0h-89l75 432l-88 -32l-3 9l178 72l10 -8l-18 -105l160 113q60 0 82 -28.5t13 -79.5l-62 -348l96 70l5 -7l-127 -104l-65 32l60 337q12 66 -42 66q-19 0 -39 -10t-51 -31l-32 -22z" />
    <glyph glyph-name="napostrophe" unicode="&#x149;" horiz-adv-x="510" 
d="M83 493l88 123l-53 55l7 37h111l-15 -83l-130 -136zM138 0h-89l75 432l-88 -32l-3 9l178 72l10 -8l-18 -105l160 113q60 0 82 -28.5t13 -79.5l-62 -348l96 70l5 -7l-127 -104l-65 32l60 337q12 66 -42 66q-19 0 -39 -10t-51 -31l-32 -22z" />
    <glyph glyph-name="Eng" unicode="&#x14a;" horiz-adv-x="662" 
d="M619 684l-80 6v10h179v-10l-77 -6l-108 -684h1l-113 -237l-117 1l17 86h96l110 150h-57l-275 665l-102 -649l80 -6l-1 -10h-178v10l77 6l106 668l-73 6v10h187l241 -572z" />
    <glyph glyph-name="eng" unicode="&#x14b;" horiz-adv-x="510" 
d="M131 -235l16 85h121q9 22 14.5 44t11.5 55l73 414q5 28 -7.5 42t-36.5 14q-19 0 -39 -10t-51 -31l-32 -22l-63 -356h-89l75 432l-88 -32l-3 9l178 72l10 -8l-18 -105l160 113q60 0 82 -28.5t13 -79.5l-66 -377q-8 -43 -33 -79.5t-64 -64.5l-119 -87h-45z" />
    <glyph glyph-name="Omacron" unicode="&#x14c;" horiz-adv-x="667" 
d="M283 841h285l-6 -35h-285zM164 302q0 -68 13.5 -121t37.5 -91t57 -59.5t72 -25.5q47 16 84.5 54t64 91t40.5 117t14 131q0 68 -13.5 121.5t-37.5 91.5t-57 60t-72 26q-46 -14 -83.5 -52t-64 -92t-41 -119t-14.5 -132zM396 718q57 0 105.5 -22t84 -62t55.5 -95.5
t20 -121.5q0 -60 -15 -121.5t-47 -117t-84 -100t-125 -70.5l-75 -26q-57 0 -105.5 22t-84 62t-55.5 95.5t-20 122.5q0 60 14.5 122t47 118t84 100.5t125.5 69.5z" />
    <glyph glyph-name="omacron" unicode="&#x14d;" horiz-adv-x="461" 
d="M196 658h285l-6 -35h-285zM242 451q-32 -14 -53.5 -41.5t-34 -62t-18 -73t-5.5 -72.5q0 -45 8.5 -78.5t23 -56t33.5 -35.5t40 -17q32 13 54 41.5t35.5 64.5t19 74.5t5.5 73.5q0 46 -8 78.5t-22.5 54t-34.5 33t-43 16.5zM287 481q31 0 59.5 -11.5t50.5 -34.5t34.5 -58
t12.5 -82q0 -44 -11.5 -86t-34 -78t-56 -65.5t-77.5 -48.5l-72 -32q-32 0 -60 12.5t-50 36.5t-34.5 59.5t-12.5 82.5q0 89 45 162t135 112z" />
    <glyph glyph-name="Obreve" unicode="&#x14e;" horiz-adv-x="667" 
d="M424 812q25 0 47 8.5t40 21.5t31.5 27t21.5 26l7 -6q-20 -38 -52 -70.5t-93 -61.5q-30 0 -52.5 12t-39 30.5t-27 41.5t-17.5 45l10 6q6 -11 16.5 -25t26 -26t36 -20.5t45.5 -8.5zM164 302q0 -68 13.5 -121t37.5 -91t57 -59.5t72 -25.5q47 16 84.5 54t64 91t40.5 117
t14 131q0 68 -13.5 121.5t-37.5 91.5t-57 60t-72 26q-46 -14 -83.5 -52t-64 -92t-41 -119t-14.5 -132zM396 718q57 0 105.5 -22t84 -62t55.5 -95.5t20 -121.5q0 -60 -15 -121.5t-47 -117t-84 -100t-125 -70.5l-75 -26q-57 0 -105.5 22t-84 62t-55.5 95.5t-20 122.5
q0 60 14.5 122t47 118t84 100.5t125.5 69.5z" />
    <glyph glyph-name="obreve" unicode="&#x14f;" horiz-adv-x="461" 
d="M242 451q-32 -14 -53.5 -41.5t-34 -62t-18 -73t-5.5 -72.5q0 -45 8.5 -78.5t23 -56t33.5 -35.5t40 -17q32 13 54 41.5t35.5 64.5t19 74.5t5.5 73.5q0 46 -8 78.5t-22.5 54t-34.5 33t-43 16.5zM287 481q31 0 59.5 -11.5t50.5 -34.5t34.5 -58t12.5 -82q0 -44 -11.5 -86
t-34 -78t-56 -65.5t-77.5 -48.5l-72 -32q-32 0 -60 12.5t-50 36.5t-34.5 59.5t-12.5 82.5q0 89 45 162t135 112zM329 611q24 0 45.5 9t38.5 22t30.5 28t21.5 27l7 -6q-10 -20 -22 -38t-28.5 -35t-39 -32.5t-52.5 -30.5q-29 0 -51 12.5t-38 31.5t-26.5 42.5t-16.5 46.5l10 6
q6 -12 16.5 -26t25.5 -27t34.5 -21.5t44.5 -8.5z" />
    <glyph glyph-name="Ohungarumlaut" unicode="&#x150;" horiz-adv-x="667" 
d="M527 902h102l-141 -145h-13zM364 902h102l-142 -145h-12zM164 302q0 -68 13.5 -121t37.5 -91t57 -59.5t72 -25.5q47 16 84.5 54t64 91t40.5 117t14 131q0 68 -13.5 121.5t-37.5 91.5t-57 60t-72 26q-46 -14 -83.5 -52t-64 -92t-41 -119t-14.5 -132zM396 718
q57 0 105.5 -22t84 -62t55.5 -95.5t20 -121.5q0 -60 -15 -121.5t-47 -117t-84 -100t-125 -70.5l-75 -26q-57 0 -105.5 22t-84 62t-55.5 95.5t-20 122.5q0 60 14.5 122t47 118t84 100.5t125.5 69.5z" />
    <glyph glyph-name="ohungarumlaut" unicode="&#x151;" horiz-adv-x="461" 
d="M451 720h108l-170 -172h-12zM278 720h109l-170 -172h-12zM242 451q-32 -14 -53.5 -41.5t-34 -62t-18 -73t-5.5 -72.5q0 -45 8.5 -78.5t23 -56t33.5 -35.5t40 -17q32 13 54 41.5t35.5 64.5t19 74.5t5.5 73.5q0 46 -8 78.5t-22.5 54t-34.5 33t-43 16.5zM287 481
q31 0 59.5 -11.5t50.5 -34.5t34.5 -58t12.5 -82q0 -44 -11.5 -86t-34 -78t-56 -65.5t-77.5 -48.5l-72 -32q-32 0 -60 12.5t-50 36.5t-34.5 59.5t-12.5 82.5q0 89 45 162t135 112z" />
    <glyph glyph-name="OE" unicode="&#x152;" horiz-adv-x="937" 
d="M446 16l99 656q-14 4 -32.5 8.5t-39 8.5t-40 6t-35.5 2q-52 -14 -94 -52t-72 -92t-46 -119t-16 -132t13.5 -119.5t37.5 -90t57 -59t71 -25.5zM320 -18q-57 0 -105 22t-83.5 62t-55.5 95.5t-20 122.5q0 60 16 122t51.5 117.5t91.5 100.5t137 70l75 24q13 0 31 -2t37 -4.5
t37 -5.5t32 -6h399l-29 -182h-10l-41 168h-234l-48 -319h124l65 118h8l-40 -250h-8l-28 118h-123l-51 -339h243l93 173h10l-30 -187h-416z" />
    <glyph glyph-name="oe" unicode="&#x153;" horiz-adv-x="734" 
d="M504 -15q-42 5 -81 34.5t-57 81.5q-39 -56 -101 -84l-72 -32q-32 0 -60 12.5t-50 36.5t-34.5 59.5t-12.5 82.5q0 89 45.5 160.5t134.5 113.5l68 31q49 0 89.5 -30t55.5 -92q21 28 59 54t85 44l58 24q38 -8 62 -33t24 -73q0 -17 -3.5 -34t-16.5 -40l-257 -79
q2 -40 12.5 -70t27 -51t37.5 -34.5t43 -21.5q12 6 28.5 16t34.5 20.5t34 20t26 16.5l7 -9q-50 -36 -118 -80zM242 451q-32 -14 -53.5 -41.5t-34 -62t-18 -73t-5.5 -72.5q0 -45 8.5 -78.5t23 -56t33.5 -35.5t40 -17q32 13 54 41.5t35.5 64.5t19 74.5t5.5 73.5q0 46 -8 78.5
t-22.5 54t-34.5 33t-43 16.5zM603 289q8 17 11 34t3 36q0 35 -15.5 56.5t-41.5 28.5q-51 -29 -86 -78.5t-37 -121.5q0 -3 0.5 -6t1.5 -7z" />
    <glyph glyph-name="Racute" unicode="&#x154;" horiz-adv-x="633" 
d="M311 341l119 -35l131 -290l38 -5v-11h-147l-146 340h-84l-49 -324l86 -6v-10h-265v10l77 6l101 668l-73 6v10h303q90 0 138.5 -41t48.5 -102q0 -42 -16 -73.5t-43.5 -54.5t-63.5 -39t-76 -27zM338 360q24 12 48.5 28t44 38t32 51.5t12.5 69.5q0 65 -30.5 102t-96.5 37
h-74l-49 -326h113zM391 902h88l-123 -145h-13z" />
    <glyph glyph-name="racute" unicode="&#x155;" horiz-adv-x="377" 
d="M48 0l76 432l-89 -32l-2 9l178 72l10 -8l-37 -207l139 205h66l-19 -102h-99l-91 -129l-42 -240h-90zM315 723h91l-179 -175h-12z" />
    <glyph glyph-name="Rcommaaccent" unicode="&#x156;" horiz-adv-x="633" 
d="M311 341l119 -35l131 -290l38 -5v-11h-147l-146 340h-84l-49 -324l86 -6v-10h-265v10l77 6l101 668l-73 6v10h303q90 0 138.5 -41t48.5 -102q0 -42 -16 -73.5t-43.5 -54.5t-63.5 -39t-76 -27zM338 360q24 12 48.5 28t44 38t32 51.5t12.5 69.5q0 65 -30.5 102t-96.5 37
h-74l-49 -326h113zM275 -129l-34 30l7 44h95l-13 -73l-114 -110l-9 2z" />
    <glyph glyph-name="rcommaaccent" unicode="&#x157;" horiz-adv-x="377" 
d="M48 0l76 432l-89 -32l-2 9l178 72l10 -8l-37 -207l139 205h66l-19 -102h-99l-91 -129l-42 -240h-90zM68 -129l-34 30l7 44h95l-12 -73l-115 -110l-9 2z" />
    <glyph glyph-name="Rcaron" unicode="&#x158;" horiz-adv-x="633" 
d="M311 341l119 -35l131 -290l38 -5v-11h-147l-146 340h-84l-49 -324l86 -6v-10h-265v10l77 6l101 668l-73 6v10h303q90 0 138.5 -41t48.5 -102q0 -42 -16 -73.5t-43.5 -54.5t-63.5 -39t-76 -27zM338 360q24 12 48.5 28t44 38t32 51.5t12.5 69.5q0 65 -30.5 102t-96.5 37
h-74l-49 -326h113zM378 821l141 91h12l-156 -155h-23l-91 155h13l100 -91h4z" />
    <glyph glyph-name="rcaron" unicode="&#x159;" horiz-adv-x="377" 
d="M48 0l76 432l-89 -32l-2 9l178 72l10 -8l-37 -207l139 205h66l-19 -102h-99l-91 -129l-42 -240h-90zM279 624l137 108h11l-152 -184h-20l-88 184h12l97 -108h3z" />
    <glyph glyph-name="Sacute" unicode="&#x15a;" horiz-adv-x="470" 
d="M368 902h88l-123 -145h-13zM315 718q63 0 105 -11t73 -31l-30 -167h-10l-21 118q-32 33 -74 46.5t-87 15.5q-56 -17 -76.5 -46t-20.5 -66q0 -24 6 -42t18 -33.5t30 -31.5t42 -36l106 -86q35 -29 56 -62.5t21 -88.5q0 -27 -10 -55.5t-29.5 -53.5t-48 -45.5t-64.5 -31.5
l-88 -29q-66 0 -116 17t-83 42l40 165h11l2 -104q14 -15 36.5 -30t50.5 -27.5t58.5 -20.5t60.5 -9q50 17 71.5 52t21.5 79q0 23 -5.5 41.5t-16.5 35t-28 32.5t-39 34l-96 77q-34 27 -61 63.5t-27 87.5q0 54 33 97.5t105 71.5z" />
    <glyph glyph-name="sacute" unicode="&#x15b;" horiz-adv-x="355" 
d="M282 723h91l-179 -175h-12zM105 -15q-11 4 -25 10.5t-28.5 14t-27 15t-19.5 12.5l49 65q26 -19 57.5 -38.5t76.5 -42.5q27 9 40 27t13 38q0 26 -10 43.5t-36 42.5l-81 69q-22 19 -34 41t-12 51q0 32 25 64.5t85 54.5l76 29q40 -4 96 -34l-45 -68q-29 19 -62 36t-65 30
q-22 -8 -32 -25.5t-10 -34.5q0 -23 9.5 -39.5t26.5 -32.5l82 -70q34 -30 46 -54.5t12 -56.5q0 -42 -26.5 -69t-71.5 -41z" />
    <glyph glyph-name="Scircumflex" unicode="&#x15c;" horiz-adv-x="470" 
d="M230 757h-12l156 155h23l91 -155h-13l-100 91h-4zM315 718q63 0 105 -11t73 -31l-30 -167h-10l-21 118q-32 33 -74 46.5t-87 15.5q-56 -17 -76.5 -46t-20.5 -66q0 -24 6 -42t18 -33.5t30 -31.5t42 -36l106 -86q35 -29 56 -62.5t21 -88.5q0 -27 -10 -55.5t-29.5 -53.5
t-48 -45.5t-64.5 -31.5l-88 -29q-66 0 -116 17t-83 42l40 165h11l2 -104q14 -15 36.5 -30t50.5 -27.5t58.5 -20.5t60.5 -9q50 17 71.5 52t21.5 79q0 23 -5.5 41.5t-16.5 35t-28 32.5t-39 34l-96 77q-34 27 -61 63.5t-27 87.5q0 54 33 97.5t105 71.5z" />
    <glyph glyph-name="scircumflex" unicode="&#x15d;" horiz-adv-x="355" 
d="M126 548h-12l152 184h21l85 -184h-11l-96 108h-3zM105 -15q-11 4 -25 10.5t-28.5 14t-27 15t-19.5 12.5l49 65q26 -19 57.5 -38.5t76.5 -42.5q27 9 40 27t13 38q0 26 -10 43.5t-36 42.5l-81 69q-22 19 -34 41t-12 51q0 32 25 64.5t85 54.5l76 29q40 -4 96 -34l-45 -68
q-29 19 -62 36t-65 30q-22 -8 -32 -25.5t-10 -34.5q0 -23 9.5 -39.5t26.5 -32.5l82 -70q34 -30 46 -54.5t12 -56.5q0 -42 -26.5 -69t-71.5 -41z" />
    <glyph glyph-name="Scedilla" unicode="&#x15e;" horiz-adv-x="470" 
d="M315 718q63 0 105 -11t73 -31l-30 -167h-10l-21 118q-32 33 -74 46.5t-87 15.5q-56 -17 -76.5 -46t-20.5 -66q0 -24 6 -42t18 -33.5t30 -31.5t42 -36l106 -86q35 -29 56 -62.5t21 -88.5q0 -27 -10 -55.5t-29.5 -53.5t-48 -45.5t-64.5 -31.5l-88 -29h-2l-22 -28
q36 -5 54.5 -23t18.5 -47q0 -21 -10 -37t-25 -27.5t-32.5 -19.5t-32.5 -14l-76 -29h-26l30 39h78q17 11 28.5 25t11.5 37q0 31 -16 43.5t-41 14.5l50 66q-62 2 -108.5 18.5t-78.5 40.5l40 165h11l2 -104q14 -15 36.5 -30t50.5 -27.5t58.5 -20.5t60.5 -9q50 17 71.5 52
t21.5 79q0 23 -5.5 41.5t-16.5 35t-28 32.5t-39 34l-96 77q-34 27 -61 63.5t-27 87.5q0 54 33 97.5t105 71.5z" />
    <glyph glyph-name="scedilla" unicode="&#x15f;" horiz-adv-x="355" 
d="M105 -15l-24 -31q36 -5 54.5 -23t18.5 -47q0 -21 -10 -37t-25 -27.5t-32.5 -19.5t-32.5 -14l-76 -29h-26l30 39h78q17 11 28.5 25t11.5 37q0 31 -16 43.5t-41 14.5l54 72q-11 4 -24 10.5t-26 13.5t-24 13.5t-18 11.5l49 65q26 -19 57.5 -38.5t76.5 -42.5q27 9 40 27
t13 38q0 26 -10 43.5t-36 42.5l-81 69q-22 19 -34 41t-12 51q0 32 25 64.5t85 54.5l76 29q40 -4 96 -34l-45 -68q-29 19 -62 36t-65 30q-22 -8 -32 -25.5t-10 -34.5q0 -23 9.5 -39.5t26.5 -32.5l82 -70q34 -30 46 -54.5t12 -56.5q0 -42 -26.5 -69t-71.5 -41z" />
    <glyph glyph-name="Scaron" unicode="&#x160;" horiz-adv-x="470" 
d="M365 821l141 91h12l-156 -155h-23l-90 155h12l100 -91h4zM315 718q63 0 105 -11t73 -31l-30 -167h-10l-21 118q-32 33 -74 46.5t-87 15.5q-56 -17 -76.5 -46t-20.5 -66q0 -24 6 -42t18 -33.5t30 -31.5t42 -36l106 -86q35 -29 56 -62.5t21 -88.5q0 -27 -10 -55.5
t-29.5 -53.5t-48 -45.5t-64.5 -31.5l-88 -29q-66 0 -116 17t-83 42l40 165h11l2 -104q14 -15 36.5 -30t50.5 -27.5t58.5 -20.5t60.5 -9q50 17 71.5 52t21.5 79q0 23 -5.5 41.5t-16.5 35t-28 32.5t-39 34l-96 77q-34 27 -61 63.5t-27 87.5q0 54 33 97.5t105 71.5z" />
    <glyph glyph-name="scaron" unicode="&#x161;" horiz-adv-x="355" 
d="M259 624l137 108h11l-152 -184h-20l-88 184h12l97 -108h3zM105 -15q-11 4 -25 10.5t-28.5 14t-27 15t-19.5 12.5l49 65q26 -19 57.5 -38.5t76.5 -42.5q27 9 40 27t13 38q0 26 -10 43.5t-36 42.5l-81 69q-22 19 -34 41t-12 51q0 32 25 64.5t85 54.5l76 29q40 -4 96 -34
l-45 -68q-29 19 -62 36t-65 30q-22 -8 -32 -25.5t-10 -34.5q0 -23 9.5 -39.5t26.5 -32.5l82 -70q34 -30 46 -54.5t12 -56.5q0 -42 -26.5 -69t-71.5 -41z" />
    <glyph glyph-name="Tcommaaccent" unicode="&#x162;" horiz-adv-x="547" 
d="M221 -129l-34 30l7 44h95l-13 -73l-114 -110l-9 2zM298 686h-136l-87 -168h-10l28 182h518l-28 -182h-10l-39 168h-134l-100 -670l94 -6v-10h-281v10l85 6z" />
    <glyph glyph-name="tcommaaccent" unicode="&#x163;" horiz-adv-x="295" 
d="M75 -129l-34 30l7 44h95l-12 -73l-115 -110l-9 2zM253 94l5 -7l-151 -103l-66 32l77 435h-63l2 10h63l10 54l89 80h14l-24 -134h100l-2 -10h-100l-75 -428z" />
    <glyph glyph-name="Tcaron" unicode="&#x164;" horiz-adv-x="547" 
d="M376 821l141 91h13l-156 -155h-23l-91 155h13l99 -91h4zM298 686h-136l-87 -168h-10l28 182h518l-28 -182h-10l-39 168h-134l-100 -670l94 -6v-10h-281v10l85 6z" />
    <glyph glyph-name="tcaron" unicode="&#x165;" horiz-adv-x="324" 
d="M311 478l88 138l-53 55l7 37h110l-14 -83l-130 -150zM253 94l5 -7l-151 -103l-66 32l77 435h-63l2 10h63l10 54l89 80h14l-24 -134h100l-2 -10h-100l-75 -428z" />
    <glyph glyph-name="Tbar" unicode="&#x166;" horiz-adv-x="547" 
d="M258 419h-103l2 10h102l39 257h-136l-87 -168h-10l28 182h518l-28 -182h-10l-39 168h-134l-39 -257h112l-2 -10h-111l-60 -403l94 -6v-10h-281v10l85 6z" />
    <glyph glyph-name="tbar" unicode="&#x167;" horiz-adv-x="295" 
d="M253 94l5 -7l-151 -103l-66 32l49 279h-55l2 10h55l26 146h-63l2 10h63l10 54l89 80h14l-24 -134h100l-2 -10h-100l-26 -146h114l-2 -10h-114l-47 -272z" />
    <glyph glyph-name="Utilde" unicode="&#x168;" horiz-adv-x="611" 
d="M331 877l56 19l168 -83l52 82h9l-52 -109l-56 -19l-168 85l-51 -83h-9zM182 230q-7 -46 -1 -83.5t25.5 -64.5t53.5 -41.5t83 -14.5q33 12 59 28t46.5 40t34.5 58.5t22 83.5l72 448l-76 6v10h177v-10l-78 -6l-70 -444q-7 -43 -18 -78t-30.5 -63.5t-48.5 -49.5t-72 -36
l-84 -30q-62 0 -103.5 16.5t-65 47t-30.5 74t1 97.5l70 466l-73 6v10h249v-10l-74 -6z" />
    <glyph glyph-name="utilde" unicode="&#x169;" horiz-adv-x="506" 
d="M487 91l6 -6l-137 -101l-60 32l15 84l-157 -115q-60 0 -82 27.5t-13 79.5l62 344l-89 -29l-3 8l178 66l10 -8l-66 -368q-6 -32 5 -45t30 -13q20 0 39.5 9t54.5 34l33 23l62 353h90l-77 -441zM237 689l56 19l167 -84l53 82h9l-52 -109l-56 -19l-169 86l-50 -84h-9z" />
    <glyph glyph-name="Umacron" unicode="&#x16a;" horiz-adv-x="611" 
d="M300 841h285l-6 -35h-285zM182 230q-7 -46 -1 -83.5t25.5 -64.5t53.5 -41.5t83 -14.5q33 12 59 28t46.5 40t34.5 58.5t22 83.5l72 448l-76 6v10h177v-10l-78 -6l-70 -444q-7 -43 -18 -78t-30.5 -63.5t-48.5 -49.5t-72 -36l-84 -30q-62 0 -103.5 16.5t-65 47t-30.5 74
t1 97.5l70 466l-73 6v10h249v-10l-74 -6z" />
    <glyph glyph-name="umacron" unicode="&#x16b;" horiz-adv-x="506" 
d="M487 91l6 -6l-137 -101l-60 32l15 84l-157 -115q-60 0 -82 27.5t-13 79.5l62 344l-89 -29l-3 8l178 66l10 -8l-66 -368q-6 -32 5 -45t30 -13q20 0 39.5 9t54.5 34l33 23l62 353h90l-77 -441zM213 658h285l-6 -35h-285z" />
    <glyph glyph-name="Ubreve" unicode="&#x16c;" horiz-adv-x="611" 
d="M417 812q25 0 47 8.5t40 21.5t31.5 27t21.5 26l7 -6q-20 -38 -52 -70.5t-93 -61.5q-30 0 -52.5 12t-39 30.5t-27 41.5t-17.5 45l10 6q6 -11 16.5 -25t26 -26t36 -20.5t45.5 -8.5zM182 230q-7 -46 -1 -83.5t25.5 -64.5t53.5 -41.5t83 -14.5q33 12 59 28t46.5 40t34.5 58.5
t22 83.5l72 448l-76 6v10h177v-10l-78 -6l-70 -444q-7 -43 -18 -78t-30.5 -63.5t-48.5 -49.5t-72 -36l-84 -30q-62 0 -103.5 16.5t-65 47t-30.5 74t1 97.5l70 466l-73 6v10h249v-10l-74 -6z" />
    <glyph glyph-name="ubreve" unicode="&#x16d;" horiz-adv-x="506" 
d="M487 91l6 -6l-137 -101l-60 32l15 84l-157 -115q-60 0 -82 27.5t-13 79.5l62 344l-89 -29l-3 8l178 66l10 -8l-66 -368q-6 -32 5 -45t30 -13q20 0 39.5 9t54.5 34l33 23l62 353h90l-77 -441zM344 611q24 0 45.5 9t38.5 22t30.5 28t21.5 27l7 -6q-10 -20 -22 -38
t-28.5 -35t-39 -32.5t-52.5 -30.5q-29 0 -51 12.5t-38 31.5t-26.5 42.5t-16.5 46.5l10 6q6 -12 16.5 -26t25.5 -27t34.5 -21.5t44.5 -8.5z" />
    <glyph glyph-name="Uring" unicode="&#x16e;" horiz-adv-x="611" 
d="M525 843q0 -24 -8.5 -39.5t-23 -27t-33 -19t-39.5 -14.5q-20 0 -38.5 5.5t-33.5 17t-24 30t-9 44.5q0 23 8.5 38.5t23 26.5t33 18.5t39.5 15.5q20 0 39 -5t33.5 -16.5t23.5 -30t9 -44.5zM346 841q0 -35 20.5 -56t53.5 -21t54 21t21 56t-21 56t-54 21t-53.5 -21t-20.5 -56
zM182 230q-7 -46 -1 -83.5t25.5 -64.5t53.5 -41.5t83 -14.5q33 12 59 28t46.5 40t34.5 58.5t22 83.5l72 448l-76 6v10h177v-10l-78 -6l-70 -444q-7 -43 -18 -78t-30.5 -63.5t-48.5 -49.5t-72 -36l-84 -30q-62 0 -103.5 16.5t-65 47t-30.5 74t1 97.5l70 466l-73 6v10h249v-10
l-74 -6z" />
    <glyph glyph-name="uring" unicode="&#x16f;" horiz-adv-x="506" 
d="M264 640q0 -35 20.5 -56t53.5 -21t54.5 21t21.5 56t-21.5 56t-54.5 21t-53.5 -21t-20.5 -56zM443 641q0 -24 -8.5 -39.5t-22.5 -26.5t-33 -18.5t-40 -14.5q-20 0 -38.5 5t-33.5 16.5t-24 30t-9 44.5q0 24 8.5 39.5t23 26.5t33.5 18.5t39 14.5q20 0 39 -5t33.5 -16.5
t23.5 -29.5t9 -45zM487 91l6 -6l-137 -101l-60 32l15 84l-157 -115q-60 0 -82 27.5t-13 79.5l62 344l-89 -29l-3 8l178 66l10 -8l-66 -368q-6 -32 5 -45t30 -13q20 0 39.5 9t54.5 34l33 23l62 353h90l-77 -441z" />
    <glyph glyph-name="Uhungarumlaut" unicode="&#x170;" horiz-adv-x="611" 
d="M526 902h102l-141 -145h-13zM363 902h102l-141 -145h-13zM182 230q-7 -46 -1 -83.5t25.5 -64.5t53.5 -41.5t83 -14.5q33 12 59 28t46.5 40t34.5 58.5t22 83.5l72 448l-76 6v10h177v-10l-78 -6l-70 -444q-7 -43 -18 -78t-30.5 -63.5t-48.5 -49.5t-72 -36l-84 -30
q-62 0 -103.5 16.5t-65 47t-30.5 74t1 97.5l70 466l-73 6v10h249v-10l-74 -6z" />
    <glyph glyph-name="uhungarumlaut" unicode="&#x171;" horiz-adv-x="506" 
d="M487 91l6 -6l-137 -101l-60 32l15 84l-157 -115q-60 0 -82 27.5t-13 79.5l62 344l-89 -29l-3 8l178 66l10 -8l-66 -368q-6 -32 5 -45t30 -13q20 0 39.5 9t54.5 34l33 23l62 353h90l-77 -441zM469 720h108l-170 -172h-12zM296 720h109l-170 -172h-12z" />
    <glyph glyph-name="Uogonek" unicode="&#x172;" horiz-adv-x="611" 
d="M182 230q-7 -46 -1 -83.5t25.5 -64.5t53.5 -41.5t83 -14.5q33 12 59 28t46.5 40t34.5 58.5t22 83.5l72 448l-76 6v10h177v-10l-78 -6l-70 -444q-7 -40 -17 -73.5t-27 -61t-42 -48.5t-62 -36l-86 -141l-8 -45q-12 -69 104 -69l-2 -7q-95 0 -129.5 25t-25.5 76l6 37
l123 117q-1 -1 -3 -1l-84 -30q-62 0 -103.5 16.5t-65 47t-30.5 74t1 97.5l70 466l-73 6v10h249v-10l-74 -6z" />
    <glyph glyph-name="uogonek" unicode="&#x173;" horiz-adv-x="506" 
d="M388 25l99 66l6 -6l-96 -71l-86 -135l-8 -45q-12 -69 104 -69l-2 -8q-95 0 -130 25t-26 76l8 44l96 84l-57 30l15 84l-157 -115q-60 0 -82 27.5t-13 79.5l62 344l-89 -29l-3 8l178 66l10 -8l-66 -368q-6 -32 5 -45t30 -13q20 0 39.5 9t54.5 34l33 23l62 353h90z" />
    <glyph glyph-name="Wcircumflex" unicode="&#x174;" horiz-adv-x="945" 
d="M439 757h-12l156 155h23l91 -155h-13l-100 91h-4zM518 452l-177 -441l-85 -23l-105 696l-77 6v10h263v-10l-85 -6l92 -611l167 418l-28 193l-62 6v10h256v-10l-93 -6l92 -611l241 611l-84 6v10h186v-10l-78 -6l-269 -673l-84 -23z" />
    <glyph glyph-name="wcircumflex" unicode="&#x175;" horiz-adv-x="648" 
d="M270 548h-12l152 184h21l85 -184h-11l-96 108h-3zM329 7l-5 217l-145 -234l-79 17l-12 428l-90 -33l-3 8l175 71l12 -10l6 -440l135 218l-6 186l94 36l6 -440l194 315l-76 89l77 46l31 -34l-13 -100l-222 -357z" />
    <glyph glyph-name="Ycircumflex" unicode="&#x176;" horiz-adv-x="614" 
d="M304 757h-13l157 155h23l90 -155h-12l-100 91h-4zM383 314l224 370l-86 6v10h167v-10l-56 -6l-242 -394l-42 -274l84 -6v-10h-271v10l85 6l41 271l-153 397l-60 7v9h255v-10l-82 -6z" />
    <glyph glyph-name="ycircumflex" unicode="&#x177;" horiz-adv-x="443" 
d="M-4 401l-4 9l174 73l13 -8l58 -441l170 316l-79 85l77 46l33 -33l-9 -98l-178 -332l-153 -254l-100 1l20 91h105l109 168l-84 -20l-60 431zM182 548h-12l152 184h21l85 -184h-11l-96 108h-3z" />
    <glyph glyph-name="Ydieresis" unicode="&#x178;" horiz-adv-x="614" 
d="M357 870l40 -5l-1 -44l-16 -39l-35 -5l-42 5l1 46l17 37zM537 870l40 -5l-1 -44l-16 -39l-34 -5l-42 5v46l18 37zM383 314l224 370l-86 6v10h167v-10l-56 -6l-242 -394l-42 -274l84 -6v-10h-271v10l85 6l41 271l-153 397l-60 7v9h255v-10l-82 -6z" />
    <glyph glyph-name="Zacute" unicode="&#x179;" horiz-adv-x="554" 
d="M379 902h88l-123 -145h-12zM516 199h9l-28 -199h-492l-8 11l470 675h-267l-105 -180h-10l31 194h463l8 -12l-465 -674h289z" />
    <glyph glyph-name="zacute" unicode="&#x17a;" horiz-adv-x="410" 
d="M319 723h91l-179 -175h-12zM352 74l35 49l7 -4l-63 -129l-290 38l-39 -33l-10 6l325 369l-214 27l-30 -51l-7 5l56 129l267 -30l29 23l9 -6l-317 -364z" />
    <glyph glyph-name="Zdotaccent" unicode="&#x17b;" horiz-adv-x="554" 
d="M329 871l37 4l50 -4l-2 -50l-17 -43l-35 -5l-55 5l4 50zM516 199h9l-28 -199h-492l-8 11l470 675h-267l-105 -180h-10l31 194h463l8 -12l-465 -674h289z" />
    <glyph glyph-name="zdotaccent" unicode="&#x17c;" horiz-adv-x="410" 
d="M352 74l35 49l7 -4l-63 -129l-290 38l-39 -33l-10 6l325 369l-214 27l-30 -51l-7 5l56 129l267 -30l29 23l9 -6l-317 -364zM250 698l37 4l49 -4l-1 -50l-17 -43l-35 -5l-55 5l4 50z" />
    <glyph glyph-name="Zcaron" unicode="&#x17d;" horiz-adv-x="554" 
d="M366 821l141 91h13l-156 -155h-23l-91 155h13l99 -91h4zM516 199h9l-28 -199h-492l-8 11l470 675h-267l-105 -180h-10l31 194h463l8 -12l-465 -674h289z" />
    <glyph glyph-name="zcaron" unicode="&#x17e;" horiz-adv-x="410" 
d="M285 624l137 108h11l-152 -184h-20l-88 184h12l97 -108h3zM352 74l35 49l7 -4l-63 -129l-290 38l-39 -33l-10 6l325 369l-214 27l-30 -51l-7 5l56 129l267 -30l29 23l9 -6l-317 -364z" />
    <glyph glyph-name="longs" unicode="&#x17f;" horiz-adv-x="285" 
d="M59 450l2 11h63l7 34q9 47 34.5 85.5t62.5 63.5l109 71h67l-13 -79h-130q-14 -18 -21.5 -43.5t-13.5 -60.5l-95 -544q-8 -47 -34 -83.5t-67 -64.5l-109 -75h-50l15 85h117q13 19 19.5 43t11.5 56l88 501h-63z" />
    <glyph glyph-name="florin" unicode="&#x192;" horiz-adv-x="332" 
d="M136 461l7 34q9 47 34.5 85.5t62.5 63.5l109 71h62l-13 -79h-125q-13 -18 -21 -43.5t-14 -60.5l-12 -71h98l-2 -10h-98l-81 -463q-8 -45 -32.5 -81.5t-63.5 -62.5l-113 -79h-51l16 85h117q12 19 18.5 43t12.5 56l87 502h-64l3 10h63z" />
    <glyph glyph-name="Aringacute" unicode="&#x1fa;" horiz-adv-x="677" 
d="M446 248h-238l-128 -232l84 -6l-1 -10h-189l1 10l78 6l374 669l83 25l61 -694l76 -6l-1 -10h-269l1 10l85 6zM216 263h229l-27 365zM487 743q-20 0 -38.5 5.5t-33.5 17t-24 30t-9 44.5q0 23 8.5 38.5t22.5 26.5t33 18.5t39 15.5l31 48h84l-69 -56q26 -8 43 -29t17 -59
q0 -24 -8.5 -39.5t-23 -27t-33 -19t-39.5 -14.5zM412 841q0 -35 20.5 -56t53.5 -21t54 21t21 56t-21 56t-54 21t-53.5 -21t-20.5 -56z" />
    <glyph glyph-name="aringacute" unicode="&#x1fb;" horiz-adv-x="471" 
d="M370 542q-20 0 -38.5 5t-33.5 16.5t-24 30t-9 44.5q0 24 8.5 39.5t22.5 26.5t33 18.5t39 14.5l31 49h84l-69 -56q26 -9 43 -30t17 -59q0 -24 -8.5 -39.5t-23 -26.5t-33 -18.5t-39.5 -14.5zM295 640q0 -35 20.5 -56t53.5 -21t54 21t21 56t-21 56t-54 21t-53.5 -21
t-20.5 -56zM123 209q0 -47 14.5 -85.5t52.5 -67.5l102 88l46 262q-21 14 -47.5 23t-48.5 9q-60 -36 -89.5 -97t-29.5 -132zM360 25l96 70l5 -7l-126 -104l-66 32l21 115l-157 -146q-48 23 -74 64t-26 106q0 46 15 89t42 80.5t64.5 68t83.5 52.5l75 36q12 0 28 -3t32.5 -8
t32.5 -12t28 -14z" />
    <glyph glyph-name="AEacute" unicode="&#x1fc;" horiz-adv-x="880" 
d="M163 0h-189l1 10l78 6l434 684h423l-29 -182h-10l-41 168h-233l-52 -340h124l65 118h9l-40 -250h-9l-27 118h-124l-47 -318h243l93 173h10l-30 -187h-495v10l77 6l47 315h-165l-196 -315l84 -6zM286 346h158l50 334zM668 902h88l-123 -145h-12z" />
    <glyph glyph-name="aeacute" unicode="&#x1fd;" horiz-adv-x="660" 
d="M503 723h91l-179 -175h-12zM366 223q2 -41 12.5 -70.5t27 -51t37.5 -35t43 -21.5q12 6 29 16t34.5 20.5t33.5 20t27 16.5l6 -9q-26 -19 -55.5 -39t-61.5 -41l-68 -44q-26 3 -50 14t-44.5 29.5t-35.5 44t-22 57.5l-146 -145q-48 23 -74 64t-26 106q0 46 15 89t42 80.5
t64.5 68t83.5 52.5l75 36q15 0 32 -3.5t35 -10t34.5 -15.5t29.5 -20l113 49q38 -8 62 -33t24 -73q0 -17 -3.5 -34t-15.5 -40zM123 209q0 -47 14.5 -85.5t52.5 -67.5l88 82q-2 8 -3 18.5t-1 19.5q0 60 23.5 113.5t71.5 95.5q-28 22 -62 37.5t-65 15.5q-60 -36 -89.5 -97
t-29.5 -132zM487 444q-29 -17 -50.5 -42t-37.5 -53q-15 -24 -24 -53t-10 -65l164 55q8 17 11.5 35.5t3.5 37.5q0 35 -15.5 56.5t-41.5 28.5z" />
    <glyph glyph-name="Oslashacute" unicode="&#x1fe;" horiz-adv-x="667" 
d="M396 718q57 0 105.5 -22t83.5 -62l67 77h15l-75 -86q32 -39 50.5 -92t18.5 -116q0 -60 -15 -121.5t-47 -117t-84 -100t-125 -70.5l-75 -26q-61 0 -112.5 25.5t-87.5 70.5l-81 -93h-17l91 104q-28 38 -43 87.5t-15 107.5q0 60 14.5 122t47 118t84 100.5t125.5 69.5z
M547 398q0 44 -5.5 81t-16.5 69l-341 -391q23 -69 64.5 -108t95.5 -44q47 16 84.5 54t64 91t40.5 117t14 131zM164 302q0 -76 16 -131l340 390q-23 61 -62.5 96t-90.5 40q-46 -14 -83.5 -52t-64 -92t-41 -119t-14.5 -132zM367 757l48 145h88l-123 -145h-13z" />
    <glyph glyph-name="oslashacute" unicode="&#x1ff;" horiz-adv-x="461" 
d="M287 481q35 0 66.5 -15t54.5 -45l58 62h11l-64 -69q14 -22 22.5 -51.5t8.5 -67.5q0 -44 -11.5 -86t-34 -78t-56 -65.5t-77.5 -48.5l-72 -32q-36 0 -67.5 15.5t-54.5 47.5l-57 -62h-12l65 69q-31 48 -31 121q0 89 45 162t135 112zM350 269q0 20 -2 38t-5 33l-203 -219
q12 -49 38 -74t58 -32q32 13 54 41.5t35.5 64.5t19 74.5t5.5 73.5zM242 451q-32 -14 -53.5 -41.5t-34 -62t-18 -73t-5.5 -72.5q0 -40 6 -71l204 219q-12 48 -38 70.5t-61 30.5zM339 723h91l-179 -175h-12z" />
    <glyph glyph-name="Scommaaccent" unicode="&#x218;" horiz-adv-x="470" 
d="M201 -129l-34 30l7 44h95l-13 -73l-114 -110l-9 2zM315 718q63 0 105 -11t73 -31l-30 -167h-10l-21 118q-32 33 -74 46.5t-87 15.5q-56 -17 -76.5 -46t-20.5 -66q0 -24 6 -42t18 -33.5t30 -31.5t42 -36l106 -86q35 -29 56 -62.5t21 -88.5q0 -27 -10 -55.5t-29.5 -53.5
t-48 -45.5t-64.5 -31.5l-88 -29q-66 0 -116 17t-83 42l40 165h11l2 -104q14 -15 36.5 -30t50.5 -27.5t58.5 -20.5t60.5 -9q50 17 71.5 52t21.5 79q0 23 -5.5 41.5t-16.5 35t-28 32.5t-39 34l-96 77q-34 27 -61 63.5t-27 87.5q0 54 33 97.5t105 71.5z" />
    <glyph glyph-name="scommaaccent" unicode="&#x219;" horiz-adv-x="355" 
d="M94 -129l-34 31l7 43h95l-12 -72l-115 -111l-9 3zM105 -15q-11 4 -25 10.5t-28.5 14t-27 15t-19.5 12.5l49 65q26 -19 57.5 -38.5t76.5 -42.5q27 9 40 27t13 38q0 26 -10 43.5t-36 42.5l-81 69q-22 19 -34 41t-12 51q0 32 25 64.5t85 54.5l76 29q40 -4 96 -34l-45 -68
q-29 19 -62 36t-65 30q-22 -8 -32 -25.5t-10 -34.5q0 -23 9.5 -39.5t26.5 -32.5l82 -70q34 -30 46 -54.5t12 -56.5q0 -42 -26.5 -69t-71.5 -41z" />
    <glyph glyph-name="uni021A" unicode="&#x21a;" horiz-adv-x="547" 
d="M221 -129l-34 30l7 44h95l-13 -73l-114 -110l-9 2zM298 686h-136l-87 -168h-10l28 182h518l-28 -182h-10l-39 168h-134l-100 -670l94 -6v-10h-281v10l85 6z" />
    <glyph glyph-name="uni021B" unicode="&#x21b;" horiz-adv-x="295" 
d="M75 -129l-34 30l7 44h95l-12 -73l-115 -110l-9 2zM253 94l5 -7l-151 -103l-66 32l77 435h-63l2 10h63l10 54l89 80h14l-24 -134h100l-2 -10h-100l-75 -428z" />
    <glyph glyph-name="hsuperior" unicode="&#x2b0;" horiz-adv-x="322" 
d="M143 400h-68l70 366l-54 -12l-2 6l118 34l11 -9l-35 -179l95 62q38 0 52 -17t8 -49l-36 -184l56 37l4 -5l-80 -59l-50 20l36 183q4 33 -23 33q-10 0 -21 -5t-27 -15l-16 -10z" />
    <glyph glyph-name="jsuperior" unicode="&#x2b2;" horiz-adv-x="153" 
d="M147 781l20 3l41 -3v-33l-12 -26l-19 -4l-44 4l1 30zM114 635l-50 -16l-3 6l118 41l9 -6l-48 -249q-5 -23 -25 -45.5t-46 -41.5l-77 -53h-27l12 57h73q5 11 8.5 23t6.5 29z" />
    <glyph glyph-name="wsuperior" unicode="&#x2b7;" horiz-adv-x="405" 
d="M250 405l-4 113l-82 -124l-61 11l-9 232l-52 -16l-2 5l115 42l11 -9l6 -236l74 111l-4 104l71 23l6 -238l107 160l-50 52l56 33l18 -19l-7 -59l-132 -196z" />
    <glyph glyph-name="ysuperior" unicode="&#x2b8;" horiz-adv-x="272" 
d="M38 620l-3 6l112 42l12 -7l37 -238l97 163l-53 49l56 33l21 -18l-7 -61l-104 -176l-99 -143l-67 1l12 61h75l66 84l-64 -14l-39 235z" />
    <glyph glyph-name="apostrophemod" unicode="&#x2bc;" horiz-adv-x="232" 
d="M96 449l93 153l-43 -2l-26 5l5 56l17 44l72 5l28 -5l-5 -52l-18 -48l-116 -159z" />
    <glyph glyph-name="circumflex" unicode="&#x2c6;" horiz-adv-x="494" 
d="M131 548h-12l152 184h21l85 -184h-11l-96 108h-3z" />
    <glyph glyph-name="caron" unicode="&#x2c7;" horiz-adv-x="496" 
d="M237 624l137 108h11l-152 -184h-20l-88 184h12l97 -108h3z" />
    <glyph glyph-name="breve" unicode="&#x2d8;" horiz-adv-x="496" 
d="M246 611q24 0 45.5 9t38.5 22t30.5 28t21.5 27l7 -6q-10 -20 -22 -38t-28.5 -35t-39 -32.5t-52.5 -30.5q-29 0 -51 12.5t-38 31.5t-26.5 42.5t-16.5 46.5l10 6q6 -12 16.5 -26t25.5 -27t34.5 -21.5t44.5 -8.5z" />
    <glyph glyph-name="dotaccent" unicode="&#x2d9;" horiz-adv-x="448" 
d="M198 698l37 4l49 -4l-1 -50l-17 -43l-35 -5l-55 5l4 50z" />
    <glyph glyph-name="ring" unicode="&#x2da;" horiz-adv-x="474" 
d="M163 640q0 -35 20.5 -56t53.5 -21t54.5 21t21.5 56t-21.5 56t-54.5 21t-53.5 -21t-20.5 -56zM342 641q0 -24 -8.5 -39.5t-22.5 -26.5t-33 -18.5t-40 -14.5q-20 0 -38.5 5t-33.5 16.5t-24 30t-9 44.5q0 24 8.5 39.5t23 26.5t33.5 18.5t39 14.5q20 0 39 -5t33.5 -16.5
t23.5 -29.5t9 -45z" />
    <glyph glyph-name="ogonek" unicode="&#x2db;" horiz-adv-x="583" 
d="M283 -121l-9 -45q-11 -69 104 -69l-1 -8q-95 0 -130 25.5t-26 75.5l8 44l141 124h6z" />
    <glyph glyph-name="tilde" unicode="&#x2dc;" horiz-adv-x="503" 
d="M132 689l56 19l167 -84l53 82h9l-52 -109l-56 -19l-169 86l-50 -84h-9z" />
    <glyph glyph-name="hungarumlaut" unicode="&#x2dd;" horiz-adv-x="536" 
d="M337 720h108l-170 -172h-12zM164 720h109l-170 -172h-12z" />
    <glyph glyph-name="xsuperior" unicode="&#x2e3;" horiz-adv-x="274" 
d="M316 454l4 -5l-84 -57l-46 18l-32 97l-73 -108h-55l13 64h72l41 51l-41 127l-58 -19l-2 6l113 41l12 -6l33 -104l64 103h57l-13 -65h-71l-35 -45l44 -134z" />
    <glyph glyph-name="Delta" unicode="&#x394;" horiz-adv-x="696" 
d="M20 0v10l305 688l50 15l301 -702v-11h-656zM42 18h510l-248 602z" />
    <glyph glyph-name="Omega" unicode="&#x3a9;" horiz-adv-x="692" 
d="M276 148q-47 6 -91 25t-78.5 51.5t-55.5 79t-21 106.5q0 114 76 190.5t250 114.5q68 0 124.5 -22t97 -60.5t62.5 -90t22 -109.5q0 -64 -18 -111.5t-51 -81.5t-78 -56t-99 -35v-83h192l38 107h10v-173h-261v159q22 4 47 18t46.5 43t35.5 76t14 117q0 62 -15 112.5
t-42 86.5t-64 56t-82 20q-42 0 -75.5 -19.5t-57 -53t-36 -79.5t-12.5 -99q0 -61 12 -110t32 -85t46 -57t54 -25v-160h-261v173h10l35 -107h194v82z" />
    <glyph glyph-name="mu" unicode="&#x3bc;" 
d="M165 -230h-89l123 696h89l-65 -361q-6 -32 5 -45t30 -13q20 0 39.5 9t54.5 34l33 23l62 353h90l-77 -441l99 66l6 -6l-137 -101l-60 32l15 84l-157 -115q-79 0 -95 49l-11 -64z" />
    <glyph glyph-name="pi" unicode="&#x3c0;" 
d="M418 453h-145l-79 -453h-95l79 453h-47l-80 -133h-9l26 146h548l-3 -13h-100l-77 -437l66 -6l-1 -10h-117l-31 80z" />
    <glyph glyph-name="Wgrave" unicode="&#x1e80;" horiz-adv-x="945" 
d="M570 757l-111 145h87l35 -145h-11zM518 452l-177 -441l-85 -23l-105 696l-77 6v10h263v-10l-85 -6l92 -611l167 418l-28 193l-62 6v10h256v-10l-93 -6l92 -611l241 611l-84 6v10h186v-10l-78 -6l-269 -673l-84 -23z" />
    <glyph glyph-name="wgrave" unicode="&#x1e81;" horiz-adv-x="648" 
d="M329 7l-5 217l-145 -234l-79 17l-12 428l-90 -33l-3 8l175 71l12 -10l6 -440l135 218l-6 186l94 36l6 -440l194 315l-76 89l77 46l31 -34l-13 -100l-222 -357zM287 723h92l30 -175h-12z" />
    <glyph glyph-name="Wacute" unicode="&#x1e82;" horiz-adv-x="945" 
d="M587 902h89l-124 -145h-12zM518 452l-177 -441l-85 -23l-105 696l-77 6v10h263v-10l-85 -6l92 -611l167 418l-28 193l-62 6v10h256v-10l-93 -6l92 -611l241 611l-84 6v10h186v-10l-78 -6l-269 -673l-84 -23z" />
    <glyph glyph-name="wacute" unicode="&#x1e83;" horiz-adv-x="648" 
d="M412 723h91l-179 -175h-12zM329 7l-5 217l-145 -234l-79 17l-12 428l-90 -33l-3 8l175 71l12 -10l6 -440l135 218l-6 186l94 36l6 -440l194 315l-76 89l77 46l31 -34l-13 -100l-222 -357z" />
    <glyph glyph-name="Wdieresis" unicode="&#x1e84;" horiz-adv-x="945" 
d="M497 870l40 -5v-44l-17 -39l-34 -5l-42 5l1 46l17 37zM678 870l40 -5l-1 -44l-17 -39l-33 -5l-43 5l1 46l18 37zM518 452l-177 -441l-85 -23l-105 696l-77 6v10h263v-10l-85 -6l92 -611l167 418l-28 193l-62 6v10h256v-10l-93 -6l92 -611l241 611l-84 6v10h186v-10
l-78 -6l-269 -673l-84 -23z" />
    <glyph glyph-name="wdieresis" unicode="&#x1e85;" horiz-adv-x="648" 
d="M348 683l40 -5l-1 -44l-16 -39l-34 -5l-42 5l1 46l16 37zM519 683l39 -5l-1 -44l-16 -39l-34 -5l-42 5l1 46l17 37zM329 7l-5 217l-145 -234l-79 17l-12 428l-90 -33l-3 8l175 71l12 -10l6 -440l135 218l-6 186l94 36l6 -440l194 315l-76 89l77 46l31 -34l-13 -100
l-222 -357z" />
    <glyph glyph-name="Ygrave" unicode="&#x1ef2;" horiz-adv-x="614" 
d="M422 757l-111 145h87l35 -145h-11zM383 314l224 370l-86 6v10h167v-10l-56 -6l-242 -394l-42 -274l84 -6v-10h-271v10l85 6l41 271l-153 397l-60 7v9h255v-10l-82 -6z" />
    <glyph glyph-name="ygrave" unicode="&#x1ef3;" horiz-adv-x="443" 
d="M-4 401l-4 9l174 73l13 -8l58 -441l170 316l-79 85l77 46l33 -33l-9 -98l-178 -332l-153 -254l-100 1l20 91h105l109 168l-84 -20l-60 431zM194 723h92l30 -175h-12z" />
    <glyph glyph-name="endash" unicode="&#x2013;" horiz-adv-x="542" 
d="M60 290h437l-4 -24h-438z" />
    <glyph glyph-name="emdash" unicode="&#x2014;" horiz-adv-x="914" 
d="M870 266h-800l4 24h800z" />
    <glyph glyph-name="quoteleft" unicode="&#x2018;" horiz-adv-x="221" 
d="M233 708l-92 -154l43 3l26 -5l-5 -56l-17 -45l-72 -5l-28 5l4 53l18 48l116 158z" />
    <glyph glyph-name="quoteright" unicode="&#x2019;" horiz-adv-x="228" 
d="M100 449l93 153l-44 -2l-25 5l4 56l17 44l73 5l28 -5l-5 -52l-18 -48l-116 -159z" />
    <glyph glyph-name="quotesinglbase" unicode="&#x201a;" horiz-adv-x="241" 
d="M18 -139l92 153l-43 -2l-26 5l5 56l17 44l72 5l28 -5l-5 -52l-17 -48l-117 -159z" />
    <glyph glyph-name="quotedblleft" unicode="&#x201c;" horiz-adv-x="383" 
d="M395 707l-92 -153l43 3l26 -5l-5 -57l-17 -44l-72 -5l-28 5l4 52l18 49l116 158zM233 707l-92 -153l43 3l26 -5l-5 -57l-17 -44l-72 -5l-28 5l4 52l18 49l116 158z" />
    <glyph glyph-name="quotedblright" unicode="&#x201d;" horiz-adv-x="397" 
d="M100 451l92 153l-43 -3l-25 5l4 57l17 44l72 5l28 -5l-4 -52l-18 -49l-117 -158zM262 451l92 153l-43 -3l-25 5l4 57l17 44l72 5l28 -5l-4 -52l-18 -49l-117 -158z" />
    <glyph glyph-name="quotedblbase" unicode="&#x201e;" horiz-adv-x="403" 
d="M180 -139l92 153l-43 -2l-26 5l5 56l17 44l72 5l28 -5l-5 -52l-17 -48l-117 -159zM18 -139l92 153l-43 -2l-26 5l5 56l17 44l72 5l28 -5l-5 -52l-17 -48l-117 -159z" />
    <glyph glyph-name="dagger" unicode="&#x2020;" horiz-adv-x="447" 
d="M167 -60h-5l29 284l-28 103l49 43l47 126l-198 -50l20 110l180 -51l-16 205h110l-89 -205l201 51l-20 -110l-182 50l3 -126l35 -43l-66 -103z" />
    <glyph glyph-name="daggerdbl" unicode="&#x2021;" horiz-adv-x="508" 
d="M243 370l47 126l-198 -50l20 110l180 -51l-16 205h110l-89 -205l201 51l-20 -110l-182 50l3 -126l35 -42l-50 -42l-47 -126l200 51l-20 -111l-183 51l17 -205h-110l89 205l-199 -51l20 111l180 -51l-3 126l-34 42z" />
    <glyph glyph-name="bullet" unicode="&#x2022;" horiz-adv-x="256" 
d="M161 362l30 -5l-4 -56l-18 -51l-74 -5l-30 5l6 59l17 48z" />
    <glyph glyph-name="ellipsis" unicode="&#x2026;" horiz-adv-x="782" 
d="M572 105l76 5l27 -5l-5 -57l-16 -49l-75 -5l-28 5l5 58zM322 105l75 5l27 -5l-4 -57l-16 -49l-76 -5l-27 5l4 58zM71 105l76 5l27 -5l-5 -57l-16 -49l-75 -5l-28 5l5 58z" />
    <glyph glyph-name="perthousand" unicode="&#x2030;" horiz-adv-x="1085" 
d="M716 705h30l-671 -710h-32zM261 683q-43 -23 -68 -74t-25 -116q0 -54 17 -85.5t44 -40.5q44 23 69.5 74t25.5 116q0 54 -17 86t-46 40zM282 700q50 0 80.5 -35t30.5 -95q0 -30 -8 -61.5t-25.5 -60t-45 -51t-66.5 -34.5l-39 -13q-50 0 -80 35t-30 94q0 30 8 62t25 60.5
t44.5 51.5t66.5 35zM564 333q-42 -23 -67 -74.5t-25 -115.5q0 -54 16.5 -86t44.5 -41q43 23 69 74.5t26 115.5q0 55 -17.5 87t-46.5 40zM585 350q50 0 81 -35t31 -95q0 -30 -8 -62t-25.5 -60.5t-45.5 -51t-67 -34.5l-38 -12q-50 0 -80 35t-30 94q0 30 8 62t25 60.5t44 51
t66 35.5zM910 333q-42 -23 -67 -74.5t-25 -115.5q0 -54 16.5 -86t44.5 -41q43 23 69 74.5t26 115.5q0 55 -17.5 87t-46.5 40zM931 350q50 0 81 -35t31 -95q0 -30 -8 -62t-25.5 -60.5t-45.5 -51t-67 -34.5l-38 -12q-50 0 -80 35t-30 94q0 30 8 62t25 60.5t44 51t66 35.5z" />
    <glyph glyph-name="guilsinglleft" unicode="&#x2039;" horiz-adv-x="274" 
d="M177 15l-142 220l221 220h13l-170 -220l92 -220h-14z" />
    <glyph glyph-name="guilsinglright" unicode="&#x203a;" horiz-adv-x="292" 
d="M197 235l-92 220h13l143 -220l-220 -220h-13z" />
    <glyph glyph-name="fraction" unicode="&#x2044;" horiz-adv-x="147" 
d="M-141 -50h-29l520 760h27z" />
    <glyph glyph-name="zerosuperior" unicode="&#x2070;" horiz-adv-x="362" 
d="M263 778q-23 -13 -41.5 -35t-31.5 -51t-20 -64t-7 -72q0 -63 17.5 -101t46.5 -49q46 27 74 87.5t28 135.5q0 64 -18.5 101.5t-47.5 47.5zM287 794q53 0 85.5 -40t32.5 -109q0 -35 -8.5 -71.5t-27.5 -69.5t-49 -59t-72 -40l-45 -14q-52 0 -83.5 40t-31.5 109
q0 35 8.5 71.5t27 69.5t48 59t71.5 40z" />
    <glyph glyph-name="foursuperior" unicode="&#x2074;" horiz-adv-x="329" 
d="M297 529h75l-2 -11h-75l-22 -118h-72l23 118h-157l-4 10l222 257h92l-1 -7l-298 -248h148l16 85l71 37h8z" />
    <glyph glyph-name="fivesuperior" unicode="&#x2075;" horiz-adv-x="316" 
d="M125 599l109 61q33 0 53.5 -8t32 -20t15.5 -26.5t4 -27.5q0 -26 -12.5 -47t-33 -38.5t-45 -31t-48.5 -22.5l-95 -42h-37l12 59h131q25 18 38.5 40.5t13.5 49.5q0 29 -14.5 50.5t-48.5 21.5q-15 0 -29.5 -5t-31.5 -14l-22 -11l-6 3l63 194h204l-20 -56h-190z" />
    <glyph glyph-name="sixsuperior" unicode="&#x2076;" horiz-adv-x="327" 
d="M195 392q-45 0 -77 33t-32 90q0 48 21 92.5t59.5 81.5t91 64.5t115.5 41.5l1 -6q-91 -32 -140 -83.5t-63 -115.5l104 58q41 -4 61.5 -30t20.5 -63q0 -45 -24.5 -83.5t-78.5 -58.5zM225 410q28 15 41.5 47.5t13.5 67.5q0 39 -14 60t-34 21q-10 0 -18.5 -3t-22.5 -11
l-21 -11q-2 -11 -3 -23.5t-1 -23.5q0 -105 59 -124z" />
    <glyph glyph-name="sevensuperior" unicode="&#x2077;" horiz-adv-x="295" 
d="M104 785h263l5 -6l-241 -379h-53l1 7l251 321h-236z" />
    <glyph glyph-name="eightsuperior" unicode="&#x2078;" horiz-adv-x="328" 
d="M307 713q0 26 -14.5 46t-46.5 22q-25 -11 -36 -29t-11 -38t14.5 -39.5t46.5 -47.5q23 15 35 38.5t12 47.5zM148 500q0 -36 20.5 -63t47.5 -30q52 28 52 80q0 24 -19.5 47t-50.5 49q-22 -17 -36 -37t-14 -46zM189 391q-22 0 -42.5 5.5t-36.5 16.5t-25.5 26.5t-9.5 36.5
q0 23 11 40.5t27.5 31t37 23.5t39.5 19q-24 22 -45.5 43.5t-21.5 51.5q0 38 30.5 61.5t72.5 34.5l46 13q45 0 74.5 -18t29.5 -49q0 -22 -10 -38.5t-26 -29.5t-35 -22t-38 -16q17 -15 31.5 -28t25 -25t16.5 -24.5t6 -27.5q0 -39 -30.5 -66t-83.5 -44z" />
    <glyph glyph-name="ninesuperior" unicode="&#x2079;" horiz-adv-x="327" 
d="M76 398q91 32 140.5 83t62.5 116l-102 -58q-41 4 -63 31.5t-22 64.5q0 45 25 82.5t80 56.5l62 21q45 0 75 -33t30 -90q0 -49 -21 -93.5t-59 -81t-90.5 -64t-115.5 -41.5zM219 581q9 0 18 3t23 10l21 11q2 12 3 24t1 24q0 105 -59 124q-28 -15 -41.5 -44.5t-13.5 -67.5
q0 -42 14 -63t34 -21z" />
    <glyph glyph-name="plussuperior" unicode="&#x207a;" horiz-adv-x="409" 
d="M265 450v133h-147v15h147v135h15v-135h147v-15h-147v-133h-15z" />
    <glyph glyph-name="minussuperior" unicode="&#x207b;" horiz-adv-x="415" 
d="M118 611h315v-15h-315v15z" />
    <glyph glyph-name="equalsuperior" unicode="&#x207c;" horiz-adv-x="412" 
d="M420 631h-312v14h312v-14zM420 525h-312v15h312v-15z" />
    <glyph glyph-name="parenleftsuperior" unicode="&#x207d;" horiz-adv-x="261" 
d="M195 513q0 -52 12.5 -101.5t41.5 -86.5l-4 -4q-51 51 -74 99.5t-23 105.5q0 45 10 86t33 80t60.5 77t93.5 78l4 -4q-70 -57 -112 -137.5t-42 -192.5z" />
    <glyph glyph-name="parenrightsuperior" unicode="&#x207e;" horiz-adv-x="261" 
d="M239 642q0 -45 -10 -86t-33 -80t-61 -77t-94 -78l-3 4q71 57 112.5 137t41.5 192q0 53 -13 102.5t-42 86.5l5 4q51 -51 74 -99.5t23 -105.5z" />
    <glyph glyph-name="nsuperior" unicode="&#x207f;" horiz-adv-x="319" 
d="M141 400h-69l46 235l-51 -16l-2 6l118 41l8 -6l-10 -54l94 62q38 0 52 -17t8 -49l-35 -184l55 37l4 -5l-80 -59l-50 20l36 183q6 33 -23 33q-10 0 -21 -5t-26 -15l-16 -9z" />
    <glyph glyph-name="zeroinferior" unicode="&#x2080;" horiz-adv-x="362" 
d="M172 228q-23 -13 -41.5 -35t-31.5 -51t-20 -64t-7 -72q0 -63 17.5 -101t46.5 -49q23 13 41.5 35.5t32 51.5t21 63.5t7.5 72.5q0 64 -18.5 101.5t-47.5 47.5zM196 244q53 0 85.5 -40t32.5 -109q0 -35 -8.5 -71.5t-27.5 -69.5t-49 -59t-73 -40l-44 -14q-53 0 -84.5 40
t-31.5 109q0 35 8.5 71.5t27 69.5t48 59t71.5 40z" />
    <glyph glyph-name="oneinferior" unicode="&#x2081;" horiz-adv-x="293" 
d="M33 168l-3 8l169 62h11l-72 -377l85 -4v-7h-247v7l91 4l65 339z" />
    <glyph glyph-name="twoinferior" unicode="&#x2082;" horiz-adv-x="334" 
d="M262 -94v-10l-27 -46h-273l-2 7l123 101q63 51 94.5 95t31.5 95q0 32 -14 53.5t-41 26.5l-27 -7l-44 -86h-41l4 69l133 40q56 0 81 -25.5t25 -58.5q0 -28 -11.5 -52t-31.5 -46t-47 -43t-58 -43l-106 -70h231z" />
    <glyph glyph-name="threeinferior" unicode="&#x2083;" horiz-adv-x="291" 
d="M58 138h-38l5 66l133 40q44 0 64 -17t20 -40q0 -36 -34.5 -61.5t-87.5 -37.5q54 -5 79 -25.5t25 -52.5q0 -25 -12.5 -44t-32 -33t-42.5 -25t-45 -19l-99 -42h-37l12 59h137q24 17 33.5 35t9.5 41q0 26 -22 47.5t-71 23.5l-2 6l42 24q74 38 74 94q0 20 -11.5 34t-29.5 16
l-28 -8z" />
    <glyph glyph-name="fourinferior" unicode="&#x2084;" horiz-adv-x="329" 
d="M206 -21h74l-1 -11h-75l-23 -118h-71l23 118h-158l-4 9l223 258h92l-1 -7l-299 -248h149l16 85l71 37h8z" />
    <glyph glyph-name="fiveinferior" unicode="&#x2085;" horiz-adv-x="316" 
d="M34 49l108 61q33 0 53.5 -8t32 -20t16 -26.5t4.5 -27.5q0 -26 -12.5 -47t-33 -38.5t-45.5 -31t-49 -22.5l-94 -42h-38l13 59h131q24 18 37.5 40.5t13.5 49.5q0 29 -14 50.5t-48 21.5q-15 0 -29.5 -5t-31.5 -14l-22 -11l-6 3l63 194h204l-20 -56h-190z" />
    <glyph glyph-name="sixinferior" unicode="&#x2086;" horiz-adv-x="327" 
d="M104 -158q-45 0 -77 33t-32 90q0 48 21 92.5t59 81.5t90.5 64.5t115.5 41.5l2 -6q-91 -32 -140 -83.5t-63 -115.5l104 58q41 -4 61.5 -30t20.5 -63q0 -45 -24.5 -84t-78.5 -58zM133 -140q29 15 42.5 47.5t13.5 66.5q0 40 -14 61t-34 21q-10 0 -18.5 -3t-22.5 -11l-21 -11
q-5 -25 -5 -48q0 -106 59 -123z" />
    <glyph glyph-name="seveninferior" unicode="&#x2087;" horiz-adv-x="295" 
d="M13 235h263l5 -6l-241 -379h-54l1 6l252 322h-236z" />
    <glyph glyph-name="eightinferior" unicode="&#x2088;" horiz-adv-x="328" 
d="M216 163q0 26 -15 46t-47 22q-25 -11 -35.5 -29t-10.5 -38t14.5 -39.5t46.5 -47.5q23 15 35 38.5t12 47.5zM57 -50q0 -36 20.5 -63t47.5 -30q25 13 38 34t13 46q0 24 -19 47t-50 49q-22 -17 -36 -37t-14 -46zM97 -159q-22 0 -42.5 5.5t-36 16t-25 26.5t-9.5 37
q0 23 11 40.5t27.5 31t37 23.5t39.5 19q-25 22 -46 43.5t-21 51.5q0 38 30.5 61.5t72.5 34.5l45 13q45 0 75 -18t30 -49q0 -22 -10 -38.5t-26 -29.5t-35.5 -22t-37.5 -16q35 -31 57 -53t22 -52q0 -39 -31 -66t-83 -44z" />
    <glyph glyph-name="nineinferior" unicode="&#x2089;" horiz-adv-x="327" 
d="M-15 -152q91 32 140 83t63 116l-102 -58q-41 4 -63 31.5t-22 64.5q0 45 25 82.5t79 56.5l62 21q45 0 75.5 -33t30.5 -90q0 -49 -21 -93.5t-59 -81.5t-90.5 -64t-115.5 -41zM128 31q9 0 17.5 3t22.5 10l22 11q2 12 3 24t1 24q0 105 -59 124q-28 -15 -42 -44.5t-14 -67.5
q0 -42 14.5 -63t34.5 -21z" />
    <glyph glyph-name="parenleftinferior" unicode="&#x208d;" horiz-adv-x="261" 
d="M104 -38q0 -51 12.5 -100.5t41.5 -87.5l-4 -4q-51 51 -74.5 100t-23.5 106q0 45 10 86t33 80t61 77t94 78l4 -4q-71 -57 -112.5 -137.5t-41.5 -193.5z" />
    <glyph glyph-name="parenrightinferior" unicode="&#x208e;" horiz-adv-x="261" 
d="M148 92q0 -46 -10 -87t-33 -80t-61 -77t-94 -78l-4 4q71 57 113 137.5t42 192.5q0 53 -13 102.5t-42 86.5l5 4q51 -51 74 -99.5t23 -105.5z" />
    <glyph glyph-name="Euro" unicode="&#x20ac;" horiz-adv-x="608" 
d="M99 412q32 85 106 153.5t193 114.5l103 38q14 -3 31.5 -9t35.5 -13.5t34.5 -16t30.5 -17.5l-47 -71q-17 12 -39.5 24t-46 23t-47.5 21t-44 16q-101 -53 -152.5 -121t-66.5 -142h318l-8 -11h-312q-2 -17 -3.5 -33t-1.5 -33v-15.5t1 -14.5h248l-7 -11h-240
q9 -109 61.5 -174t138.5 -94q20 8 43 18.5t45 21.5t42.5 22t35.5 19l4 -6q-19 -11 -37 -21.5t-42 -23.5t-56.5 -31t-80.5 -43q-48 1 -95.5 20.5t-85 56.5t-61 90t-23.5 122v11.5t1 11.5h-65l3 11h63q3 51 19 96h-65l3 11h66z" />
    <glyph glyph-name="afii61289" unicode="&#x2113;" horiz-adv-x="464" 
d="M68 9l40 229q-20 -8 -46.5 -18.5t-46.5 -18.5l4 18q18 8 45.5 18.5t47.5 19.5l64 363l179 100q28 -1 47 -11t30.5 -26t16.5 -35.5t5 -39.5q0 -51 -21 -99.5t-56 -92t-80.5 -79.5t-94.5 -60l-45 -255l195 76l4 -7l-221 -107zM207 295q74 39 111 117.5t37 180.5q0 15 -2 30
t-7 26.5t-13.5 19t-21.5 7.5q-11 0 -22 -7t-18 -12z" />
    <glyph glyph-name="afii61352" unicode="&#x2116;" horiz-adv-x="962" 
d="M721 112q-63 0 -101 39.5t-38 105.5q0 78 41 131.5t120 77.5l54 18q64 0 102 -39.5t38 -104.5q0 -78 -42 -133.5t-123 -78.5zM469 0h-85l-179 656l-116 -656h-99l2 10l85 6l118 668l-86 6l1 10h185l173 -621l109 621h102l-1 -10l-88 -6zM772 465q-26 -3 -46.5 -20
t-34.5 -43.5t-21.5 -60t-7.5 -68.5q0 -60 22.5 -100t62.5 -43q25 3 46 20.5t35 44.5t22 61t8 70q0 63 -23.5 99.5t-62.5 39.5zM548 54h342l-3 -16h-342z" />
    <glyph glyph-name="trademark" unicode="&#x2122;" horiz-adv-x="923" 
d="M350 315h-186v8l53 4v364h-71l-48 -102h-8v111h335v-111h-8l-49 102h-70v-364l52 -4v-8zM833 669l-143 -357h-40l-152 366v-351l42 -4v-8h-95v8l41 4v362l-41 4v7h130l134 -308l125 308h124v-7l-43 -4v-362l43 -4v-8h-161v8l36 4v342z" />
    <glyph glyph-name="uni2126" unicode="&#x2126;" horiz-adv-x="692" 
d="M276 148q-47 6 -91 25t-78.5 51.5t-55.5 79t-21 106.5q0 114 76 190.5t250 114.5q68 0 124.5 -22t97 -60.5t62.5 -90t22 -109.5q0 -64 -18 -111.5t-51 -81.5t-78 -56t-99 -35v-83h192l38 107h10v-173h-261v159q22 4 47 18t46.5 43t35.5 76t14 117q0 62 -15 112.5
t-42 86.5t-64 56t-82 20q-42 0 -75.5 -19.5t-57 -53t-36 -79.5t-12.5 -99q0 -61 12 -110t32 -85t46 -57t54 -25v-160h-261v173h10l35 -107h194v82z" />
    <glyph glyph-name="estimated" unicode="&#x212e;" horiz-adv-x="855" 
d="M750 220q-26 -51 -61.5 -88.5t-82 -65.5t-105.5 -47t-132 -34q-71 0 -126.5 22t-93 62t-56 95t-15.5 121q3 85 23.5 154.5t69.5 123t131.5 91.5t210.5 61q70 0 124.5 -24t89.5 -67.5t49.5 -105t5.5 -135.5l-9 -51h-598l-11 -87q8 -106 62.5 -168t150.5 -62q46 0 86.5 15
t74.5 42t61 64.5t46 83.5h105zM184 385h491l14 76q-3 51 -18 92.5t-41 70t-62 44t-79 15.5q-102 0 -171 -49.5t-113 -129.5z" />
    <glyph glyph-name="arrowleft" unicode="&#x2190;" horiz-adv-x="610" 
d="M107 280l213 -195v-40l-270 250l270 250v-40l-213 -195h453v-30h-453z" />
    <glyph glyph-name="arrowup" unicode="&#x2191;" horiz-adv-x="600" 
d="M285 493l-195 -213h-40l250 270l250 -270h-40l-195 213v-453h-30v453z" />
    <glyph glyph-name="arrowright" unicode="&#x2192;" horiz-adv-x="610" 
d="M50 310h453l-213 195v40l270 -250l-270 -250v40l213 195h-453v30z" />
    <glyph glyph-name="arrowdown" unicode="&#x2193;" horiz-adv-x="600" 
d="M315 550v-453l195 213h40l-250 -270l-250 270h40l195 -213v453h30z" />
    <glyph glyph-name="uni2196" unicode="&#x2196;" horiz-adv-x="471" 
d="M400 104l-322 320v-289l-28 -28v368h369l-29 -28h-289l320 -322z" />
    <glyph glyph-name="uni2197" unicode="&#x2197;" horiz-adv-x="471" 
d="M370 447h-289l-29 28h369v-368l-28 28v289l-322 -320l-21 21z" />
    <glyph glyph-name="uni2198" unicode="&#x2198;" horiz-adv-x="471" 
d="M71 460l322 -320v290l28 28v-368h-369l29 28h289l-320 321z" />
    <glyph glyph-name="uni2199" unicode="&#x2199;" horiz-adv-x="471" 
d="M101 118h289l29 -28h-369v368l28 -28v-290l322 320l21 -21z" />
    <glyph glyph-name="partialdiff" unicode="&#x2202;" 
d="M321 -15q-64 16 -109.5 44.5t-75 65t-43 80.5t-13.5 92q0 36 9.5 72t30 65t53 47t77.5 18l172 -95q-6 55 -22 104.5t-46 92.5t-76 78t-112 62l4 9q99 -28 169 -76.5t115 -109t66 -129.5t21 -138q0 -54 -14 -105t-41.5 -90.5t-69 -63t-95.5 -23.5zM299 11q31 0 54.5 23.5
t39.5 65t24 97.5t8 121q0 10 -0.5 20t-1.5 20l-28 15q-32 17 -56 24.5t-50 7.5q-44 0 -72 -46.5t-28 -135.5q0 -109 26.5 -160.5t83.5 -51.5z" />
    <glyph glyph-name="uni2206" unicode="&#x2206;" horiz-adv-x="696" 
d="M20 0v10l305 688l50 15l301 -702v-11h-656zM42 18h510l-248 602z" />
    <glyph glyph-name="product" unicode="&#x220f;" horiz-adv-x="722" 
d="M20 -160v10l79 6v828l-79 6v10h682v-10l-84 -6v-828l79 -6v-10h-263v10l79 6v830h-309v-830l79 -6v-10h-263z" />
    <glyph glyph-name="summation" unicode="&#x2211;" 
d="M66 -160l-5 9l303 392l-289 445l5 14h474v-160h-10l-73 146h-275l239 -371v-9l-294 -381h350l57 108h10v-193h-492z" />
    <glyph glyph-name="minus" unicode="&#x2212;" 
d="M47 289h525v-24h-525v24z" />
    <glyph glyph-name="radical" unicode="&#x221a;" 
d="M-16 446l-55 7v10h161l150 -406l288 816h163l-7 -22h-148l-296 -835l-75 -32z" />
    <glyph glyph-name="infinity" unicode="&#x221e;" horiz-adv-x="770" 
d="M576 129q-29 0 -56.5 10.5t-51.5 26.5t-45 36t-38 38l-19 22l-56 -62q-26 -29 -58.5 -50t-68.5 -21q-33 0 -59.5 12t-45 33.5t-28.5 50t-10 61.5q0 54 34.5 98t120.5 86q31 0 59 -11t52.5 -28.5t46 -38t39.5 -39.5l15 -16l54 56q29 32 63.5 54.5t75.5 22.5q31 0 55.5 -12
t41 -32.5t25 -48.5t8.5 -60q0 -33 -8 -58.5t-26 -47t-47.5 -41.5t-72.5 -41zM597 213q21 0 40.5 5.5t35 17.5t25 30.5t9.5 45.5q0 44 -29 69t-90 25q-32 0 -67.5 -16t-67.5 -46l-29 -25l8 -8q15 -16 35.5 -33.5t42.5 -31.5t44.5 -23.5t42.5 -9.5zM189 192q32 0 64.5 14
t62.5 43l32 31l-1 1q-17 18 -36.5 36.5t-41 33.5t-44 25t-45.5 10q-54 0 -85 -24t-31 -70q0 -42 32 -71t93 -29z" />
    <glyph glyph-name="integral" unicode="&#x222b;" 
d="M299 495q9 47 34.5 85.5t62.5 63.5l109 71h62l-13 -79h-125q-14 -18 -21.5 -43.5t-13.5 -60.5l-95 -544q-17 -91 -96 -144l-114 -79h-50l15 85h118q12 19 18.5 43t11.5 56z" />
    <glyph glyph-name="approxequal" unicode="&#x2248;" 
d="M584 388h10l-38 -76l-95 -22l-378 63l-47 -77h-10l38 80l95 18l379 -60zM584 204h10l-38 -76l-95 -22l-378 63l-47 -77h-10l38 80l95 18l379 -60z" />
    <glyph glyph-name="notequal" unicode="&#x2260;" 
d="M216 138h-165v23h184l141 168h-325v24h345l106 127h30l-106 -127h142v-24h-162l-140 -168h302v-23h-321l-115 -138h-31z" />
    <glyph glyph-name="lessequal" unicode="&#x2264;" 
d="M50 24h520v-24h-520v24zM570 606v-26l-488 -221l488 -220v-26l-520 238v15z" />
    <glyph glyph-name="greaterequal" unicode="&#x2265;" 
d="M50 24h520v-24h-520v24zM570 366v-15l-520 -238v26l488 220l-488 221v26z" />
    <glyph glyph-name="lozenge" unicode="&#x25ca;" 
d="M338 48l172 256l-226 346l-172 -259zM298 700l42 16l233 -349l-245 -368l-47 -18l-234 349z" />
    <glyph glyph-name="commaaccent" unicode="&#xf6c3;" horiz-adv-x="435" 
d="M217 -129l-34 30l7 44h95l-12 -73l-115 -110l-9 2z" />
    <glyph glyph-name="asuperior" unicode="&#xf6e9;" horiz-adv-x="298" 
d="M140 520q0 -25 7.5 -45.5t27.5 -34.5l51 39l28 145q-11 7 -25.5 11.5t-25.5 4.5q-32 -20 -47.5 -52.5t-15.5 -67.5zM282 418l56 37l5 -5l-80 -59l-51 20l12 59l-94 -78q-28 13 -44 35t-16 58q0 52 35.5 93.5t92.5 66.5l51 23q16 0 38 -6t40 -16z" />
    <glyph glyph-name="bsuperior" unicode="&#xf6ea;" horiz-adv-x="300" 
d="M82 754l-2 6l119 34l10 -9l-34 -180l90 63q29 -9 47 -31t18 -63q0 -48 -30.5 -91t-81.5 -65l-65 -26q-23 2 -43 8.5t-40 19.5l67 346zM173 597l-31 -160q10 -10 24.5 -16t24.5 -6q19 9 32 23.5t20.5 31.5t10.5 36t3 36q0 64 -40 84z" />
    <glyph glyph-name="dsuperior" unicode="&#xf6eb;" horiz-adv-x="316" 
d="M215 411l12 59l-90 -78q-29 12 -48 37.5t-19 61.5q0 51 33.5 91.5t87.5 62.5l52 23q5 -1 10 -2.5t11 -3.5l19 104l-55 -12l-1 6l118 34l11 -9l-71 -367l56 37l5 -5l-80 -59zM228 480l28 145q-12 8 -27.5 12.5t-28.5 4.5q-29 -18 -43.5 -50t-14.5 -68q0 -26 9 -46t30 -37z
" />
    <glyph glyph-name="esuperior" unicode="&#xf6ec;" horiz-adv-x="272" 
d="M138 522q5 -35 25 -57.5t48 -33.5q14 8 36.5 20t36.5 20l5 -6q-17 -11 -34 -21.5t-37 -21.5l-51 -30q-19 2 -36.5 10t-31 21.5t-21.5 32t-8 42.5q0 47 28 85.5t88 60.5l62 23q24 -4 39 -19.5t15 -41.5q0 -9 -1.5 -18.5t-9.5 -21.5zM137 528l83 28q5 10 6.5 19.5t1.5 19.5
q0 19 -8.5 31t-22.5 16q-26 -15 -43 -41.5t-17 -61.5v-11z" />
    <glyph glyph-name="isuperior" unicode="&#xf6ed;" horiz-adv-x="182" 
d="M150 781l21 3l41 -3v-33l-12 -26l-19 -4l-45 4l2 30zM74 411l44 224l-51 -16l-2 6l118 41l8 -6l-47 -242l57 37l4 -5l-81 -59z" />
    <glyph glyph-name="lsuperior" unicode="&#xf6ee;" horiz-adv-x="186" 
d="M85 411l68 355l-54 -12l-2 6l118 34l11 -9l-71 -367l56 37l4 -5l-80 -59z" />
    <glyph glyph-name="msuperior" unicode="&#xf6ef;" horiz-adv-x="466" 
d="M376 411l35 184q6 32 -19 32q-9 0 -18.5 -5t-23.5 -14l-20 -13l-39 -195h-68l37 195q6 32 -19 32q-9 0 -18.5 -5t-23.5 -14l-20 -13l-38 -195h-69l46 235l-51 -16l-2 6l118 41l8 -6l-11 -56l92 64q35 0 49 -15t11 -43l-1 -7l92 65q37 0 50.5 -17t8.5 -49l-37 -184l57 37
l4 -5l-81 -59z" />
    <glyph glyph-name="osuperior" unicode="&#xf6f0;" horiz-adv-x="300" 
d="M199 649q-16 -8 -27 -22.5t-17.5 -33t-9.5 -39t-3 -39.5q0 -49 17.5 -74t40.5 -31q16 8 27 23t18 33.5t10 39.5t3 40q0 51 -16.5 74t-42.5 29zM228 668q42 0 72 -26t30 -79q0 -48 -26.5 -88.5t-83.5 -63.5l-47 -19q-43 0 -73 26.5t-30 79.5q0 48 27 87.5t83 62.5z" />
    <glyph glyph-name="rsuperior" unicode="&#xf6f1;" horiz-adv-x="234" 
d="M72 400l46 235l-51 -16l-2 6l118 41l8 -6l-22 -114l84 116h41l-13 -68h-66l-49 -63l-25 -131h-69z" />
    <glyph glyph-name="ssuperior" unicode="&#xf6f2;" horiz-adv-x="218" 
d="M111 392q-15 5 -35.5 13t-30.5 13l30 45q19 -11 40 -23t50 -24q13 4 19.5 12t6.5 17q0 13 -6 21.5t-20 19.5l-53 39q-33 22 -33 53q0 19 15 37t51 32l51 21q14 -2 30.5 -7.5t36.5 -13.5l-31 -45q-19 11 -41 22.5t-43 19.5q-10 -5 -14.5 -12.5t-4.5 -15.5q0 -22 21 -36
l54 -39q21 -16 28.5 -30t7.5 -32q0 -24 -17 -40t-43 -24z" />
    <glyph glyph-name="tsuperior" unicode="&#xf6f3;" horiz-adv-x="180" 
d="M213 454l4 -5l-97 -58l-50 20l46 236h-38l2 8h37l5 25l66 51h12l-15 -76h60l-2 -8h-59l-45 -231z" />
    <glyph glyph-name="apple" unicode="&#xf8ff;" horiz-adv-x="685" 
d="M635 460l-3 -41l-8 -35l-12 -31l-3 -156l-21 -7l-50 70l-27 -7l-19 -140l-32 4l-7 -4l-4 -94l30 -19l16 -14l-3 -15l-30 1l-24 18h-14l-8 8l7 76l-4 47l-61 1l-3 -52l-2 -56v-20l-15 -6l-8 6l-30 -10h-32l-1 11l11 11l50 21l-6 96l-98 -6l-147 140l-4 115l-13 10l-10 36
v26l15 8l-3 78l92 -62l9 47l10 36l22 35l28 35l39 29l40 15l38 14h22l-68 22l4 17h7l79 -20l-4 51l16 12h32l19 -5l29 -25l32 -8l32 -10l15 -13v-20l-20 -31l30 -28l28 -32l18 -34l15 -41zM525 399l-4 7h-205l-66 -3l-7 -9l-6 -44l-48 20l-11 -4l57 -27l1 -45l-5 -73v-91
l18 4l2 40l41 -3l3 9l-44 6v16l48 -6l1 9l-47 7l1 22l43 -3l3 6l-45 9l3 94h74l11 10h-79l2 9h74l8 7h-82l2 22l117 4l140 -4v11zM206 569l29 12l13 -15l-17 -20l-10 -3l17 -3h5l36 24h32l18 -12l8 3l4 14l7 5l10 -4v-18h8l10 22l11 8l-5 6l-3 8l1 21l-30 -10l-10 -8l-8 5
l4 21l14 10l11 11l38 -2l12 13l-4 8h-49l-45 -13l-53 -26l-29 -23zM616 465l-8 37l-19 50l-20 36l-23 28l-34 21h-11l17 -19l25 -10l11 -11l3 -33l-25 13l-15 -29l12 -8v-19l15 3l-12 26l15 -5l10 -20l-5 -12l-8 -7h-23l-3 11l-12 2l1 -22h-14l14 -18l-7 -10l-21 5l-3 -27
l41 6l8 17l22 -2l6 -28l-16 -13v-15l8 -6l18 12h23l6 11l-18 6l-5 9l9 42h7l14 -20zM102 434l57 -32l7 10l-68 38v18l59 -34l43 -28l28 -14l3 10l-103 64l-13 7l-41 33l2 -78l19 -17v-5h-21l19 -14l1 -11l-20 7l18 -18l-4 -7l3 -97l11 -12v180zM511 331l-54 1l-1 -24v-6
l-2 -31l19 -3l-8 -61l-48 3l-8 -6l51 -5l-2 -9h-49l-4 -5l53 -7l-6 -35l27 -1l12 79l4 36l-15 3l-1 8l20 1l5 3l-28 16l2 5l30 -6l-30 15l5 5l21 -5l4 10zM206 331l-66 39v-7l-2 -13l1 -27v-48l64 -44l-1 60zM380 214l-64 4v-51l64 -6v53zM532 306l8 -6l8 2l20 15l13 13
l11 18l-7 5h-14l-10 3l-14 7l-17 -3q-2 -13 -3 -24q-2 -9 -2.5 -17t-0.5 -7zM428 585l5 -6l19 11l8 -2l6 -24h13l6 6l-9 18l17 28l-15 9v5l-25 7v-20l-13 -5v-9l-9 -6zM433 336l4 30l-54 5l-3 -35h53zM366 455l-7 -11h-12l-5 7l11 8l-15 2v6l-23 4l3 -17l8 -14l20 -9l13 -1
l18 10l6 9l5 20l-30 2l7 -5zM589 312l-6 -3l-33 -27l39 -48v78zM244 454l1 4l14 2l-13 6l2 7l-20 -1l3 -19l14 -15l12 -6l11 5l16 12l6 12l2 13l-22 -4l6 -10l-12 -13l-14 -1zM394 281l-72 7l-6 -13l78 -4v10zM206 203l-74 50l20 -23l50 -41zM394 312h-73v-10h73v10z
M384 256l-68 4v-10h68v6zM515 359h-48v-13l44 4zM351 520l-4 -12l49 -17l3 4zM214 498l59 12l-4 12zM414 642l-8 -9v-19l12 -6l3 17zM491 530l-8 -4v-9l8 -3l2 7zM564 386l5 7v7l-10 -4v-10h5z" />
    <glyph glyph-name="AE.sc" horiz-adv-x="728" 
d="M136 0h-151l1 11l60 6l354 495h350l-23 -137h-10l-35 124h-182l-41 -244h95l55 90h8l-33 -192h-8l-24 89h-95l-39 -229h191l78 129h9l-24 -142h-406v11l60 6l37 224h-135l-158 -224l67 -6zM238 255h128l40 239z" />
    <glyph glyph-name="AEacute.002" horiz-adv-x="880" 
d="M163 0h-189l1 10l78 6l434 684h423l-29 -182h-10l-41 168h-233l-52 -340h124l65 118h9l-40 -250h-9l-27 118h-124l-47 -318h243l93 173h10l-30 -187h-495v10l77 6l47 315h-165l-196 -315l84 -6zM286 346h158l50 334zM636 850h93l-156 -107h-15z" />
    <glyph glyph-name="AEacute.sc" horiz-adv-x="728" 
d="M136 0h-151l1 11l60 6l354 495h350l-23 -137h-10l-35 124h-182l-41 -244h95l55 90h8l-33 -192h-8l-24 89h-95l-39 -229h191l78 129h9l-24 -142h-406v11l60 6l37 224h-135l-158 -224l67 -6zM238 255h128l40 239zM549 661h78l-106 -105h-13z" />
    <glyph glyph-name="Aacute.002" horiz-adv-x="677" 
d="M446 248h-238l-128 -232l84 -6l-1 -10h-189l1 10l78 6l374 669l83 25l61 -694l76 -6l-1 -10h-269l1 10l85 6zM216 263h229l-27 365zM513 850h93l-155 -107h-16z" />
    <glyph glyph-name="Aacute.sc" horiz-adv-x="566" 
d="M363 178h-192l-101 -161l67 -6l-1 -11h-151l1 11l60 6l303 477l76 27l51 -504l59 -6l-1 -11h-227l2 11l68 6zM181 193h181l-21 253zM416 660h79l-107 -105h-12z" />
    <glyph glyph-name="Abreve.002" horiz-adv-x="677" 
d="M446 248h-238l-128 -232l84 -6l-1 -10h-189l1 10l78 6l374 669l83 25l61 -694l76 -6l-1 -10h-269l1 10l85 6zM216 263h229l-27 365zM461 789q26 0 48.5 7t41 17.5t32 22t22.5 21.5l7 -6q-11 -17 -23.5 -32t-29.5 -29t-40.5 -27t-55.5 -25q-30 0 -52.5 10.5t-39 27
t-27 36.5t-17.5 40l10 6q6 -10 16.5 -22t26 -22.5t35.5 -17.5t46 -7z" />
    <glyph glyph-name="Abreve.sc" horiz-adv-x="566" 
d="M363 178h-192l-101 -161l67 -6l-1 -11h-151l1 11l60 6l303 477l76 27l51 -504l59 -6l-1 -11h-227l2 11l68 6zM181 193h181l-21 253zM396 602q21 0 39 5.5t32.5 14t25.5 17.5t18 17l6 -6q-8 -15 -18 -28t-24 -24t-33 -22t-44 -21q-25 0 -43.5 8t-32 21.5t-22.5 30
t-14 33.5l8 7q5 -8 14 -17t21.5 -17t29 -13.5t37.5 -5.5z" />
    <glyph glyph-name="Acircumflex.002" horiz-adv-x="677" 
d="M446 248h-238l-128 -232l84 -6l-1 -10h-189l1 10l78 6l374 669l83 25l61 -694l76 -6l-1 -10h-269l1 10l85 6zM216 263h229l-27 365zM361 743h-15l149 117h23l89 -117h-16l-94 59h-4z" />
    <glyph glyph-name="Acircumflex.sc" horiz-adv-x="566" 
d="M363 178h-192l-101 -161l67 -6l-1 -11h-151l1 11l60 6l303 477l76 27l51 -504l59 -6l-1 -11h-227l2 11l68 6zM181 193h181l-21 253zM294 556h-13l128 110h24l75 -110h-12l-83 62h-4z" />
    <glyph glyph-name="Adieresis.002" horiz-adv-x="677" 
d="M446 248h-238l-128 -232l84 -6l-1 -10h-189l1 10l78 6l374 669l83 25l61 -694l76 -6l-1 -10h-269l1 10l85 6zM216 263h229l-27 365zM586 852l40 -5l-1 -42l-16 -36l-34 -5l-43 5l1 43l18 35zM405 852l41 -5l-1 -42l-17 -36l-34 -5l-42 5l1 43l17 35z" />
    <glyph glyph-name="Adieresis.sc" horiz-adv-x="566" 
d="M181 193h-15l-4 -15h9l-101 -161l67 -6l-1 -11h-151l1 11l60 6l303 477l76 27l51 -504l59 -6l-1 -11h-227l2 11l68 6l-14 161h13v15h-14l-21 253zM341 642l32 -4l-1 -37l-14 -32l-32 -4l-34 4l1 38l15 31zM494 642l31 -4l-1 -37l-14 -32l-32 -4l-33 4v38l15 31zM181 193
h181l1 -15h-192z" />
    <glyph glyph-name="Agrave.002" horiz-adv-x="677" 
d="M446 248h-238l-128 -232l84 -6l-1 -10h-189l1 10l78 6l374 669l83 25l61 -694l76 -6l-1 -10h-269l1 10l85 6zM216 263h229l-27 365zM474 743l-110 107h89l37 -107h-16z" />
    <glyph glyph-name="Agrave.sc" horiz-adv-x="566" 
d="M363 178h-192l-101 -161l67 -6l-1 -11h-151l1 11l60 6l303 477l76 27l51 -504l59 -6l-1 -11h-227l2 11l68 6zM181 193h181l-21 253zM395 556l-93 105h76l28 -105h-11z" />
    <glyph glyph-name="Amacron.002" horiz-adv-x="677" 
d="M446 248h-238l-128 -232l84 -6l-1 -10h-189l1 10l78 6l374 669l83 25l61 -694l76 -6l-1 -10h-269l1 10l85 6zM216 263h229l-27 365zM350 803h285l-5 -25h-285z" />
    <glyph glyph-name="Amacron.sc" horiz-adv-x="566" 
d="M363 178h-192l-101 -161l67 -6l-1 -11h-151l1 11l60 6l303 477l76 27l51 -504l59 -6l-1 -11h-227l2 11l68 6zM181 193h181l-21 253zM292 621h233l-6 -36h-233z" />
    <glyph glyph-name="Aogonek.001" horiz-adv-x="677" 
d="M489 -177q-89 0 -123.5 21.5t-25.5 63.5l6 27l118 80l-18 233h-238l-128 -232l84 -6l-1 -10h-189l1 10l78 6l374 669l83 25l61 -694l76 -6l-1 -10h-181l-65 -81l-5 -19q-5 -18 1 -31t19.5 -21t33 -12t42.5 -4zM216 263h229l-27 365z" />
    <glyph glyph-name="Aogonek.sc" horiz-adv-x="566" 
d="M400 -179q-80 0 -109.5 18.5t-21.5 55.5l7 39l102 80l-14 164h-193l-101 -161l67 -6l-1 -11h-151l1 11l60 6l303 477l76 27l51 -504l59 -6l-1 -11h-154l-55 -83l-7 -34q-5 -25 15 -40t68 -15zM181 193h181l-21 253z" />
    <glyph glyph-name="Aring.002" horiz-adv-x="677" 
d="M446 248h-238l-128 -232l84 -6l-1 -10h-189l1 10l78 6l374 669l83 25l61 -694l76 -6l-1 -10h-269l1 10l85 6zM216 263h229l-27 365zM550 786q0 -18 -6.5 -29t-18 -18.5t-26 -12.5t-29.5 -10q-14 0 -28.5 3.5t-26 11.5t-18.5 21t-7 32q0 17 6.5 28t17.5 18.5t25.5 13
t29.5 10.5q15 0 29.5 -3.5t26 -11.5t18.5 -21t7 -32zM418 784q0 -22 14.5 -36t36.5 -14t37 14t15 36t-15 37t-37 15t-36.5 -15t-14.5 -37z" />
    <glyph glyph-name="Aring.sc" horiz-adv-x="566" 
d="M363 178h-192l-101 -161l67 -6l-1 -11h-151l1 11l60 6l303 477l76 27l51 -504l59 -6l-1 -11h-227l2 11l68 6zM181 193h181l-21 253zM487 618q0 -17 -7 -29t-19 -20.5t-27.5 -14.5t-32.5 -11q-16 0 -31.5 4t-28 12.5t-20 22.5t-7.5 35q0 34 25.5 49.5t60.5 26.5
q34 0 60.5 -16.5t26.5 -58.5zM339 618q0 -26 17 -41t44 -15t44.5 15t17.5 41q0 25 -17.5 40.5t-44.5 15.5t-44 -15.5t-17 -40.5z" />
    <glyph glyph-name="Aringacute.002" horiz-adv-x="677" 
d="M446 248h-238l-128 -232l84 -6l-1 -10h-189l1 10l78 6l374 669l83 25l61 -694l76 -6l-1 -10h-269l1 10l85 6zM216 263h229l-27 365zM553 785q0 -18 -6.5 -29t-18 -18.5t-26 -12.5t-29.5 -10q-14 0 -28.5 3.5t-26 12t-18.5 21.5t-7 31t7 29.5t18.5 19.5t26 12.5t29.5 9.5
q19 0 40 -8l8 13h72l-51 -38q10 -15 10 -36zM421 784q0 -22 14.5 -36t36.5 -14t37 14t15 36t-15 37t-37 15t-36.5 -15t-14.5 -37z" />
    <glyph glyph-name="Aringacute.sc" horiz-adv-x="566" 
d="M363 178h-192l-101 -161l67 -6l-1 -11h-151l1 11l60 6l303 477l76 27l51 -504l59 -6l-1 -11h-227l2 11l68 6zM181 193h181l-21 253zM400 543q-16 0 -31.5 4t-28 12.5t-20 22.5t-7.5 35q0 34 26 49.5t60 26.5l24 33h72l-59 -39q23 -6 36.5 -22t13.5 -47q0 -17 -7 -29
t-19 -20.5t-27.5 -14.5t-32.5 -11zM339 618q0 -26 16.5 -41t44.5 -15q26 0 43.5 15t17.5 41q0 25 -17.5 40.5t-43.5 15.5q-28 0 -44.5 -15.5t-16.5 -40.5z" />
    <glyph glyph-name="Atilde.002" horiz-adv-x="681" 
d="M446 248h-238l-128 -232l84 -6l-1 -10h-189l1 10l78 6l374 669l83 25l61 -694l76 -6l-1 -10h-269l1 10l85 6zM216 263h229l-27 365zM379 836l57 18l163 -74l51 72h8l-56 -94l-58 -17l-163 75l-49 -74h-8z" />
    <glyph glyph-name="Atilde.sc" horiz-adv-x="570" 
d="M363 178h-192l-101 -161l67 -6l-1 -11h-151l1 11l60 6l303 477l76 27l51 -504l59 -6l-1 -11h-227l2 11l68 6zM181 193h181l-21 253zM307 646l44 12l141 -55l43 55h9l-44 -90l-44 -12l-141 58l-42 -56h-8z" />
    <glyph glyph-name="B.sc" horiz-adv-x="493" 
d="M270 22q50 23 72 59.5t22 73.5q0 21 -7 41t-21.5 35t-35.5 24t-48 9h-51l-41 -242h110zM6 0v11l60 6l81 479l-56 5v11h222q75 0 116 -28.5t41 -74.5q0 -43 -37 -77t-109 -48l-40 -8q94 -2 140 -34.5t46 -79.5q0 -30 -13 -52.5t-35 -39.5t-50.5 -29t-58.5 -21l-65 -20
h-242zM240 497l-37 -219h38q17 0 39.5 8t43 24t34.5 39.5t14 54.5q-1 93 -97 93h-35z" />
    <glyph glyph-name="C.sc" horiz-adv-x="516" 
d="M321 496q-79 -26 -122 -92.5t-43 -155.5q0 -96 45.5 -155t118.5 -76q24 8 52 19.5t41 19.5l72 116h11l-27 -133l-185 -52q-51 0 -93.5 16t-73 45t-47.5 69.5t-17 88.5q0 43 14 87.5t43 84.5t74.5 72t108.5 51l79 24q49 0 83.5 -9.5t57.5 -20.5l-11 -144h-10l-36 109
q-23 13 -55.5 22.5t-79.5 13.5z" />
    <glyph glyph-name="Cacute.002" horiz-adv-x="604" 
d="M482 850h93l-155 -107h-16zM374 687q-50 -19 -89 -54t-66 -81.5t-41 -102.5t-14 -119q0 -140 55.5 -219t147.5 -99q15 6 33 14t35 16.5t31.5 16.5t22.5 14l86 145h11l-33 -166l-222 -70q-62 0 -113.5 22t-88.5 61.5t-58 94.5t-21 121q0 60 16.5 120.5t52 115t90 99
t129.5 71.5l91 31q63 0 107.5 -16t72.5 -33l-9 -176h-11l-45 136q-28 20 -69 36.5t-101 21.5z" />
    <glyph glyph-name="Cacute.sc" horiz-adv-x="516" 
d="M398 661h78l-106 -105h-13zM321 496q-79 -26 -122 -92.5t-43 -155.5q0 -96 45.5 -155t118.5 -76q24 8 52 19.5t41 19.5l72 116h11l-27 -133l-185 -52q-51 0 -93.5 16t-73 45t-47.5 69.5t-17 88.5q0 43 14 87.5t43 84.5t74.5 72t108.5 51l79 24q49 0 83.5 -9.5t57.5 -20.5
l-11 -144h-10l-36 109q-23 13 -55.5 22.5t-79.5 13.5z" />
    <glyph glyph-name="Ccaron.002" horiz-adv-x="604" 
d="M439 796h4l132 62h15l-148 -118h-25l-88 118h15zM374 687q-50 -19 -89 -54t-66 -81.5t-41 -102.5t-14 -119q0 -140 55.5 -219t147.5 -99q15 6 33 14t35 16.5t31.5 16.5t22.5 14l86 145h11l-33 -166l-222 -70q-62 0 -113.5 22t-88.5 61.5t-58 94.5t-21 121
q0 60 16.5 120.5t52 115t90 99t129.5 71.5l91 31q63 0 107.5 -16t72.5 -33l-9 -176h-11l-45 136q-28 20 -69 36.5t-101 21.5z" />
    <glyph glyph-name="Ccaron.sc" horiz-adv-x="516" 
d="M371 605l115 61h12l-127 -110h-24l-75 110h12l83 -61h4zM321 496q-79 -26 -122 -92.5t-43 -155.5q0 -96 45.5 -155t118.5 -76q24 8 52 19.5t41 19.5l72 116h11l-27 -133l-185 -52q-51 0 -93.5 16t-73 45t-47.5 69.5t-17 88.5q0 43 14 87.5t43 84.5t74.5 72t108.5 51
l79 24q49 0 83.5 -9.5t57.5 -20.5l-11 -144h-10l-36 109q-23 13 -55.5 22.5t-79.5 13.5z" />
    <glyph glyph-name="Ccedilla.001" horiz-adv-x="604" 
d="M374 687q-50 -19 -89 -54t-66 -81.5t-41 -102.5t-14 -119q0 -140 55.5 -219t147.5 -99q15 6 33 14t35 16.5t31.5 16.5t22.5 14l86 145h11l-33 -166l-218 -69l-22 -21q32 -2 52 -15.5t20 -36.5q0 -14 -9 -25t-23 -19t-31 -13.5t-32 -9.5l-75 -21h-28l34 34h87
q10 6 16.5 14t6.5 21q0 20 -18 28t-48 10l54 53q-59 2 -108.5 25t-85 62.5t-55.5 93t-20 118.5q0 60 16.5 120.5t52 115t90 99t129.5 71.5l91 31q63 0 107.5 -16t72.5 -33l-9 -176h-11l-45 136q-28 20 -69 36.5t-101 21.5z" />
    <glyph glyph-name="Ccedilla.sc" horiz-adv-x="516" 
d="M321 496q-79 -26 -122 -92.5t-43 -155.5q0 -96 45.5 -155t118.5 -76q24 8 52 19.5t41 19.5l72 116h11l-27 -133l-185 -52h-7l-14 -18q30 -4 45 -19t15 -35q0 -15 -8 -26.5t-20.5 -19.5t-27.5 -14.5t-28 -11.5l-63 -22h-21l25 35h65q13 7 21 16t8 23q0 23 -12.5 31
t-32.5 10l38 52q-48 3 -87 20t-67.5 45.5t-44 67t-15.5 85.5q0 43 14 87.5t43 84.5t74.5 72t108.5 51l79 24q49 0 83.5 -9.5t57.5 -20.5l-11 -144h-10l-36 109q-23 13 -55.5 22.5t-79.5 13.5z" />
    <glyph glyph-name="Ccircumflex.002" horiz-adv-x="604" 
d="M322 743h-15l149 117h23l89 -117h-16l-94 59h-4zM374 687q-50 -19 -89 -54t-66 -81.5t-41 -102.5t-14 -119q0 -140 55.5 -219t147.5 -99q15 6 33 14t35 16.5t31.5 16.5t22.5 14l86 145h11l-33 -166l-222 -70q-62 0 -113.5 22t-88.5 61.5t-58 94.5t-21 121
q0 60 16.5 120.5t52 115t90 99t129.5 71.5l91 31q63 0 107.5 -16t72.5 -33l-9 -176h-11l-45 136q-28 20 -69 36.5t-101 21.5z" />
    <glyph glyph-name="Ccircumflex.sc" horiz-adv-x="516" 
d="M276 556h-12l127 110h25l75 -110h-13l-83 62h-4zM321 496q-79 -26 -122 -92.5t-43 -155.5q0 -96 45.5 -155t118.5 -76q24 8 52 19.5t41 19.5l72 116h11l-27 -133l-185 -52q-51 0 -93.5 16t-73 45t-47.5 69.5t-17 88.5q0 43 14 87.5t43 84.5t74.5 72t108.5 51l79 24
q49 0 83.5 -9.5t57.5 -20.5l-11 -144h-10l-36 109q-23 13 -55.5 22.5t-79.5 13.5z" />
    <glyph glyph-name="Cdotaccent.002" horiz-adv-x="604" 
d="M413 848l40 5l44 -5v-45l-18 -39l-38 -5l-48 5l3 46zM374 687q-50 -19 -89 -54t-66 -81.5t-41 -102.5t-14 -119q0 -140 55.5 -219t147.5 -99q15 6 33 14t35 16.5t31.5 16.5t22.5 14l86 145h11l-33 -166l-222 -70q-62 0 -113.5 22t-88.5 61.5t-58 94.5t-21 121
q0 60 16.5 120.5t52 115t90 99t129.5 71.5l91 31q63 0 107.5 -16t72.5 -33l-9 -176h-11l-45 136q-28 20 -69 36.5t-101 21.5z" />
    <glyph glyph-name="Cdotaccent.sc" horiz-adv-x="516" 
d="M360 645l33 4l41 -4l-1 -41l-15 -36l-32 -4l-45 4l4 42zM321 496q-79 -26 -122 -92.5t-43 -155.5q0 -96 45.5 -155t118.5 -76q24 8 52 19.5t41 19.5l72 116h11l-27 -133l-185 -52q-51 0 -93.5 16t-73 45t-47.5 69.5t-17 88.5q0 43 14 87.5t43 84.5t74.5 72t108.5 51
l79 24q49 0 83.5 -9.5t57.5 -20.5l-11 -144h-10l-36 109q-23 13 -55.5 22.5t-79.5 13.5z" />
    <glyph glyph-name="D.sc" horiz-adv-x="544" 
d="M6 0v11l60 6l81 479l-56 5v11h220q50 0 92 -14.5t72 -40.5t47.5 -62.5t17.5 -80.5q0 -51 -14 -96.5t-41.5 -83t-69.5 -66t-97 -44.5l-78 -24h-234zM265 23q39 19 71 50t54 69t34 81.5t12 89.5q0 42 -10.5 76t-29 58t-44.5 37t-57 13h-55l-80 -474h105z" />
    <glyph glyph-name="Dcaron.002" horiz-adv-x="650" 
d="M386 796h4l132 62h15l-149 -118h-24l-88 118h15zM-6 0v10l77 6l101 668l-73 6v10h265q60 0 111.5 -21t88.5 -58t58.5 -88t21.5 -111q0 -63 -16.5 -124t-49.5 -113t-84 -92.5t-120 -62.5l-92 -30h-288zM314 23q50 26 90 67.5t67.5 93.5t43 112.5t15.5 125.5
q0 62 -13.5 111t-38 82.5t-58 51.5t-73.5 18h-73l-100 -662h140z" />
    <glyph glyph-name="Dcaron.sc" horiz-adv-x="544" 
d="M313 605l115 61h12l-127 -110h-24l-75 110h12l83 -61h4zM-4 0v11l60 6l81 479l-56 5v11h220q50 0 92 -14.5t72.5 -40.5t47.5 -62.5t17 -80.5q0 -51 -14 -96.5t-41.5 -83t-69.5 -66t-97 -44.5l-78 -24h-234zM256 23q39 19 70.5 50t53.5 69t34 81.5t12 89.5q0 42 -10.5 76
t-29 58t-44.5 37t-57 13h-55l-80 -474h106z" />
    <glyph glyph-name="Dcroat.sc" horiz-adv-x="544" 
d="M-4 0v11l60 6l42 247h-66l2 10h65l38 222l-56 5v11h220q50 0 92 -14.5t72.5 -40.5t47.5 -62.5t17 -80.5q0 -51 -14 -96.5t-41.5 -83t-69.5 -66t-97 -44.5l-78 -24h-234zM256 23q39 19 70.5 50t53.5 69t34 81.5t12 89.5q0 42 -10.5 76t-29 58t-44.5 37t-57 13h-55
l-38 -223h93l-1 -10h-94l-40 -241h106z" />
    <glyph glyph-name="E.sc" horiz-adv-x="474" 
d="M6 11l60 6l81 479l-56 5v11h406l-24 -137h-10l-35 124h-188l-38 -224h97l54 90h9l-34 -193h-8l-24 90h-95l-42 -249h197l77 129h10l-25 -142h-412v11z" />
    <glyph glyph-name="Eacute.002" horiz-adv-x="563" 
d="M421 850h93l-156 -107h-15zM-6 10l77 6l101 668l-73 6v10h494l-29 -182h-10l-41 168h-239l-47 -313h124l65 119h9l-40 -250h-9l-28 118h-123l-52 -346h248l93 173h10l-30 -187h-500v10z" />
    <glyph glyph-name="Eacute.sc" horiz-adv-x="474" 
d="M351 661h78l-107 -105h-12zM6 11l60 6l81 479l-56 5v11h406l-24 -137h-10l-35 124h-188l-38 -224h97l54 90h9l-34 -193h-8l-24 90h-95l-42 -249h197l77 129h10l-25 -142h-412v11z" />
    <glyph glyph-name="Ebreve.002" horiz-adv-x="563" 
d="M387 789q25 0 47.5 7t41 17.5t32.5 22t23 21.5l7 -6q-21 -33 -53.5 -60.5t-95.5 -52.5q-30 0 -52.5 10.5t-39 27t-27 36.5t-17.5 40l9 6q6 -10 17 -22t26.5 -22.5t35.5 -17.5t46 -7zM-6 10l77 6l101 668l-73 6v10h494l-29 -182h-10l-41 168h-239l-47 -313h124l65 119h9
l-40 -250h-9l-28 118h-123l-52 -346h248l93 173h10l-30 -187h-500v10z" />
    <glyph glyph-name="Ebreve.sc" horiz-adv-x="474" 
d="M326 602q21 0 38.5 5.5t32 14t25.5 17.5t18 17l7 -6q-17 -30 -43 -52t-77 -43q-25 0 -43.5 8t-32 21.5t-22.5 30t-14 33.5l9 7q5 -8 14 -17t21.5 -17t29 -13.5t37.5 -5.5zM6 11l60 6l81 479l-56 5v11h406l-24 -137h-10l-35 124h-188l-38 -224h97l54 90h9l-34 -193h-8
l-24 90h-95l-42 -249h197l77 129h10l-25 -142h-412v11z" />
    <glyph glyph-name="Ecaron.002" horiz-adv-x="563" 
d="M391 796h4l132 62h15l-149 -118h-24l-88 118h15zM-6 10l77 6l101 668l-73 6v10h494l-29 -182h-10l-41 168h-239l-47 -313h124l65 119h9l-40 -250h-9l-28 118h-123l-52 -346h248l93 173h10l-30 -187h-500v10z" />
    <glyph glyph-name="Ecaron.sc" horiz-adv-x="474" 
d="M323 605l115 61h13l-128 -110h-23l-76 110h12l84 -61h3zM6 11l60 6l81 479l-56 5v11h406l-24 -137h-10l-35 124h-188l-38 -224h97l54 90h9l-34 -193h-8l-24 90h-95l-42 -249h197l77 129h10l-25 -142h-412v11z" />
    <glyph glyph-name="Ecircumflex.002" horiz-adv-x="563" 
d="M267 743h-16l149 117h23l89 -117h-16l-94 59h-4zM-6 10l77 6l101 668l-73 6v10h494l-29 -182h-10l-41 168h-239l-47 -313h124l65 119h9l-40 -250h-9l-28 118h-123l-52 -346h248l93 173h10l-30 -187h-500v10z" />
    <glyph glyph-name="Ecircumflex.sc" horiz-adv-x="474" 
d="M222 556h-12l127 110h24l75 -110h-12l-83 62h-4zM6 11l60 6l81 479l-56 5v11h406l-24 -137h-10l-35 124h-188l-38 -224h97l54 90h9l-34 -193h-8l-24 90h-95l-42 -249h197l77 129h10l-25 -142h-412v11z" />
    <glyph glyph-name="Edieresis.002" horiz-adv-x="563" 
d="M317 852l40 -5v-42l-17 -36l-34 -5l-42 5l1 43l17 35zM498 852l40 -5l-1 -42l-17 -36l-33 -5l-43 5l1 43l18 35zM-6 10l77 6l101 668l-73 6v10h494l-29 -182h-10l-41 168h-239l-47 -313h124l65 119h9l-40 -250h-9l-28 118h-123l-52 -346h248l93 173h10l-30 -187h-500v10z
" />
    <glyph glyph-name="Edieresis.sc" horiz-adv-x="474" 
d="M262 642l32 -4v-37l-15 -32l-32 -4l-33 4l1 38l14 31zM415 642l32 -4l-2 -37l-13 -32l-32 -4l-34 4l1 38l15 31zM6 11l60 6l81 479l-56 5v11h406l-24 -137h-10l-35 124h-188l-38 -224h97l54 90h9l-34 -193h-8l-24 90h-95l-42 -249h197l77 129h10l-25 -142h-412v11z" />
    <glyph glyph-name="Edotaccent.002" horiz-adv-x="563" 
d="M368 848l40 5l44 -5l-1 -45l-17 -39l-38 -5l-49 5l3 46zM-6 10l77 6l101 668l-73 6v10h494l-29 -182h-10l-41 168h-239l-47 -313h124l65 119h9l-40 -250h-9l-28 118h-123l-52 -346h248l93 173h10l-30 -187h-500v10z" />
    <glyph glyph-name="Edotaccent.sc" horiz-adv-x="474" 
d="M305 642l34 3l40 -4l-1 -42l-15 -35l-31 -4l-45 4l3 42zM6 11l60 6l81 479l-56 5v11h406l-24 -137h-10l-35 124h-188l-38 -224h97l54 90h9l-34 -193h-8l-24 90h-95l-42 -249h197l77 129h10l-25 -142h-412v11z" />
    <glyph glyph-name="Egrave.002" horiz-adv-x="563" 
d="M410 743l-110 107h90l36 -107h-16zM-6 10l77 6l101 668l-73 6v10h494l-29 -182h-10l-41 168h-239l-47 -313h124l65 119h9l-40 -250h-9l-28 118h-123l-52 -346h248l93 173h10l-30 -187h-500v10z" />
    <glyph glyph-name="Egrave.sc" horiz-adv-x="474" 
d="M338 556l-93 105h76l28 -105h-11zM6 11l60 6l81 479l-56 5v11h406l-24 -137h-10l-35 124h-188l-38 -224h97l54 90h9l-34 -193h-8l-24 90h-95l-42 -249h197l77 129h10l-25 -142h-412v11z" />
    <glyph glyph-name="Emacron.002" horiz-adv-x="563" 
d="M258 803h285l-5 -25h-285zM-6 10l77 6l101 668l-73 6v10h494l-29 -182h-10l-41 168h-239l-47 -313h124l65 119h9l-40 -250h-9l-28 118h-123l-52 -346h248l93 173h10l-30 -187h-500v10z" />
    <glyph glyph-name="Emacron.sc" horiz-adv-x="474" 
d="M214 621h233l-5 -36h-234zM6 11l60 6l81 479l-56 5v11h406l-24 -137h-10l-35 124h-188l-38 -224h97l54 90h9l-34 -193h-8l-24 90h-95l-42 -249h197l77 129h10l-25 -142h-412v11z" />
    <glyph glyph-name="Eng.001" horiz-adv-x="662" 
d="M619 684l-80 6v10h179v-10l-77 -6l-108 -684h1l-116 -172l-114 1l15 78h106l103 93h-58l-275 665l-102 -649l80 -6l-1 -10h-178v10l77 6l106 668l-73 6v10h187l241 -572z" />
    <glyph glyph-name="Eng.sc" horiz-adv-x="551" 
d="M514 496l-63 5v11h142v-11l-60 -5l-88 -496h-5l-93 -173h-99l16 78h81l90 95h-49l-220 475l-81 -458l63 -6l-1 -11h-141v11l60 6l85 479l-56 5v11h159l192 -399z" />
    <glyph glyph-name="Eogonek.001" horiz-adv-x="563" 
d="M-6 10l77 6l101 668l-73 6v10h494l-29 -182h-10l-41 168h-239l-47 -313h124l65 119h9l-40 -250h-9l-28 118h-123l-52 -346h248l93 173h10l-30 -187h-62l-62 -81l-5 -19q-5 -18 1 -31t20 -21t34 -12t43 -4l-1 -9q-90 0 -124.5 21.5t-25.5 63.5l6 22l91 70h-415v10z" />
    <glyph glyph-name="Eogonek.sc" horiz-adv-x="474" 
d="M6 11l60 6l81 479l-56 5v11h406l-24 -137h-10l-35 124h-188l-38 -224h97l54 90h9l-34 -193h-8l-24 90h-95l-42 -249h197l77 129h10l-25 -142h-49l-60 -83l-7 -34q-5 -25 15 -40t68 -15l-1 -7q-80 0 -109 18.5t-21 55.5l6 39l91 66h-345v11z" />
    <glyph glyph-name="Eth.sc" horiz-adv-x="544" 
d="M-8 0v11l60 6l42 247h-62l2 10h61l38 222l-56 5v11h219q50 0 92 -14.5t72.5 -40.5t47.5 -62.5t17 -80.5q0 -51 -13.5 -96.5t-41 -83t-69.5 -66t-97 -44.5l-79 -24h-233zM251 23q39 19 70.5 50t54 69t34.5 81.5t12 89.5q0 42 -10.5 76t-29.5 58t-44.5 37t-56.5 13h-55
l-38 -223h98l-2 -10h-98l-40 -241h105z" />
    <glyph glyph-name="Euro.sc" horiz-adv-x="552" 
d="M106 302q26 63 87 113.5t159 82.5l89 27q11 -2 25.5 -6.5t29 -10.5t28.5 -12t25 -12l-41 -63q-14 9 -32.5 19t-38.5 19t-40 16.5t-37 12.5q-79 -33 -118.5 -81t-50.5 -105h252l-8 -12h-247q-2 -10 -2 -20v-20v-12t1 -12h197l-8 -12h-188q9 -71 50 -119t110 -71
q15 4 33.5 11t36.5 14.5t34.5 15t28.5 13.5l4 -6q-15 -8 -29.5 -15.5t-34 -17.5t-46 -22.5t-65.5 -29.5q-42 1 -82.5 15.5t-72 42t-50.5 67t-19 89.5v13h-53l3 12h51q2 17 5.5 32.5t8.5 31.5h-53l3 12h55z" />
    <glyph glyph-name="Euro.tlf" 
d="M69 412q32 85 106 153.5t193 114.5l103 38q14 -3 31.5 -9t35.5 -13.5t34.5 -16t30.5 -17.5l-47 -71q-17 12 -39.5 24t-46 23t-47.5 21t-44 16q-101 -53 -152.5 -121t-66.5 -142h318l-8 -11h-312q-2 -17 -3.5 -33t-1.5 -33v-15.5t1 -14.5h248l-7 -11h-240
q9 -109 61.5 -174t138.5 -94q20 8 43 18.5t45 21.5t42.5 22t35.5 19l4 -6q-19 -11 -37 -21.5t-42 -23.5t-56.5 -31t-80.5 -43q-48 1 -95.5 20.5t-85 56.5t-61 90t-23.5 122v11.5t1 11.5h-65l3 11h63q3 51 19 96h-65l3 11h66z" />
    <glyph glyph-name="Euro.tlf.sc" 
d="M133 302q26 63 87 113.5t159 82.5l89 27q11 -2 25.5 -6.5t29 -10.5t28.5 -12t25 -12l-41 -63q-14 9 -32.5 19t-38.5 19t-40 16.5t-37 12.5q-79 -33 -118.5 -81t-50.5 -105h252l-8 -12h-247q-2 -10 -2 -20v-20v-12t1 -12h197l-8 -12h-188q9 -71 50 -119t110 -71
q15 4 33.5 11t36.5 14.5t34.5 15t28.5 13.5l4 -6q-15 -8 -29.5 -15.5t-34 -17.5t-46 -22.5t-65.5 -29.5q-42 1 -82.5 15.5t-72 42t-50.5 67t-19 89.5v13h-53l3 12h51q2 17 5.5 32.5t8.5 31.5h-53l3 12h55z" />
    <glyph glyph-name="F.sc" horiz-adv-x="454" 
d="M244 11v-11h-238v11l60 6l81 479l-56 5v11h406l-24 -137h-10l-35 124h-188l-39 -233h96l55 90h8l-33 -192h-8l-24 89h-96l-40 -236z" />
    <glyph glyph-name="G.sc" horiz-adv-x="533" 
d="M266 -13q-48 0 -87 17.5t-67 47.5t-43.5 69t-15.5 83q0 45 14 90.5t43.5 85.5t75 72t109.5 50l83 23q51 0 87.5 -12.5t59.5 -25.5l-14 -136h-10l-32 98q-25 17 -60 30.5t-90 16.5q-36 -15 -66 -40t-51.5 -57.5t-33.5 -70.5t-12 -80q0 -99 42.5 -155.5t113.5 -79.5
q22 6 44.5 15.5t30.5 14.5l29 176l-56 4v12h187v-12l-39 -4l-30 -178z" />
    <glyph glyph-name="Gbreve.002" horiz-adv-x="641" 
d="M443 789q26 0 48.5 7t41 17.5t32 22t22.5 21.5l7 -6q-11 -17 -23.5 -32t-29.5 -29t-40.5 -27t-55.5 -25q-30 0 -52.5 10.5t-39 27t-27 36.5t-17.5 40l10 6q6 -10 16.5 -22t26 -22.5t35.5 -17.5t46 -7zM313 -18q-59 0 -107.5 23.5t-83 64.5t-53.5 95t-19 116t17 124
t52.5 116.5t91 98.5t132.5 69l95 29q66 0 113 -20.5t75 -41.5l-17 -164h-10l-37 119q-29 26 -74 48.5t-117 27.5q-46 -21 -84 -55.5t-65.5 -80t-42.5 -101t-15 -118.5q0 -73 14.5 -128.5t40.5 -95t63 -64t82 -35.5q14 5 29.5 11.5t29.5 13.5t25 13t17 10l36 242l-72 7v10
h225v-10l-52 -7l-37 -246z" />
    <glyph glyph-name="Gbreve.sc" horiz-adv-x="533" 
d="M371 602q21 0 38.5 5.5t32 14t25.5 17.5t18 17l7 -6q-17 -30 -43 -52t-77 -43q-25 0 -43.5 8t-32 21.5t-22.5 30t-14 33.5l9 7q5 -8 14 -17t21.5 -17t29 -13.5t37.5 -5.5zM266 -13q-48 0 -87 17.5t-67 47.5t-43.5 69t-15.5 83q0 45 14 90.5t43.5 85.5t75 72t109.5 50
l83 23q51 0 87.5 -12.5t59.5 -25.5l-14 -136h-10l-32 98q-25 17 -60 30.5t-90 16.5q-36 -15 -66 -40t-51.5 -57.5t-33.5 -70.5t-12 -80q0 -99 42.5 -155.5t113.5 -79.5q22 6 44.5 15.5t30.5 14.5l29 176l-56 4v12h187v-12l-39 -4l-30 -178z" />
    <glyph glyph-name="Gcircumflex.002" horiz-adv-x="641" 
d="M332 743h-16l149 117h23l89 -117h-16l-94 59h-4zM313 -18q-59 0 -107.5 23.5t-83 64.5t-53.5 95t-19 116t17 124t52.5 116.5t91 98.5t132.5 69l95 29q66 0 113 -20.5t75 -41.5l-17 -164h-10l-37 119q-29 26 -74 48.5t-117 27.5q-46 -21 -84 -55.5t-65.5 -80t-42.5 -101
t-15 -118.5q0 -73 14.5 -128.5t40.5 -95t63 -64t82 -35.5q14 5 29.5 11.5t29.5 13.5t25 13t17 10l36 242l-72 7v10h225v-10l-52 -7l-37 -246z" />
    <glyph glyph-name="Gcircumflex.sc" horiz-adv-x="533" 
d="M278 556h-12l127 110h24l75 -110h-12l-83 62h-4zM266 -13q-48 0 -87 17.5t-67 47.5t-43.5 69t-15.5 83q0 45 14 90.5t43.5 85.5t75 72t109.5 50l83 23q51 0 87.5 -12.5t59.5 -25.5l-14 -136h-10l-32 98q-25 17 -60 30.5t-90 16.5q-36 -15 -66 -40t-51.5 -57.5
t-33.5 -70.5t-12 -80q0 -99 42.5 -155.5t113.5 -79.5q22 6 44.5 15.5t30.5 14.5l29 176l-56 4v12h187v-12l-39 -4l-30 -178z" />
    <glyph glyph-name="Gcommaaccent.001" horiz-adv-x="641" 
d="M302 -111l-38 26l5 32h96l-11 -57l-100 -71l-8 4zM313 -18q-59 0 -107.5 23.5t-83 64.5t-53.5 95t-19 116t17 124t52.5 116.5t91 98.5t132.5 69l95 29q66 0 113 -20.5t75 -41.5l-17 -164h-10l-37 119q-29 26 -74 48.5t-117 27.5q-46 -21 -84 -55.5t-65.5 -80t-42.5 -101
t-15 -118.5q0 -73 14.5 -128.5t40.5 -95t63 -64t82 -35.5q14 5 29.5 11.5t29.5 13.5t25 13t17 10l36 242l-72 7v10h225v-10l-52 -7l-37 -246z" />
    <glyph glyph-name="Gcommaaccent.sc" horiz-adv-x="533" 
d="M244 -98l-30 28l6 31h84l-10 -55l-98 -84l-9 2zM266 -13q-48 0 -87 17.5t-67 47.5t-43.5 69t-15.5 83q0 45 14 90.5t43.5 85.5t75 72t109.5 50l83 23q51 0 87.5 -12.5t59.5 -25.5l-14 -136h-10l-32 98q-25 17 -60 30.5t-90 16.5q-36 -15 -66 -40t-51.5 -57.5t-33.5 -70.5
t-12 -80q0 -99 42.5 -155.5t113.5 -79.5q22 6 44.5 15.5t30.5 14.5l29 176l-56 4v12h187v-12l-39 -4l-30 -178z" />
    <glyph glyph-name="Gdotaccent.002" horiz-adv-x="644" 
d="M422 848l40 5l44 -5l-1 -45l-17 -39l-38 -5l-49 5l3 46zM316 -18q-59 0 -107.5 23.5t-83 64.5t-53.5 95t-19 116t17 124t52.5 116.5t91 98.5t132.5 69l95 29q66 0 113 -20.5t75 -41.5l-17 -164h-10l-37 119q-29 26 -74 48.5t-117 27.5q-46 -21 -84 -55.5t-65.5 -80
t-42.5 -101t-15 -118.5q0 -73 14.5 -128.5t40.5 -95t63 -64t82 -35.5q14 5 29.5 11.5t29.5 13.5t25 13t17 10l36 242l-72 7v10h225v-10l-52 -7l-37 -246z" />
    <glyph glyph-name="Gdotaccent.sc" horiz-adv-x="533" 
d="M351 645l33 4l41 -4l-1 -41l-16 -36l-30 -4l-46 4l4 42zM266 -13q-48 0 -87 17.5t-67 47.5t-43.5 69t-15.5 83q0 45 14 90.5t43.5 85.5t75 72t109.5 50l83 23q51 0 87.5 -12.5t59.5 -25.5l-14 -136h-10l-32 98q-25 17 -60 30.5t-90 16.5q-36 -15 -66 -40t-51.5 -57.5
t-33.5 -70.5t-12 -80q0 -99 42.5 -155.5t113.5 -79.5q22 6 44.5 15.5t30.5 14.5l29 176l-56 4v12h187v-12l-39 -4l-30 -178z" />
    <glyph glyph-name="H.sc" horiz-adv-x="570" 
d="M606 501l-58 -5l-81 -479l59 -6v-11h-212v11l60 6l41 241h-215l-41 -241l60 -6v-11h-213v11l60 6l81 479l-55 5v11h206v-11l-58 -5l-38 -223h215l38 223l-56 5v11h207v-11z" />
    <glyph glyph-name="Hbar.sc" horiz-adv-x="570" 
d="M606 501l-58 -5l-81 -479l59 -6v-11h-212v11l60 6l41 241h-215l-41 -241l60 -6v-11h-213v11l60 6l81 479l-55 5v11h206v-11l-58 -5l-19 -110h215l19 110l-56 5v11h207v-11zM202 273h215l17 102h-215z" />
    <glyph glyph-name="Hcircumflex.002" horiz-adv-x="679" 
d="M726 690l-74 -6l-100 -668l76 -6v-10h-256v10l78 6l51 340h-276l-51 -340l76 -6v-10h-256v10l78 6l100 668l-73 6v10h249v-10l-74 -6l-47 -313h276l47 313l-73 6v10h249v-10zM308 743h-15l149 117h23l88 -117h-15l-95 59h-4z" />
    <glyph glyph-name="Hcircumflex.sc" horiz-adv-x="570" 
d="M606 501l-58 -5l-81 -479l59 -6v-11h-212v11l60 6l41 241h-215l-41 -241l60 -6v-11h-213v11l60 6l81 479l-55 5v11h206v-11l-58 -5l-38 -223h215l38 223l-56 5v11h207v-11zM267 556h-12l127 110h24l75 -110h-12l-83 62h-4z" />
    <glyph glyph-name="I.sc" horiz-adv-x="262" 
d="M298 501l-57 -5l-82 -479l60 -6v-11h-213v11l61 6l81 479l-57 5v11h207v-11z" />
    <glyph glyph-name="IJ.sc" horiz-adv-x="493" 
d="M6 11l60 6l81 479l-56 5v11h207v-11l-58 -5l-81 -479l59 -6v-11h-212v11zM213 -47h80q8 20 13.5 40.5t8.5 40.5l82 462l-57 5v11h207v-11l-57 -5l-71 -406q-4 -26 -13.5 -46t-21.5 -37t-26.5 -31t-29.5 -27l-88 -75h-42z" />
    <glyph glyph-name="Iacute.002" horiz-adv-x="301" 
d="M281 850h93l-155 -107h-16zM348 690l-74 -6l-100 -668l76 -6v-10h-256v10l78 6l100 668l-73 6v10h249v-10z" />
    <glyph glyph-name="Iacute.sc" horiz-adv-x="262" 
d="M234 661h78l-107 -105h-11zM298 501l-57 -5l-82 -479l60 -6v-11h-213v11l61 6l81 479l-57 5v11h207v-11z" />
    <glyph glyph-name="Ibreve.002" horiz-adv-x="301" 
d="M245 789q25 0 47.5 7t41 17.5t32.5 22t23 21.5l7 -6q-21 -33 -53.5 -60.5t-95.5 -52.5q-30 0 -52.5 10.5t-39 27t-27 36.5t-17.5 40l9 6q6 -10 17 -22t26.5 -22.5t35.5 -17.5t46 -7zM348 690l-74 -6l-100 -668l76 -6v-10h-256v10l78 6l100 668l-73 6v10h249v-10z" />
    <glyph glyph-name="Ibreve.sc" horiz-adv-x="262" 
d="M217 602q20 0 38 5.5t32.5 14t25.5 17.5t18 17l7 -6q-18 -30 -43.5 -52t-77.5 -43q-25 0 -43.5 8t-32 21.5t-22 30t-14.5 33.5l9 7q5 -8 14 -17t21.5 -17t29.5 -13.5t38 -5.5zM298 501l-57 -5l-82 -479l60 -6v-11h-213v11l61 6l81 479l-57 5v11h207v-11z" />
    <glyph glyph-name="Icircumflex.002" horiz-adv-x="301" 
d="M113 743h-15l149 117h23l88 -117h-15l-95 59h-4zM348 690l-74 -6l-100 -668l76 -6v-10h-256v10l78 6l100 668l-73 6v10h249v-10z" />
    <glyph glyph-name="Icircumflex.sc" horiz-adv-x="262" 
d="M105 556h-13l128 110h23l76 -110h-12l-83 62h-4zM298 501l-57 -5l-82 -479l60 -6v-11h-213v11l61 6l81 479l-57 5v11h207v-11z" />
    <glyph glyph-name="Idieresis.002" horiz-adv-x="301" 
d="M164 852l40 -5v-42l-17 -36l-34 -5l-42 5l1 43l17 35zM340 852l40 -5l-1 -42l-17 -36l-33 -5l-43 5l1 43l18 35zM348 690l-74 -6l-100 -668l76 -6v-10h-256v10l78 6l100 668l-73 6v10h249v-10z" />
    <glyph glyph-name="Idieresis.sc" horiz-adv-x="262" 
d="M152 642l32 -4l-1 -37l-14 -32l-33 -4l-33 4l1 38l15 31zM299 642l32 -4l-1 -37l-14 -32l-32 -4l-33 4v38l15 31zM298 501l-57 -5l-82 -479l60 -6v-11h-213v11l61 6l81 479l-57 5v11h207v-11z" />
    <glyph glyph-name="Idotaccent.002" horiz-adv-x="301" 
d="M217 848l40 5l44 -5v-45l-18 -39l-38 -5l-48 5l3 46zM348 690l-74 -6l-100 -668l76 -6v-10h-256v10l78 6l100 668l-73 6v10h249v-10z" />
    <glyph glyph-name="Idotaccent.sc" horiz-adv-x="262" 
d="M188 642l34 3l41 -4l-2 -42l-14 -35l-32 -4l-44 4l2 42zM298 501l-57 -5l-82 -479l60 -6v-11h-213v11l61 6l81 479l-57 5v11h207v-11z" />
    <glyph glyph-name="Igrave.002" horiz-adv-x="301" 
d="M254 743l-110 107h90l36 -107h-16zM348 690l-74 -6l-100 -668l76 -6v-10h-256v10l78 6l100 668l-73 6v10h249v-10z" />
    <glyph glyph-name="Igrave.sc" horiz-adv-x="262" 
d="M220 556l-93 105h77l27 -105h-11zM298 501l-57 -5l-82 -479l60 -6v-11h-213v11l61 6l81 479l-57 5v11h207v-11z" />
    <glyph glyph-name="Imacron.002" horiz-adv-x="301" 
d="M103 803h285l-5 -25h-285zM348 690l-74 -6l-100 -668l76 -6v-10h-256v10l78 6l100 668l-73 6v10h249v-10z" />
    <glyph glyph-name="Imacron.sc" horiz-adv-x="262" 
d="M106 621h233l-5 -36h-233zM298 501l-57 -5l-82 -479l60 -6v-11h-213v11l61 6l81 479l-57 5v11h207v-11z" />
    <glyph glyph-name="Iogonek.001" horiz-adv-x="301" 
d="M348 690l-74 -6l-100 -668l76 -6v-10h-112l-63 -81l-4 -19q-5 -18 1 -31t20 -21t34 -12t43 -4l-2 -9q-89 0 -123.5 21.5t-25.5 63.5l6 22l90 70h-120v10l78 6l100 668l-73 6v10h249v-10z" />
    <glyph glyph-name="Iogonek.sc" horiz-adv-x="262" 
d="M298 501l-57 -5l-82 -479l60 -6v-11h-87l-60 -83l-7 -34q-4 -25 15.5 -40t67.5 -15l-1 -7q-80 0 -109 18.5t-21 55.5l6 39l91 66h-108v11l61 6l81 479l-57 5v11h207v-11z" />
    <glyph glyph-name="Itilde.002" horiz-adv-x="301" 
d="M137 836l57 18l163 -74l52 72h8l-57 -94l-57 -17l-163 75l-50 -74h-8zM348 690l-74 -6l-100 -668l76 -6v-10h-256v10l78 6l100 668l-73 6v10h249v-10z" />
    <glyph glyph-name="Itilde.sc" horiz-adv-x="262" 
d="M131 646l43 12l141 -55l43 55h8l-43 -90l-44 -12l-141 58l-42 -56h-8zM298 501l-57 -5l-82 -479l60 -6v-11h-213v11l61 6l81 479l-57 5v11h207v-11z" />
    <glyph glyph-name="J.sc" horiz-adv-x="255" 
d="M-37 -47h93q8 20 13.5 40.5t7.5 40.5l82 462l-56 5v11h206v-11l-58 -5l-70 -406q-8 -50 -34.5 -82.5t-55.5 -55.5l-101 -78h-43z" />
    <glyph glyph-name="Jcircumflex.002" horiz-adv-x="305" 
d="M117 743h-16l150 117h23l88 -117h-15l-95 59h-4zM175 684l-73 6v10h249v-10l-74 -6l-88 -588q-5 -34 -16.5 -61.5t-27 -50t-33 -40.5t-34.5 -33l-108 -85h-54l17 90h113q14 38 22.5 76t13.5 75z" />
    <glyph glyph-name="Jcircumflex.sc" horiz-adv-x="255" 
d="M108 556h-13l128 110h23l76 -110h-12l-84 62h-3zM-37 -47h93q8 20 13.5 40.5t7.5 40.5l82 462l-56 5v11h206v-11l-58 -5l-70 -406q-8 -50 -34.5 -82.5t-55.5 -55.5l-101 -78h-43z" />
    <glyph glyph-name="K.sc" horiz-adv-x="564" 
d="M204 280l279 216l-72 5v11h168v-11l-70 -5l-280 -215l77 -9l182 -255l45 -6v-11h-149l-182 270l-43 -253l60 -6v-11h-213v11l60 6l81 479l-55 5v11h206v-11l-58 -5z" />
    <glyph glyph-name="Kcommaaccent.001" horiz-adv-x="674" 
d="M294 -111l-38 26l5 32h96l-11 -57l-101 -71l-7 4zM228 379l348 305l-89 6v10h203v-10l-85 -6l-348 -302l83 -10l235 -356l58 -6v-10h-173l-233 369l-53 -353l76 -6v-10h-256v10l78 6l100 668l-73 6v10h249v-10l-74 -6z" />
    <glyph glyph-name="Kcommaaccent.sc" horiz-adv-x="564" 
d="M259 -98l-28 28l6 31h83l-9 -55l-99 -84l-8 2zM204 280l279 216l-72 5v11h168v-11l-70 -5l-280 -215l77 -9l182 -255l45 -6v-11h-149l-182 270l-43 -253l60 -6v-11h-213v11l60 6l81 479l-55 5v11h206v-11l-58 -5z" />
    <glyph glyph-name="L.sc" horiz-adv-x="439" 
d="M159 13h170l90 131h10l-30 -144h-393v11l60 6l81 479l-56 5v11h207v-11l-58 -5z" />
    <glyph glyph-name="Lacute.002" horiz-adv-x="526" 
d="M282 850h93l-156 -107h-15zM173 14h218l109 175h10l-38 -189h-478v10l77 6l101 668l-73 6v10h249v-10l-74 -6z" />
    <glyph glyph-name="Lacute.sc" horiz-adv-x="439" 
d="M235 661h78l-106 -105h-12zM159 13h170l90 131h10l-30 -144h-393v11l60 6l81 479l-56 5v11h207v-11l-58 -5z" />
    <glyph glyph-name="Lcaron.sc" horiz-adv-x="439" 
d="M351 317l77 110l-37 -2l-22 5l4 48l15 37l62 4l24 -4l-4 -44l-15 -41l-97 -116zM159 13h170l90 131h10l-30 -144h-393v11l60 6l81 479l-56 5v11h207v-11l-58 -5z" />
    <glyph glyph-name="Lcommaaccent.001" horiz-adv-x="526" 
d="M228 -111l-38 26l5 32h96l-11 -57l-101 -71l-7 4zM173 14h218l109 175h10l-38 -189h-478v10l77 6l101 668l-73 6v10h249v-10l-74 -6z" />
    <glyph glyph-name="Lcommaaccent.sc" horiz-adv-x="439" 
d="M203 -98l-30 28l6 31h85l-11 -55l-98 -84l-9 2zM159 13h170l90 131h10l-30 -144h-393v11l60 6l81 479l-56 5v11h207v-11l-58 -5z" />
    <glyph glyph-name="Ldot.sc" horiz-adv-x="439" 
d="M353 340l37 -5l-1 -43l-14 -37l-41 -5l-39 5l3 43l14 37zM159 13h170l90 131h10l-30 -144h-393v11l60 6l81 479l-56 5v11h207v-11l-58 -5z" />
    <glyph glyph-name="Lslash.sc" horiz-adv-x="446" 
d="M214 297l101 43l-3 -14l-101 -42l-45 -271h170l90 131h10l-30 -144h-393v11l60 6l38 225l-61 -25l2 13l61 25l41 241l-56 5v11h207v-11l-58 -5z" />
    <glyph glyph-name="M.sc" horiz-adv-x="715" 
d="M592 512h159v-11l-56 -6l-82 -478l59 -6v-11h-212v11l60 6l79 468l-269 -487h-51l-112 486l-82 -467l62 -6v-11h-141v11l60 6l85 478l-56 6v11h162l97 -421z" />
    <glyph glyph-name="N.sc" horiz-adv-x="551" 
d="M514 496l-63 5v11h142v-11l-60 -5l-88 -496h-59l-220 475l-81 -458l63 -6l-1 -11h-141v11l60 6l85 479l-56 5v11h159l192 -399z" />
    <glyph glyph-name="Nacute.002" horiz-adv-x="662" 
d="M471 850h93l-156 -107h-15zM619 684l-80 6v10h179v-10l-77 -6l-108 -684h-63l-275 665l-102 -649l80 -6l-1 -10h-178v10l77 6l106 668l-73 6v10h187l241 -572z" />
    <glyph glyph-name="Nacute.sc" horiz-adv-x="551" 
d="M384 661h79l-107 -105h-13zM514 496l-63 5v11h142v-11l-60 -5l-88 -496h-59l-220 475l-81 -458l63 -6l-1 -11h-141v11l60 6l85 479l-56 5v11h159l192 -399z" />
    <glyph glyph-name="Ncaron.002" horiz-adv-x="662" 
d="M440 796h4l132 62h15l-148 -118h-25l-88 118h15zM619 684l-80 6v10h179v-10l-77 -6l-108 -684h-63l-275 665l-102 -649l80 -6l-1 -10h-178v10l77 6l106 668l-73 6v10h187l241 -572z" />
    <glyph glyph-name="Ncaron.sc" horiz-adv-x="551" 
d="M358 605l115 61h12l-127 -110h-24l-75 110h12l83 -61h4zM514 496l-63 5v11h142v-11l-60 -5l-88 -496h-59l-220 475l-81 -458l63 -6l-1 -11h-141v11l60 6l85 479l-56 5v11h159l192 -399z" />
    <glyph glyph-name="Ncommaaccent.001" horiz-adv-x="662" 
d="M288 -111l-38 26l5 32h96l-11 -57l-101 -71l-7 4zM619 684l-80 6v10h179v-10l-77 -6l-108 -684h-63l-275 665l-102 -649l80 -6l-1 -10h-178v10l77 6l106 668l-73 6v10h187l241 -572z" />
    <glyph glyph-name="Ncommaaccent.sc" horiz-adv-x="551" 
d="M230 -98l-28 28l5 31h84l-10 -55l-98 -84l-9 2zM514 496l-63 5v11h142v-11l-60 -5l-88 -496h-59l-220 475l-81 -458l63 -6l-1 -11h-141v11l60 6l85 479l-56 5v11h159l192 -399z" />
    <glyph glyph-name="Ntilde.002" horiz-adv-x="662" 
d="M330 836l57 18l163 -74l52 72h8l-57 -94l-57 -17l-163 75l-50 -74h-8zM619 684l-80 6v10h179v-10l-77 -6l-108 -684h-63l-275 665l-102 -649l80 -6l-1 -10h-178v10l77 6l106 668l-73 6v10h187l241 -572z" />
    <glyph glyph-name="Ntilde.sc" horiz-adv-x="551" 
d="M272 646l44 12l141 -55l44 55h8l-44 -90l-44 -12l-141 58l-42 -56h-8zM514 496l-63 5v11h142v-11l-60 -5l-88 -496h-59l-220 475l-81 -458l63 -6l-1 -11h-141v11l60 6l85 479l-56 5v11h159l192 -399z" />
    <glyph glyph-name="O.sc" horiz-adv-x="561" 
d="M156 224q0 -48 10.5 -87t29 -67t44.5 -44.5t56 -19.5q37 13 66 40.5t49 65t31 83t11 93.5t-10.5 87t-29 67.5t-44.5 45t-56 19.5q-36 -11 -65 -38.5t-49.5 -65.5t-31.5 -84.5t-11 -94.5zM338 525q47 0 87 -16.5t69.5 -46.5t46 -71.5t16.5 -91.5q0 -43 -12 -87t-39 -83.5
t-69.5 -71t-102.5 -50.5l-63 -20q-47 0 -87 16.5t-69 46t-45.5 71t-16.5 91.5q0 43 12 87.5t38.5 84.5t68.5 72t103 50z" />
    <glyph glyph-name="OE.sc" horiz-adv-x="774" 
d="M371 17l80 473q-10 3 -25.5 6t-32 5.5t-32 4t-27.5 1.5q-41 -11 -74 -38t-56 -65t-35.5 -84t-12.5 -94q0 -47 10.5 -85.5t29 -67t43.5 -45.5t54 -20zM269 -13q-47 0 -86.5 16.5t-68.5 46.5t-45 72t-16 92q0 43 13 87t42 83t75 71t112 51l64 19q9 0 23.5 -1.5t29.5 -3.5
t29.5 -4t24.5 -4h331l-24 -137h-10l-35 124h-182l-39 -234h96l55 90h7l-32 -192h-9l-24 89h-95l-41 -239h192l77 129h10l-25 -142h-349z" />
    <glyph glyph-name="Oacute.002" horiz-adv-x="667" 
d="M454 850h93l-156 -107h-15zM164 302q0 -68 13.5 -121t37.5 -91t57 -59.5t72 -25.5q47 16 84.5 54t64 91t40.5 117t14 131q0 68 -13.5 121.5t-37.5 91.5t-57 60t-72 26q-46 -14 -83.5 -52t-64 -92t-41 -119t-14.5 -132zM396 718q57 0 105.5 -22t84 -62t55.5 -95.5
t20 -121.5q0 -60 -15 -121.5t-47 -117t-84 -100t-125 -70.5l-75 -26q-57 0 -105.5 22t-84 62t-55.5 95.5t-20 122.5q0 60 14.5 122t47 118t84 100.5t125.5 69.5z" />
    <glyph glyph-name="Oacute.sc" horiz-adv-x="561" 
d="M384 661h78l-106 -105h-13zM192 224q0 -48 10.5 -87t29.5 -67t44.5 -44.5t55.5 -19.5q37 13 66.5 40.5t49.5 65t31 83t11 93.5t-10.5 87t-29 67.5t-44.5 45t-56 19.5q-36 -11 -65 -38.5t-50 -65.5t-32 -84.5t-11 -94.5zM374 525q48 0 88 -16.5t69 -46.5t45.5 -71.5
t16.5 -91.5q0 -43 -12 -87t-38.5 -83.5t-69 -71t-102.5 -50.5l-63 -20q-48 0 -88 16.5t-69 46t-45.5 71t-16.5 91.5q0 43 12 87.5t38.5 84.5t69 72t103.5 50z" />
    <glyph glyph-name="Obreve.002" horiz-adv-x="667" 
d="M422 789q26 0 48.5 7t41 17.5t32 22t22.5 21.5l7 -6q-20 -33 -52.5 -60.5t-95.5 -52.5q-30 0 -52.5 10.5t-39 27t-27 36.5t-17.5 40l9 6q6 -10 16.5 -22t26 -22.5t36 -17.5t45.5 -7zM164 302q0 -68 13.5 -121t37.5 -91t57 -59.5t72 -25.5q47 16 84.5 54t64 91t40.5 117
t14 131q0 68 -13.5 121.5t-37.5 91.5t-57 60t-72 26q-46 -14 -83.5 -52t-64 -92t-41 -119t-14.5 -132zM396 718q57 0 105.5 -22t84 -62t55.5 -95.5t20 -121.5q0 -60 -15 -121.5t-47 -117t-84 -100t-125 -70.5l-75 -26q-57 0 -105.5 22t-84 62t-55.5 95.5t-20 122.5
q0 60 14.5 122t47 118t84 100.5t125.5 69.5z" />
    <glyph glyph-name="Obreve.sc" horiz-adv-x="561" 
d="M391 602q21 0 38.5 5.5t32.5 14t26 17.5t18 17l6 -6q-17 -30 -42.5 -52t-77.5 -43q-25 0 -43.5 8t-32 21.5t-22.5 30t-14 33.5l8 7q5 -8 14 -17t21.5 -17t29.5 -13.5t38 -5.5zM192 224q0 -48 10.5 -87t29.5 -67t44.5 -44.5t55.5 -19.5q37 13 66.5 40.5t49.5 65t31 83
t11 93.5t-10.5 87t-29 67.5t-44.5 45t-56 19.5q-36 -11 -65 -38.5t-50 -65.5t-32 -84.5t-11 -94.5zM374 525q48 0 88 -16.5t69 -46.5t45.5 -71.5t16.5 -91.5q0 -43 -12 -87t-38.5 -83.5t-69 -71t-102.5 -50.5l-63 -20q-48 0 -88 16.5t-69 46t-45.5 71t-16.5 91.5
q0 43 12 87.5t38.5 84.5t69 72t103.5 50z" />
    <glyph glyph-name="Ocircumflex.002" horiz-adv-x="667" 
d="M297 743h-15l149 117h23l89 -117h-16l-94 59h-4zM164 302q0 -68 13.5 -121t37.5 -91t57 -59.5t72 -25.5q47 16 84.5 54t64 91t40.5 117t14 131q0 68 -13.5 121.5t-37.5 91.5t-57 60t-72 26q-46 -14 -83.5 -52t-64 -92t-41 -119t-14.5 -132zM396 718q57 0 105.5 -22
t84 -62t55.5 -95.5t20 -121.5q0 -60 -15 -121.5t-47 -117t-84 -100t-125 -70.5l-75 -26q-57 0 -105.5 22t-84 62t-55.5 95.5t-20 122.5q0 60 14.5 122t47 118t84 100.5t125.5 69.5z" />
    <glyph glyph-name="Ocircumflex.sc" horiz-adv-x="561" 
d="M286 556h-12l127 110h24l75 -110h-12l-83 62h-4zM192 224q0 -48 10.5 -87t29.5 -67t44.5 -44.5t55.5 -19.5q37 13 66.5 40.5t49.5 65t31 83t11 93.5t-10.5 87t-29 67.5t-44.5 45t-56 19.5q-36 -11 -65 -38.5t-50 -65.5t-32 -84.5t-11 -94.5zM374 525q48 0 88 -16.5
t69 -46.5t45.5 -71.5t16.5 -91.5q0 -43 -12 -87t-38.5 -83.5t-69 -71t-102.5 -50.5l-63 -20q-48 0 -88 16.5t-69 46t-45.5 71t-16.5 91.5q0 43 12 87.5t38.5 84.5t69 72t103.5 50z" />
    <glyph glyph-name="Odieresis.002" horiz-adv-x="667" 
d="M343 852l40 -5l-1 -42l-16 -36l-34 -5l-42 5l1 43l16 35zM524 852l39 -5l-1 -42l-16 -36l-34 -5l-42 5l1 43l17 35zM164 302q0 -68 13.5 -121t37.5 -91t57 -59.5t72 -25.5q47 16 84.5 54t64 91t40.5 117t14 131q0 68 -13.5 121.5t-37.5 91.5t-57 60t-72 26
q-46 -14 -83.5 -52t-64 -92t-41 -119t-14.5 -132zM396 718q57 0 105.5 -22t84 -62t55.5 -95.5t20 -121.5q0 -60 -15 -121.5t-47 -117t-84 -100t-125 -70.5l-75 -26q-57 0 -105.5 22t-84 62t-55.5 95.5t-20 122.5q0 60 14.5 122t47 118t84 100.5t125.5 69.5z" />
    <glyph glyph-name="Odieresis.sc" horiz-adv-x="561" 
d="M328 642l32 -4l-1 -37l-14 -32l-32 -4l-34 4l2 38l14 31zM481 642l31 -4v-37l-15 -32l-31 -4l-34 4l1 38l14 31zM192 224q0 -48 10.5 -87t29.5 -67t44.5 -44.5t55.5 -19.5q37 13 66.5 40.5t49.5 65t31 83t11 93.5t-10.5 87t-29 67.5t-44.5 45t-56 19.5q-36 -11 -65 -38.5
t-50 -65.5t-32 -84.5t-11 -94.5zM374 525q48 0 88 -16.5t69 -46.5t45.5 -71.5t16.5 -91.5q0 -43 -12 -87t-38.5 -83.5t-69 -71t-102.5 -50.5l-63 -20q-48 0 -88 16.5t-69 46t-45.5 71t-16.5 91.5q0 43 12 87.5t38.5 84.5t69 72t103.5 50z" />
    <glyph glyph-name="Ograve.002" horiz-adv-x="667" 
d="M420 743l-110 107h90l36 -107h-16zM164 302q0 -68 13.5 -121t37.5 -91t57 -59.5t72 -25.5q47 16 84.5 54t64 91t40.5 117t14 131q0 68 -13.5 121.5t-37.5 91.5t-57 60t-72 26q-46 -14 -83.5 -52t-64 -92t-41 -119t-14.5 -132zM396 718q57 0 105.5 -22t84 -62t55.5 -95.5
t20 -121.5q0 -60 -15 -121.5t-47 -117t-84 -100t-125 -70.5l-75 -26q-57 0 -105.5 22t-84 62t-55.5 95.5t-20 122.5q0 60 14.5 122t47 118t84 100.5t125.5 69.5z" />
    <glyph glyph-name="Ograve.sc" horiz-adv-x="561" 
d="M397 556l-93 105h77l27 -105h-11zM192 224q0 -48 10.5 -87t29.5 -67t44.5 -44.5t55.5 -19.5q37 13 66.5 40.5t49.5 65t31 83t11 93.5t-10.5 87t-29 67.5t-44.5 45t-56 19.5q-36 -11 -65 -38.5t-50 -65.5t-32 -84.5t-11 -94.5zM374 525q48 0 88 -16.5t69 -46.5t45.5 -71.5
t16.5 -91.5q0 -43 -12 -87t-38.5 -83.5t-69 -71t-102.5 -50.5l-63 -20q-48 0 -88 16.5t-69 46t-45.5 71t-16.5 91.5q0 43 12 87.5t38.5 84.5t69 72t103.5 50z" />
    <glyph glyph-name="Ohungarumlaut.002" horiz-adv-x="667" 
d="M516 850h101l-140 -99h-16zM352 850h102l-140 -99h-17zM164 302q0 -68 13.5 -121t37.5 -91t57 -59.5t72 -25.5q47 16 84.5 54t64 91t40.5 117t14 131q0 68 -13.5 121.5t-37.5 91.5t-57 60t-72 26q-46 -14 -83.5 -52t-64 -92t-41 -119t-14.5 -132zM396 718q57 0 105.5 -22
t84 -62t55.5 -95.5t20 -121.5q0 -60 -15 -121.5t-47 -117t-84 -100t-125 -70.5l-75 -26q-57 0 -105.5 22t-84 62t-55.5 95.5t-20 122.5q0 60 14.5 122t47 118t84 100.5t125.5 69.5z" />
    <glyph glyph-name="Ohungarumlaut.sc" horiz-adv-x="561" 
d="M475 661h89l-120 -105h-13zM339 661h88l-120 -105h-12zM192 224q0 -48 10.5 -87t29.5 -67t44.5 -44.5t55.5 -19.5q37 13 66.5 40.5t49.5 65t31 83t11 93.5t-10.5 87t-29 67.5t-44.5 45t-56 19.5q-36 -11 -65 -38.5t-50 -65.5t-32 -84.5t-11 -94.5zM374 525q48 0 88 -16.5
t69 -46.5t45.5 -71.5t16.5 -91.5q0 -43 -12 -87t-38.5 -83.5t-69 -71t-102.5 -50.5l-63 -20q-48 0 -88 16.5t-69 46t-45.5 71t-16.5 91.5q0 43 12 87.5t38.5 84.5t69 72t103.5 50z" />
    <glyph glyph-name="Omacron.002" horiz-adv-x="667" 
d="M300 803h285l-5 -25h-285zM164 302q0 -68 13.5 -121t37.5 -91t57 -59.5t72 -25.5q47 16 84.5 54t64 91t40.5 117t14 131q0 68 -13.5 121.5t-37.5 91.5t-57 60t-72 26q-46 -14 -83.5 -52t-64 -92t-41 -119t-14.5 -132zM396 718q57 0 105.5 -22t84 -62t55.5 -95.5
t20 -121.5q0 -60 -15 -121.5t-47 -117t-84 -100t-125 -70.5l-75 -26q-57 0 -105.5 22t-84 62t-55.5 95.5t-20 122.5q0 60 14.5 122t47 118t84 100.5t125.5 69.5z" />
    <glyph glyph-name="Omacron.sc" horiz-adv-x="561" 
d="M276 621h233l-6 -36h-233zM192 224q0 -48 10.5 -87t29.5 -67t44.5 -44.5t55.5 -19.5q37 13 66.5 40.5t49.5 65t31 83t11 93.5t-10.5 87t-29 67.5t-44.5 45t-56 19.5q-36 -11 -65 -38.5t-50 -65.5t-32 -84.5t-11 -94.5zM374 525q48 0 88 -16.5t69 -46.5t45.5 -71.5
t16.5 -91.5q0 -43 -12 -87t-38.5 -83.5t-69 -71t-102.5 -50.5l-63 -20q-48 0 -88 16.5t-69 46t-45.5 71t-16.5 91.5q0 43 12 87.5t38.5 84.5t69 72t103.5 50z" />
    <glyph glyph-name="Oslash.sc" horiz-adv-x="561" 
d="M373 525q45 0 83 -15t67 -42l52 53h15l-59 -61q29 -30 45 -71t16 -90q0 -43 -12 -87t-38.5 -83.5t-69 -71t-102.5 -50.5l-63 -20q-51 0 -93.5 18t-71.5 52l-65 -68h-17l75 77q-23 29 -35 65.5t-12 80.5q0 43 12 87.5t38.5 84.5t69 72t103.5 50zM489 288q0 62 -18 110
l-265 -276q17 -52 50 -82t75 -34q37 13 66.5 40.5t49.5 65t31 83t11 93.5zM191 224q0 -47 11 -89l265 274q-19 44 -49.5 69t-68.5 29q-36 -11 -65 -38.5t-50 -65.5t-32 -84.5t-11 -94.5z" />
    <glyph glyph-name="Oslashacute.002" horiz-adv-x="667" 
d="M395 718q57 0 105.5 -22t83.5 -62l68 77h15l-75 -86q32 -40 50 -92.5t18 -115.5q0 -60 -15 -121.5t-47 -117t-84 -100t-125 -70.5l-75 -26q-61 0 -112 25t-87 70l-80 -92h-17l89 102q-28 39 -43 88.5t-15 108.5q0 60 14.5 122t47 118t84 100.5t125.5 69.5zM546 398
q0 43 -5.5 80t-16.5 69l-340 -391q22 -69 63.5 -107.5t95.5 -43.5q47 16 84.5 54t64 91t40.5 117t14 131zM163 302q0 -38 4 -70.5t12 -61.5l341 390q-23 62 -63 97t-91 40q-46 -14 -83.5 -52t-64 -92t-41 -119t-14.5 -132zM375 743l78 107h93l-155 -107h-16z" />
    <glyph glyph-name="Oslashacute.sc" horiz-adv-x="561" 
d="M373 525q45 0 83 -15t67 -42l52 53h15l-59 -61q29 -30 45 -71t16 -90q0 -43 -12 -87t-39 -83.5t-69.5 -71t-102.5 -50.5l-62 -20q-51 0 -93 18.5t-72 51.5l-65 -68h-17l75 77q-48 59 -48 146q0 43 12 87.5t38.5 84.5t69 72t103.5 50zM489 288q0 62 -18 110l-265 -276
q17 -52 49.5 -82t75.5 -34q37 13 66 40.5t49.5 65t31.5 83t11 93.5zM191 224q0 -47 11 -89l265 274q-19 44 -49.5 69t-68.5 29q-36 -11 -65.5 -38.5t-50 -65.5t-31.5 -84.5t-11 -94.5zM343 556l41 105h78l-106 -105h-13z" />
    <glyph glyph-name="Otilde.002" horiz-adv-x="667" 
d="M316 836l57 18l163 -74l51 72h8l-56 -94l-58 -17l-163 75l-49 -74h-8zM164 302q0 -68 13.5 -121t37.5 -91t57 -59.5t72 -25.5q47 16 84.5 54t64 91t40.5 117t14 131q0 68 -13.5 121.5t-37.5 91.5t-57 60t-72 26q-46 -14 -83.5 -52t-64 -92t-41 -119t-14.5 -132zM396 718
q57 0 105.5 -22t84 -62t55.5 -95.5t20 -121.5q0 -60 -15 -121.5t-47 -117t-84 -100t-125 -70.5l-75 -26q-57 0 -105.5 22t-84 62t-55.5 95.5t-20 122.5q0 60 14.5 122t47 118t84 100.5t125.5 69.5z" />
    <glyph glyph-name="Otilde.sc" horiz-adv-x="561" 
d="M299 646l44 12l141 -55l43 55h9l-44 -90l-44 -12l-141 58l-42 -56h-8zM192 224q0 -48 10.5 -87t29.5 -67t44.5 -44.5t55.5 -19.5q37 13 66.5 40.5t49.5 65t31 83t11 93.5t-10.5 87t-29 67.5t-44.5 45t-56 19.5q-36 -11 -65 -38.5t-50 -65.5t-32 -84.5t-11 -94.5zM374 525
q48 0 88 -16.5t69 -46.5t45.5 -71.5t16.5 -91.5q0 -43 -12 -87t-38.5 -83.5t-69 -71t-102.5 -50.5l-63 -20q-48 0 -88 16.5t-69 46t-45.5 71t-16.5 91.5q0 43 12 87.5t38.5 84.5t69 72t103.5 50z" />
    <glyph glyph-name="P.sc" horiz-adv-x="461" 
d="M288 247q18 10 37 24t34 32.5t24.5 42t9.5 51.5q0 100 -99 100h-54l-42 -250h90zM270 225h-75l-36 -208l85 -6v-11h-238v11l60 6l81 479l-56 5v11h251q75 0 114.5 -30.5t39.5 -78.5q0 -57 -42 -93.5t-119 -61.5z" />
    <glyph glyph-name="Q.sc" horiz-adv-x="561" 
d="M330 -21l115 -60l54 -27l10 -7l-72 -8l-126 69l-40 41zM156 224q0 -48 10.5 -87t29 -67t44.5 -44.5t56 -19.5q37 13 66 40.5t49 65t31 83t11 93.5t-10.5 87t-29 67.5t-44.5 45t-56 19.5q-36 -11 -65 -38.5t-49.5 -65.5t-31.5 -84.5t-11 -94.5zM338 525q47 0 87 -16.5
t69.5 -46.5t46 -71.5t16.5 -91.5q0 -43 -12 -87t-39 -83.5t-69.5 -71t-102.5 -50.5l-63 -20q-47 0 -87 16.5t-69 46t-45.5 71t-16.5 91.5q0 43 12 87.5t38.5 84.5t68.5 72t103 50z" />
    <glyph glyph-name="R.sc" horiz-adv-x="530" 
d="M268 249l103 -25l102 -207l30 -6v-11h-128l-114 247h-63l-39 -230l66 -6v-11h-219v11l60 6l81 479l-56 5v11h251q74 0 114.5 -30.5t40.5 -75.5q0 -32 -14 -55t-37.5 -40t-53 -28t-61.5 -19zM286 265q19 9 38.5 21t34.5 29t24.5 39t9.5 50q0 45 -24 70t-74 25h-55
l-39 -234h85z" />
    <glyph glyph-name="Racute.002" horiz-adv-x="633" 
d="M311 341l119 -35l131 -290l38 -5v-11h-147l-146 340h-84l-49 -324l86 -6v-10h-265v10l77 6l101 668l-73 6v10h303q90 0 138.5 -41t48.5 -102q0 -42 -16 -73.5t-43.5 -54.5t-63.5 -39t-76 -27zM338 360q24 12 48.5 28t44 38t32 51.5t12.5 69.5q0 65 -30.5 102t-96.5 37
h-74l-49 -326h113zM405 850h93l-155 -107h-16z" />
    <glyph glyph-name="Racute.sc" horiz-adv-x="530" 
d="M268 249l103 -25l102 -207l30 -6v-11h-128l-114 247h-63l-39 -230l66 -6v-11h-219v11l60 6l81 479l-56 5v11h251q74 0 114.5 -30.5t40.5 -75.5q0 -32 -14 -55t-37.5 -40t-53 -28t-61.5 -19zM286 265q19 9 38.5 21t34.5 29t24.5 39t9.5 50q0 45 -24 70t-74 25h-55
l-39 -234h85zM326 661h78l-107 -105h-12z" />
    <glyph glyph-name="Rcaron.002" horiz-adv-x="633" 
d="M311 341l119 -35l131 -290l38 -5v-11h-147l-146 340h-84l-49 -324l86 -6v-10h-265v10l77 6l101 668l-73 6v10h303q90 0 138.5 -41t48.5 -102q0 -42 -16 -73.5t-43.5 -54.5t-63.5 -39t-76 -27zM338 360q24 12 48.5 28t44 38t32 51.5t12.5 69.5q0 65 -30.5 102t-96.5 37
h-74l-49 -326h113zM364 796h4l132 62h15l-149 -118h-24l-88 118h15z" />
    <glyph glyph-name="Rcaron.sc" horiz-adv-x="530" 
d="M268 249l103 -25l102 -207l30 -6v-11h-128l-114 247h-63l-39 -230l66 -6v-11h-219v11l60 6l81 479l-56 5v11h251q74 0 114.5 -30.5t40.5 -75.5q0 -32 -14 -55t-37.5 -40t-53 -28t-61.5 -19zM286 265q19 9 38.5 21t34.5 29t24.5 39t9.5 50q0 45 -24 70t-74 25h-55
l-39 -234h85zM317 605l115 61h12l-127 -110h-24l-75 110h12l83 -61h4z" />
    <glyph glyph-name="Rcommaaccent.001" horiz-adv-x="633" 
d="M311 341l119 -35l131 -290l38 -5v-11h-147l-146 340h-84l-49 -324l86 -6v-10h-265v10l77 6l101 668l-73 6v10h303q90 0 138.5 -41t48.5 -102q0 -42 -16 -73.5t-43.5 -54.5t-63.5 -39t-76 -27zM338 360q24 12 48.5 28t44 38t32 51.5t12.5 69.5q0 65 -30.5 102t-96.5 37
h-74l-49 -326h113zM287 -111l-38 26l5 32h96l-11 -57l-101 -71l-7 4z" />
    <glyph glyph-name="Rcommaaccent.sc" horiz-adv-x="530" 
d="M268 249l103 -25l102 -207l30 -6v-11h-128l-114 247h-63l-39 -230l66 -6v-11h-219v11l60 6l81 479l-56 5v11h251q74 0 114.5 -30.5t40.5 -75.5q0 -32 -14 -55t-37.5 -40t-53 -28t-61.5 -19zM286 265q19 9 38.5 21t34.5 29t24.5 39t9.5 50q0 45 -24 70t-74 25h-55
l-39 -234h85zM229 -98l-30 28l6 31h85l-11 -55l-98 -84l-9 2z" />
    <glyph glyph-name="S.sc" horiz-adv-x="397" 
d="M275 525q52 0 87.5 -8.5t61.5 -22.5l-26 -133h-9l-19 94q-27 23 -60.5 33.5t-69.5 11.5q-43 -11 -59 -29.5t-16 -43.5q0 -16 5 -28t14.5 -22.5t23.5 -21.5t32 -24l87 -65q30 -22 47.5 -47t17.5 -68q0 -21 -8.5 -42t-24.5 -39.5t-39.5 -34t-53.5 -24.5l-74 -24
q-55 1 -95.5 13t-68.5 31l34 135h10l3 -87q12 -11 30.5 -21.5t41 -19t47.5 -14t49 -6.5q38 11 54 33t16 50q0 31 -17.5 52t-52.5 45l-78 57q-30 22 -52 50t-22 66q0 85 114 129z" />
    <glyph glyph-name="Sacute.002" horiz-adv-x="470" 
d="M389 850h93l-156 -107h-15zM315 718q63 0 105 -11t73 -31l-30 -167h-10l-21 118q-32 33 -74 46.5t-87 15.5q-56 -17 -76.5 -46t-20.5 -66q0 -24 6 -42t18 -33.5t30 -31.5t42 -36l106 -86q35 -29 56 -62.5t21 -88.5q0 -27 -10 -55.5t-29.5 -53.5t-48 -45.5t-64.5 -31.5
l-88 -29q-66 0 -116 17t-83 42l40 165h11l2 -104q14 -15 36.5 -30t50.5 -27.5t58.5 -20.5t60.5 -9q50 17 71.5 52t21.5 79q0 23 -5.5 41.5t-16.5 35t-28 32.5t-39 34l-96 77q-34 27 -61 63.5t-27 87.5q0 54 33 97.5t105 71.5z" />
    <glyph glyph-name="Sacute.sc" horiz-adv-x="397" 
d="M316 661h78l-106 -105h-13zM275 525q52 0 87.5 -8.5t61.5 -22.5l-26 -133h-9l-19 94q-27 23 -60.5 33.5t-69.5 11.5q-43 -11 -59 -29.5t-16 -43.5q0 -16 5 -28t14.5 -22.5t23.5 -21.5t32 -24l87 -65q30 -22 47.5 -47t17.5 -68q0 -21 -8.5 -42t-24.5 -39.5t-39.5 -34
t-53.5 -24.5l-74 -24q-55 1 -95.5 13t-68.5 31l34 135h10l3 -87q12 -11 30.5 -21.5t41 -19t47.5 -14t49 -6.5q38 11 54 33t16 50q0 31 -17.5 52t-52.5 45l-78 57q-30 22 -52 50t-22 66q0 85 114 129z" />
    <glyph glyph-name="Scaron.002" horiz-adv-x="470" 
d="M340 796h4l132 62h15l-148 -118h-25l-88 118h15zM315 718q63 0 105 -11t73 -31l-30 -167h-10l-21 118q-32 33 -74 46.5t-87 15.5q-56 -17 -76.5 -46t-20.5 -66q0 -24 6 -42t18 -33.5t30 -31.5t42 -36l106 -86q35 -29 56 -62.5t21 -88.5q0 -27 -10 -55.5t-29.5 -53.5
t-48 -45.5t-64.5 -31.5l-88 -29q-66 0 -116 17t-83 42l40 165h11l2 -104q14 -15 36.5 -30t50.5 -27.5t58.5 -20.5t60.5 -9q50 17 71.5 52t21.5 79q0 23 -5.5 41.5t-16.5 35t-28 32.5t-39 34l-96 77q-34 27 -61 63.5t-27 87.5q0 54 33 97.5t105 71.5z" />
    <glyph glyph-name="Scaron.sc" horiz-adv-x="415" 
d="M314 605l115 61h12l-127 -110h-24l-75 110h12l83 -61h4zM275 525q52 0 87.5 -8.5t61.5 -22.5l-26 -133h-9l-19 94q-27 23 -60.5 33.5t-69.5 11.5q-43 -11 -59 -29.5t-16 -43.5q0 -16 5 -28t14.5 -22.5t23.5 -21.5t32 -24l87 -65q30 -22 47.5 -47t17.5 -68q0 -21 -8.5 -42
t-24.5 -39.5t-39.5 -34t-53.5 -24.5l-74 -24q-55 1 -95.5 13t-68.5 31l34 135h10l3 -87q12 -11 30.5 -21.5t41 -19t47.5 -14t49 -6.5q38 11 54 33t16 50q0 31 -17.5 52t-52.5 45l-78 57q-30 22 -52 50t-22 66q0 85 114 129z" />
    <glyph glyph-name="Scedilla.001" horiz-adv-x="470" 
d="M315 718q63 0 105 -11t73 -31l-30 -167h-10l-21 118q-32 33 -74 46.5t-87 15.5q-56 -17 -76.5 -46t-20.5 -66q0 -24 6 -42t18 -33.5t30 -31.5t42 -36l106 -86q35 -29 56 -62.5t21 -88.5q0 -27 -10 -55.5t-29.5 -53.5t-48 -45.5t-64.5 -31.5l-86 -28l-21 -21
q32 -2 52 -15.5t20 -36.5q0 -14 -9 -25t-23 -19t-31 -13.5t-32 -9.5l-75 -21h-28l34 34h87q10 6 16.5 14t6.5 21q0 20 -18 28t-48 10l54 53q-62 2 -108 18.5t-78 40.5l40 165h11l2 -104q14 -15 36.5 -30t50.5 -27.5t58.5 -20.5t60.5 -9q50 17 71.5 52t21.5 79
q0 23 -5.5 41.5t-16.5 35t-28 32.5t-39 34l-96 77q-34 27 -61 63.5t-27 87.5q0 54 33 97.5t105 71.5z" />
    <glyph glyph-name="Scedilla.sc" horiz-adv-x="397" 
d="M275 525q52 0 88 -8.5t61 -22.5l-25 -133h-10l-19 94q-26 23 -60 33.5t-70 11.5q-43 -11 -59 -29.5t-16 -43.5q0 -16 5 -28t14.5 -22.5t23.5 -21.5t32 -24l87 -65q30 -22 47.5 -47t17.5 -68q0 -21 -8.5 -42t-24 -39.5t-39 -34t-53.5 -24.5l-75 -24h-2l-15 -18
q30 -4 45 -19t15 -35q0 -15 -8 -26.5t-20.5 -19.5t-27.5 -14.5t-28 -11.5l-63 -22h-21l25 35h65q13 7 21 16t8 23q0 23 -12.5 31t-32.5 10l38 52q-50 2 -87.5 13.5t-63.5 29.5l35 135h10l2 -87q12 -11 30.5 -21.5t41 -19t48 -14t49.5 -6.5q38 11 54 33t16 50q0 31 -18 52
t-53 45l-78 57q-29 22 -51.5 50t-22.5 66q0 85 114 129z" />
    </font>
</defs>
</svg>
