<?xml version="1.0" standalone="no"?>
<!DOCTYPE svg PUBLIC "-//W3C//DTD SVG 1.1//EN" "http://www.w3.org/Graphics/SVG/1.1/DTD/svg11.dtd" >
<svg xmlns="http://www.w3.org/2000/svg">
<metadata>Generated by IcoMoon</metadata>
<defs>
<font id="icomoon" horiz-adv-x="1024">
<font-face units-per-em="1024" ascent="960" descent="-64" />
<missing-glyph horiz-adv-x="1024" />
<glyph unicode="&#x20;" d="" />
<glyph unicode="&#xe900;" glyph-name="Navigation-1" d="M954.182 897.939h-882.812c-40.339 0-71.37-34.133-71.37-71.37v-266.861c0-10.861 9.309-20.17 20.17-20.17v0c10.861 0 20.17 9.309 20.17 20.17v266.861c0 18.618 15.515 31.030 31.030 31.030h879.709c18.618 0 31.030-15.515 31.030-31.030v-266.861c0-10.861 9.309-20.17 20.17-20.17v0c10.861 0 20.17 9.309 20.17 20.17v266.861c4.655 40.339-29.479 71.37-68.267 71.37zM982.109 67.879v0c1.552-18.618-13.964-31.030-29.479-31.030h-881.261c-18.618 0-31.030 15.515-31.030 31.030v96.194c0 10.861-9.309 20.17-20.17 20.17v0c-10.861 0-20.17-9.309-20.17-20.17v-94.642c0-40.339 34.133-71.37 71.37-71.37h879.709c40.339 0 71.37 34.133 71.37 71.37v94.642c0 10.861-9.309 20.17-20.17 20.17v0c-10.861 0-20.17-9.309-20.17-20.17v-96.194zM381.673 392.145h-221.867c-9.309 0-15.515 6.206-15.515 15.515s6.206 15.515 15.515 15.515h221.867c9.309 0 15.515-6.206 15.515-15.515s-6.206-15.515-15.515-15.515zM308.752 302.158h-148.945c-9.309 0-15.515 6.206-15.515 15.515s6.206 15.515 15.515 15.515h148.945c9.309 0 15.515-6.206 15.515-15.515s-6.206-15.515-15.515-15.515zM80.679 286.642c-4.655 0-7.758 1.552-10.861 4.655l-68.267 69.818 71.37 71.37c6.206 6.206 15.515 6.206 21.721 0s6.206-15.515 0-21.721l-49.648-49.648 46.545-48.097c6.206-6.206 6.206-15.515 0-21.721-3.103-3.103-6.206-4.655-10.861-4.655zM868.848 392.145h-221.867c-9.309 0-15.515 6.206-15.515 15.515s6.206 15.515 15.515 15.515h221.867c9.309 0 15.515-6.206 15.515-15.515s-6.206-15.515-15.515-15.515zM868.848 302.158h-148.945c-9.309 0-15.515 6.206-15.515 15.515s6.206 15.515 15.515 15.515h148.945c9.309 0 15.515-6.206 15.515-15.515s-6.206-15.515-15.515-15.515zM947.976 289.745c-4.655 0-7.758 1.552-10.861 4.655-6.206 6.206-6.206 15.515 0 21.721l41.891 43.442-48.097 48.097c-6.206 6.206-6.206 15.515 0 21.721s15.515 6.206 21.721 0l69.818-69.818-63.612-65.164c-3.103-3.103-6.206-4.655-10.861-4.655zM110.158 807.952c-23.273 0-23.273-35.685 0-35.685s23.273 35.685 0 35.685zM173.77 807.952c-23.273 0-23.273-35.685 0-35.685 21.721 0 21.721 35.685 0 35.685zM235.83 807.952c-23.273 0-23.273-35.685 0-35.685s23.273 35.685 0 35.685z" />
<glyph unicode="&#xe901;" glyph-name="Content-1" d="M778.861 396.8h-533.721c-9.309 0-17.067-7.758-17.067-17.067s7.758-17.067 17.067-17.067h533.721c9.309 0 17.067 7.758 17.067 17.067s-7.758 17.067-17.067 17.067zM727.661 294.4h-482.521c-9.309 0-17.067-7.758-17.067-17.067s7.758-17.067 17.067-17.067h482.521c9.309 0 17.067 7.758 17.067 17.067s-7.758 17.067-17.067 17.067zM603.539 192h-358.4c-9.309 0-17.067-7.758-17.067-17.067s7.758-17.067 17.067-17.067h358.4c9.309 0 17.067 7.758 17.067 17.067s-7.758 17.067-17.067 17.067zM372.364 499.2l159.806 144.291c0 0 0 1.552 1.552 1.552l43.442 40.339c7.758 7.758 12.412 17.067 12.412 27.927s-3.103 21.721-10.861 29.479l-20.17 23.273c-17.067 17.067-41.891 17.067-57.406 1.552l-52.752-46.545 1.552-1.552-147.394-134.982c0 0 0 0 0 0s0 0 0 0l-3.103-3.103-46.545-102.4 17.067-17.067 102.4 37.236zM524.412 742.788c1.552 1.552 7.758 1.552 9.309 0l20.17-23.273c1.552-1.552 1.552-1.552 1.552-4.655 0-1.552-1.552-4.655-1.552-6.206l-26.376-24.824-31.030 34.133 27.927 24.824zM471.661 694.691l29.479-31.030-134.982-122.57-29.479 31.030 134.982 122.57zM316.509 542.642l18.618-20.17-31.030-12.412 12.412 32.582zM971.248 674.521v0c0 6.206-1.552 10.861-4.655 15.515l-200.145 203.248c-3.103 3.103-7.758 4.655-12.412 4.655v0h-629.915c-40.339 0-71.37-34.133-71.37-71.37v-757.139c0-40.339 34.133-71.37 71.37-71.37h774.206c40.339 0 71.37 34.133 71.37 71.37v601.988c0 0 0 1.552 1.552 3.103v0zM794.376 815.709l99.297-100.848h-68.267c-18.618 0-31.030 15.515-31.030 31.030v69.818zM899.879 36.848h-775.758c-18.618 0-31.030 15.515-31.030 31.030v758.691c0 18.618 15.515 31.030 31.030 31.030h628.364l1.552-1.552v-110.158c-4.655-40.339 29.479-71.37 68.267-71.37h107.055v-606.642h1.552c0-18.618-15.515-31.030-31.030-31.030z" />
<glyph unicode="&#xe902;" glyph-name="Social-Share-1" d="M79.127-1.939c-43.442 0-79.127 35.685-79.127 79.127v738.521c0 43.442 35.685 79.127 79.127 79.127h861.091c43.442 0 79.127-35.685 79.127-79.127v-738.521c0-43.442-35.685-79.127-79.127-79.127 0 0-861.091 0-861.091 0zM732.315 33.745h207.903c24.824 0 43.442 20.17 43.442 43.442v619.055h-251.345v-662.497zM35.685 77.188c0-24.824 20.17-43.442 43.442-43.442h619.055v662.497h-662.497v-619.055zM79.127 860.703c-24.824 0-43.442-20.17-43.442-43.442v-85.333h949.527v83.782c0 24.824-20.17 43.442-43.442 43.442h-862.642v1.552zM122.57 797.091c0-11.139-9.030-20.17-20.17-20.17s-20.17 9.030-20.17 20.17c0 11.139 9.030 20.17 20.17 20.17s20.17-9.030 20.17-20.17zM195.491 797.091c0-11.139-9.030-20.17-20.17-20.17s-20.17 9.030-20.17 20.17c0 11.139 9.030 20.17 20.17 20.17s20.17-9.030 20.17-20.17zM263.758 797.091c0-11.139-9.030-20.17-20.17-20.17s-20.17 9.030-20.17 20.17c0 11.139 9.030 20.17 20.17 20.17s20.17-9.030 20.17-20.17zM533.721 219.927h-350.642c-9.309 0-15.515 6.206-15.515 15.515s6.206 15.515 15.515 15.515h350.642c9.309 0 15.515-6.206 15.515-15.515s-7.758-15.515-15.515-15.515zM533.721 117.527h-350.642c-9.309 0-15.515 6.206-15.515 15.515s6.206 15.515 15.515 15.515h350.642c9.309 0 15.515-6.206 15.515-15.515s-7.758-15.515-15.515-15.515zM459.248 544.194c-1.552-20.17-17.067-34.133-37.236-34.133-20.17 1.552-34.133 17.067-34.133 37.236 1.552 20.17 17.067 34.133 37.236 34.133 20.17-1.552 35.685-18.618 34.133-37.236v0zM422.012 502.303c-23.273 1.552-43.442 21.721-41.891 44.994s21.721 43.442 44.994 41.891c23.273-1.552 43.442-21.721 41.891-44.994 0-24.824-20.17-43.442-44.994-41.891v0zM425.115 572.121c-15.515 0-27.927-10.861-27.927-26.376s10.861-27.927 26.376-27.927c15.515 0 27.927 10.861 27.927 26.376s-10.861 27.927-26.376 27.927v0zM453.042 370.424c-1.552-20.17-17.067-34.133-37.236-34.133s-34.133 17.067-34.133 37.236c1.552 20.17 17.067 34.133 37.236 34.133 18.618-1.552 34.133-18.618 34.133-37.236v0zM415.806 328.533c-23.273 1.552-43.442 21.721-41.891 44.994s21.721 43.442 44.994 41.891c23.273-1.552 43.442-21.721 41.891-44.994-1.552-24.824-21.721-43.442-44.994-41.891v0zM418.909 398.352c-15.515 0-27.927-10.861-27.927-26.376s10.861-27.927 26.376-27.927c15.515 0 27.927 10.861 27.927 26.376s-12.412 27.927-26.376 27.927v0zM304.097 463.515c-1.552-20.17-17.067-34.133-37.236-34.133-18.618 0-34.133 17.067-34.133 37.236 1.552 20.17 17.067 34.133 37.236 34.133 20.17-1.552 34.133-18.618 34.133-37.236v0zM266.861 421.624c-23.273 1.552-43.442 21.721-41.891 44.994s21.721 43.442 44.994 41.891c23.273-1.552 43.442-21.721 41.891-44.994s-20.17-43.442-44.994-41.891v0zM269.964 491.442c-15.515 0-27.927-10.861-27.927-26.376s10.861-27.927 26.376-27.927c15.515 0 27.927 10.861 27.927 26.376s-10.861 27.927-26.376 27.927v0zM294.788 468.17c-3.103 0-7.758 1.552-9.309 6.206-3.103 4.655 0 12.412 4.655 13.964l102.4 52.752c4.655 3.103 12.412 0 13.964-4.655 3.103-4.655 0-12.412-4.655-13.964l-102.4-52.752c-1.552 0-3.103-1.552-4.655-1.552v0zM392.533 375.079c-1.552 0-3.103 0-4.655 1.552l-97.745 62.061c-4.655 3.103-6.206 9.309-3.103 15.515 3.103 4.655 9.309 6.206 15.515 3.103l97.745-62.061c4.655-3.103 6.206-9.309 3.103-15.515-4.655-3.103-7.758-4.655-10.861-4.655v0z" />
<glyph unicode="&#xe903;" glyph-name="title-1" d="M954.182 897.939h-882.812c-40.339 0-71.37-34.133-71.37-71.37v-757.139c0-40.339 34.133-71.37 71.37-71.37h879.709c40.339 0 71.37 34.133 71.37 71.37v757.139c4.655 40.339-29.479 71.37-68.267 71.37zM71.37 857.6h879.709c18.618 0 31.030-15.515 31.030-31.030v-128.776h-941.77c0 0 0 0 0 0v128.776c0 18.618 15.515 31.030 31.030 31.030zM952.63 36.848h-881.261c-18.618 0-31.030 15.515-31.030 31.030v595.782c0 0 0 0 0 0h941.77v-595.782h1.552c0-18.618-15.515-31.030-31.030-31.030zM471.661 491.442h-228.073c-9.309 0-17.067-7.758-17.067-17.067v-40.339c0-9.309 7.758-17.067 17.067-17.067s17.067 7.758 17.067 17.067v23.273h79.127v-192.388h-17.067c-9.309 0-17.067-7.758-17.067-17.067s7.758-17.067 17.067-17.067h66.715c9.309 0 20.17 6.206 20.17 15.515s-7.758 17.067-17.067 17.067h-17.067v193.939h79.127v-23.273c0-9.309 7.758-17.067 17.067-17.067s17.067 7.758 17.067 17.067v40.339c0 9.309-7.758 17.067-17.067 17.067zM755.588 483.685h-183.079c-9.309 0-17.067-7.758-17.067-17.067s7.758-17.067 17.067-17.067h183.079c9.309 0 17.067 7.758 17.067 17.067s-7.758 17.067-17.067 17.067zM755.588 381.285h-183.079c-9.309 0-17.067-7.758-17.067-17.067s7.758-17.067 17.067-17.067h183.079c9.309 0 17.067 7.758 17.067 17.067s-7.758 17.067-17.067 17.067zM755.588 280.436h-183.079c-9.309 0-17.067-7.758-17.067-17.067s7.758-17.067 17.067-17.067h183.079c9.309 0 17.067 7.758 17.067 17.067s-7.758 17.067-17.067 17.067z" />
<glyph unicode="&#xe904;" glyph-name="Breadcrumbs-1" d="M954.182 897.939h-882.812c-40.339 0-71.37-34.133-71.37-71.37v-757.139c0-40.339 34.133-71.37 71.37-71.37h879.709c40.339 0 71.37 34.133 71.37 71.37v757.139c4.655 40.339-29.479 71.37-68.267 71.37zM71.37 857.6h879.709c18.618 0 31.030-15.515 31.030-31.030v-260.655h-941.77c0 0 0 0 0 0v260.655c0 18.618 15.515 31.030 31.030 31.030zM952.63 36.848h-881.261c-18.618 0-31.030 15.515-31.030 31.030v463.903c0 0 0 0 0 0h941.77v-463.903h1.552c0-18.618-15.515-31.030-31.030-31.030zM318.061 699.345h242.036c9.309 0 15.515 6.206 15.515 15.515s-6.206 15.515-15.515 15.515h-242.036c-9.309 0-15.515-6.206-15.515-15.515s6.206-15.515 15.515-15.515zM619.055 699.345h51.2c9.309 0 15.515 6.206 15.515 15.515s-6.206 15.515-15.515 15.515h-51.2c-9.309 0-15.515-6.206-15.515-15.515s6.206-15.515 15.515-15.515zM440.63 434.036h-183.079c-18.618 0-32.582-13.964-32.582-32.582v-237.382c0-18.618 13.964-32.582 32.582-32.582h183.079c15.515 0 29.479 12.412 32.582 29.479v240.485c0 18.618-13.964 32.582-32.582 32.582zM442.182 165.624c0-1.552-1.552-3.103-1.552-3.103h-183.079c0 0-1.552 1.552-1.552 1.552v237.382c0 0 1.552 1.552 1.552 1.552h183.079c0 0 1.552-1.552 1.552-1.552v-235.83zM736.97 434.036h-183.079c-18.618 0-32.582-13.964-32.582-32.582v-237.382c0-18.618 13.964-32.582 32.582-32.582h183.079c18.618 0 32.582 13.964 32.582 32.582v237.382c0 18.618-13.964 32.582-32.582 32.582zM738.521 164.073c0 0-1.552-1.552-1.552-1.552h-183.079c0 0-1.552 1.552-1.552 1.552v237.382c0 0 1.552 1.552 1.552 1.552h183.079c0 0 1.552-1.552 1.552-1.552v-237.382z" />
<glyph unicode="&#xe905;" glyph-name="BA" d="M363.315 499.61c13.517 10.854 20.275 26.419 20.275 46.285 0 22.118-6.349 37.888-18.842 47.718s-32.154 14.746-58.573 14.746h-75.366v-125.133h75.981c24.166 0 43.008 5.53 56.525 16.384zM669.696 608.358h-54.272v-321.536h50.586c40.55 0 71.885 12.698 93.594 38.093s32.768 61.85 33.178 109.363v24.781c0 48.333-10.445 85.402-31.539 110.797-21.094 25.805-51.61 38.502-91.546 38.502zM323.379 426.291h-92.365v-139.264h86.016c24.371 0 43.213 5.939 56.934 18.022s20.48 28.877 20.48 50.176c0 46.285-23.757 70.042-71.066 71.066zM913.818 859.648h-803.635c-60.826 0-110.182-49.357-110.182-110.182v-602.931c0-60.826 49.357-110.182 110.182-110.182h803.43c60.826 0 110.182 49.357 110.182 110.182v602.931c0.205 60.826-49.152 110.182-109.978 110.182zM431.309 258.765c-26.829-22.528-65.331-33.587-115.302-33.587h-162.611v445.645h152.781c50.381 0 88.883-10.035 115.098-30.31 26.419-20.275 39.526-50.381 39.526-90.317 0-20.48-5.53-38.707-16.589-55.091s-27.238-29.082-48.333-37.888c24.166-6.554 42.803-18.842 55.91-36.864s19.661-39.731 19.661-65.126c0-41.779-13.312-73.933-40.141-96.461zM870.605 436.736c0-42.189-8.397-79.462-25.19-111.411s-40.755-56.73-71.885-74.138c-31.13-17.408-66.765-26.010-106.906-26.010h-128.205v445.645h131.277c39.322 0 74.342-8.806 104.858-26.419s54.067-42.394 70.861-74.752c16.794-32.154 25.19-69.222 25.19-110.797v-22.118z" />
<glyph unicode="&#xe906;" glyph-name="date" d="M173.77-1.939c-72.921 0-131.879 58.958-131.879 131.879v558.545c0 72.921 58.958 131.879 131.879 131.879h55.855v46.545c0 13.964 10.861 24.824 24.824 24.824 12.412 1.552 24.824-9.309 24.824-23.273v-46.545h417.358v46.545c0 13.964 10.861 24.824 24.824 24.824s24.824-10.861 24.824-24.824v-46.545h57.406c72.921 0 131.879-58.958 131.879-131.879v-204.8c0-13.964-10.861-24.824-24.824-24.824s-24.824 10.861-24.824 24.824v203.248c0 44.994-37.236 82.23-82.23 82.23h-629.915c-44.994 0-82.23-37.236-82.23-82.23v-558.545c0-44.994 37.236-82.23 82.23-82.23h274.618c13.964 0 24.824-10.861 24.824-24.824s-10.861-24.824-24.824-24.824h-274.618zM757.139 1.164c-110.158 0-200.145 89.988-200.145 200.145s89.988 200.145 200.145 200.145 200.145-89.988 200.145-200.145-89.988-200.145-200.145-200.145zM757.139 362.667c-89.988 0-161.358-72.921-161.358-161.358s72.921-161.358 161.358-161.358 161.358 72.921 161.358 161.358-71.37 161.358-161.358 161.358zM747.83 167.176c-10.861 0-18.618 7.758-18.618 18.618v72.921c0 10.861 7.758 18.618 18.618 18.618s18.618-7.758 18.618-18.618v-54.303h32.582c10.861 0 18.618-7.758 18.618-18.618s-7.758-18.618-18.618-18.618h-51.2zM409.6 192c-13.964 0-24.824 10.861-24.824 24.824s10.861 24.824 24.824 24.824c13.964 0 24.824-10.861 24.824-24.824s-10.861-24.824-24.824-24.824zM254.448 192c-13.964 0-24.824 10.861-24.824 24.824s10.861 24.824 24.824 24.824c13.964 0 24.824-10.861 24.824-24.824s-12.412-24.824-24.824-24.824zM409.6 347.152c-13.964 0-24.824 10.861-24.824 24.824s10.861 24.824 24.824 24.824c13.964 0 24.824-10.861 24.824-24.824s-10.861-24.824-24.824-24.824zM254.448 347.152c-13.964 0-24.824 10.861-24.824 24.824s10.861 24.824 24.824 24.824c13.964 0 24.824-10.861 24.824-24.824s-12.412-24.824-24.824-24.824zM721.455 502.303c-13.964 0-24.824 10.861-24.824 24.824s10.861 24.824 24.824 24.824c13.964 0 24.824-10.861 24.824-24.824s-10.861-24.824-24.824-24.824zM564.752 502.303c-13.964 0-24.824 10.861-24.824 24.824s10.861 24.824 24.824 24.824c13.964 0 24.824-10.861 24.824-24.824s-10.861-24.824-24.824-24.824zM409.6 502.303c-13.964 0-24.824 10.861-24.824 24.824s10.861 24.824 24.824 24.824c13.964 0 24.824-10.861 24.824-24.824s-10.861-24.824-24.824-24.824zM254.448 502.303c-13.964 0-24.824 10.861-24.824 24.824s10.861 24.824 24.824 24.824c13.964 0 24.824-10.861 24.824-24.824s-12.412-24.824-24.824-24.824z" />
<glyph unicode="&#xe907;" glyph-name="feedback" d="M69.818 880.873v-702.836c0-7.758 6.206-13.964 13.964-13.964h463.903c6.206 0 10.861-3.103 13.964-7.758l114.812-158.255 114.812 158.255c3.103 4.655 9.309 7.758 13.964 7.758h133.43c7.758 0 13.964 6.206 13.964 13.964v702.836c1.552 9.309-6.206 17.067-15.515 17.067h-850.23c-9.309 0-17.067-7.758-17.067-17.067zM676.461 74.085l-91.539 127.224c-3.103 4.655-9.309 7.758-13.964 7.758h-442.182c-7.758 0-13.964 6.206-13.964 13.964v612.848c0 9.309 7.758 17.067 17.067 17.067h760.242c9.309 0 17.067-7.758 17.067-17.067v-612.848c0-7.758-6.206-13.964-13.964-13.964h-111.709c-6.206 0-10.861-3.103-13.964-7.758l-93.091-127.224zM789.721 717.964h-555.442c-12.412 0-21.721-9.309-21.721-23.273 0-12.412 9.309-23.273 21.721-23.273h553.891c12.412 0 21.721 9.309 21.721 23.273 1.552 13.964-7.758 23.273-20.17 23.273zM789.721 569.018h-555.442c-12.412 0-21.721-9.309-21.721-23.273 0-12.412 9.309-23.273 21.721-23.273h553.891c12.412 0 21.721 9.309 21.721 23.273 1.552 12.412-7.758 23.273-20.17 23.273zM488.727 418.521h-254.448c-12.412 0-21.721-9.309-21.721-23.273 0-12.412 9.309-21.721 21.721-21.721h254.448c12.412 0 23.273 9.309 23.273 21.721s-9.309 23.273-23.273 23.273z" />
<glyph unicode="&#xe908;" glyph-name="Reactions" d="M288.582 106.667c0-11.139-9.030-20.17-20.17-20.17s-20.17 9.030-20.17 20.17c0 11.139 9.030 20.17 20.17 20.17s20.17-9.030 20.17-20.17zM512-1.939c-52.752 0-105.503 9.309-155.152 26.376-9.309 3.103-13.964 13.964-10.861 23.273 3.103 7.758 9.309 12.412 17.067 12.412 1.552 0 3.103 0 6.206-1.552 43.442-15.515 93.091-24.824 142.739-24.824 228.073 0 412.703 184.63 412.703 412.703s-184.63 412.703-412.703 412.703c-228.073 1.552-412.703-184.63-412.703-412.703 0-99.297 35.685-195.491 100.848-269.964 6.206-7.758 6.206-18.618-1.552-26.376-3.103-3.103-7.758-4.655-12.412-4.655s-10.861 1.552-13.964 6.206c-71.37 80.679-110.158 184.63-110.158 293.236 0 248.242 201.697 448.388 448.388 448.388s448.388-200.145 448.388-448.388c1.552-245.139-198.594-446.836-446.836-446.836zM350.642 516.267c-44.994 0-80.679 35.685-80.679 80.679 0 43.442 37.236 80.679 80.679 80.679 44.994 0 82.23-35.685 82.23-80.679s-37.236-80.679-82.23-80.679zM350.642 643.491c-24.824 0-46.545-20.17-46.545-46.545 0-24.824 20.17-44.994 46.545-44.994 24.824 0 46.545 20.17 46.545 46.545-1.552 24.824-21.721 44.994-46.545 44.994zM673.358 516.267c-44.994 0-80.679 35.685-80.679 80.679 0 43.442 37.236 80.679 80.679 80.679s80.679-37.236 80.679-80.679c1.552-44.994-35.685-80.679-80.679-80.679zM673.358 643.491c-24.824 0-46.545-20.17-46.545-46.545 0-24.824 20.17-44.994 46.545-44.994 24.824 0 46.545 20.17 46.545 46.545 0 24.824-20.17 44.994-46.545 44.994zM512 268.024c-91.539 0-166.012 74.473-166.012 166.012 0 9.309 7.758 17.067 17.067 17.067h297.891c9.309 0 17.067-7.758 17.067-17.067 0-43.442-17.067-85.333-48.097-117.915-31.030-29.479-72.921-48.097-117.915-48.097zM384.776 403.006c13.964-58.958 66.715-99.297 127.224-99.297s113.261 40.339 127.224 99.297l3.103 12.412h-260.655l3.103-12.412z" />
<glyph unicode="&#xe909;" glyph-name="search" d="M899.879 897.939h-775.758c-31.030 0-60.509-24.824-60.509-60.509v-774.206c0-32.582 27.927-60.509 60.509-60.509h775.758c32.582 0 60.509 27.927 60.509 60.509v774.206c0 35.685-24.824 60.509-60.509 60.509zM927.806 780.024v-716.8c0-13.964-13.964-27.927-27.927-27.927h-775.758c-13.964 0-27.927 13.964-27.927 27.927v774.206c0 13.964 13.964 27.927 27.927 27.927h775.758c13.964 0 27.927-13.964 27.927-27.927v-57.406zM347.539 531.782h-136.533c-13.964 0-27.927-13.964-27.927-27.927v-290.133c0-10.861 7.758-18.618 10.861-21.721s10.861-7.758 18.618-7.758h138.085c13.964 0 24.824 13.964 24.824 24.824v294.788c0 13.964-13.964 27.927-27.927 27.927zM347.539 213.721h-136.533v287.030h136.533v-287.030zM254.448 435.588h46.545c7.758 0 13.964 7.758 13.964 13.964 0 7.758-7.758 13.964-13.964 13.964h-46.545c-7.758 0-13.964-7.758-13.964-13.964-1.552-6.206 6.206-13.964 13.964-13.964zM254.448 378.182h46.545c7.758 0 13.964 7.758 13.964 13.964 0 7.758-7.758 13.964-13.964 13.964h-46.545c-7.758 0-13.964-7.758-13.964-13.964-1.552-10.861 6.206-13.964 13.964-13.964zM254.448 317.673h46.545c7.758 0 13.964 7.758 13.964 13.964s-7.758 13.964-13.964 13.964h-46.545c-7.758 0-13.964-7.758-13.964-13.964s6.206-13.964 13.964-13.964zM254.448 260.267h46.545c7.758 0 13.964 7.758 13.964 13.964 0 7.758-7.758 13.964-13.964 13.964h-46.545c-7.758 0-13.964-7.758-13.964-13.964-1.552-7.758 6.206-13.964 13.964-13.964zM580.267 531.782h-136.533c-13.964 0-27.927-13.964-27.927-27.927v-290.133c0-10.861 7.758-18.618 10.861-21.721s10.861-7.758 18.618-7.758h138.085c13.964 0 24.824 13.964 24.824 24.824v294.788c0 13.964-10.861 27.927-27.927 27.927zM580.267 213.721h-136.533v287.030h136.533v-287.030zM490.279 435.588h46.545c7.758 0 13.964 7.758 13.964 13.964 0 7.758-7.758 13.964-13.964 13.964h-46.545c-7.758 0-13.964-7.758-13.964-13.964s3.103-13.964 13.964-13.964zM490.279 378.182h46.545c7.758 0 13.964 7.758 13.964 13.964 0 7.758-7.758 13.964-13.964 13.964h-46.545c-7.758 0-13.964-7.758-13.964-13.964 0-10.861 3.103-13.964 13.964-13.964zM490.279 317.673h46.545c7.758 0 13.964 7.758 13.964 13.964s-7.758 13.964-13.964 13.964h-46.545c-7.758 0-13.964-7.758-13.964-13.964s3.103-13.964 13.964-13.964zM490.279 260.267h46.545c7.758 0 13.964 7.758 13.964 13.964 0 7.758-7.758 13.964-13.964 13.964h-46.545c-7.758 0-13.964-7.758-13.964-13.964 0-7.758 3.103-13.964 13.964-13.964zM816.097 531.782h-136.533c-13.964 0-27.927-13.964-27.927-27.927v-290.133c0-10.861 7.758-18.618 10.861-21.721s10.861-7.758 18.618-7.758h139.636c13.964 0 24.824 13.964 24.824 24.824v294.788c0 13.964-13.964 27.927-29.479 27.927zM816.097 213.721h-136.533v287.030h136.533v-287.030zM723.006 435.588h46.545c7.758 0 13.964 7.758 13.964 13.964 0 7.758-7.758 13.964-13.964 13.964h-46.545c-7.758 0-13.964-7.758-13.964-13.964s7.758-13.964 13.964-13.964zM723.006 378.182h46.545c7.758 0 13.964 7.758 13.964 13.964 0 7.758-7.758 13.964-13.964 13.964h-46.545c-7.758 0-13.964-7.758-13.964-13.964 0-10.861 7.758-13.964 13.964-13.964zM723.006 317.673h46.545c7.758 0 13.964 7.758 13.964 13.964s-7.758 13.964-13.964 13.964h-46.545c-7.758 0-13.964-7.758-13.964-13.964s7.758-13.964 13.964-13.964zM723.006 260.267h46.545c7.758 0 13.964 7.758 13.964 13.964 0 7.758-7.758 13.964-13.964 13.964h-46.545c-7.758 0-13.964-7.758-13.964-13.964 0-7.758 7.758-13.964 13.964-13.964zM812.994 750.545h-601.988c-18.618 0-32.582-13.964-32.582-32.582v-76.024c3.103-10.861 7.758-18.618 10.861-24.824 7.758-3.103 13.964-7.758 21.721-7.758h605.091c18.618 0 27.927 13.964 27.927 27.927v77.576c1.552 21.721-12.412 35.685-31.030 35.685zM812.994 643.491h-512v71.37h512v-71.37z" />
<glyph unicode="&#xe90a;" glyph-name="Sidebar" d="M881.261 899.491h-738.521c-44.994 0-82.23-37.236-82.23-82.23v-738.521c0-44.994 37.236-82.23 82.23-82.23h738.521c44.994 0 82.23 37.236 82.23 82.23v738.521c0 44.994-37.236 82.23-82.23 82.23zM142.739 857.6h738.521c23.273 0 40.339-18.618 40.339-40.339v-82.23h-819.2v82.23c0 21.721 17.067 40.339 40.339 40.339zM102.4 78.739v615.952h533.721v-656.291h-493.382c-23.273-1.552-40.339 17.067-40.339 40.339zM881.261 36.848h-204.8v657.842h246.691v-615.952c-1.552-23.273-18.618-41.891-41.891-41.891zM183.079 797.091c0-11.139-9.030-20.17-20.17-20.17s-20.17 9.030-20.17 20.17c0 11.139 9.030 20.17 20.17 20.17s20.17-9.030 20.17-20.17zM265.309 797.091c0-11.139-9.030-20.17-20.17-20.17s-20.17 9.030-20.17 20.17c0 11.139 9.030 20.17 20.17 20.17s20.17-9.030 20.17-20.17zM347.539 797.091c0-11.139-9.030-20.17-20.17-20.17s-20.17 9.030-20.17 20.17c0 11.139 9.030 20.17 20.17 20.17s20.17-9.030 20.17-20.17zM861.091 570.57h-122.57c-10.861 0-20.17-9.309-20.17-20.17s9.309-20.17 20.17-20.17h122.57c10.861 0 20.17 9.309 20.17 20.17s-9.309 20.17-20.17 20.17zM861.091 448h-122.57c-10.861 0-20.17-9.309-20.17-20.17s9.309-20.17 20.17-20.17h122.57c10.861 0 20.17 9.309 20.17 20.17s-9.309 20.17-20.17 20.17zM861.091 325.43h-122.57c-10.861 0-20.17-9.309-20.17-20.17s9.309-20.17 20.17-20.17h122.57c10.861 0 20.17 9.309 20.17 20.17s-9.309 20.17-20.17 20.17zM819.2 201.309h-82.23c-10.861 0-20.17-9.309-20.17-20.17s9.309-20.17 20.17-20.17h82.23c10.861 0 20.17 9.309 20.17 20.17s-7.758 20.17-20.17 20.17z" />
<glyph unicode="&#xe90b;" glyph-name="betterdocs-logo" d="M486.909 553.951h256.745c25.050 0 45.395 20.975 45.395 46.79s-20.346 46.79-45.395 46.79h-256.745c-25.048 0-45.4-20.975-45.4-46.79-0.522-25.815 20.351-46.79 45.4-46.79zM383.65 371.631h256.74c25.050 0 45.402 20.975 45.402 46.79s-20.352 46.79-45.402 46.79h-256.74c-25.048 0-45.4-20.975-45.4-46.79s20.351-46.79 45.4-46.79zM580.918 232.333c0 25.818-20.352 46.79-45.4 46.79h-256.743c-25.048 0-45.4-20.973-45.4-46.79 0-25.811 20.352-46.79 45.4-46.79h256.743c25.048 0 45.4 20.979 45.4 46.79zM933.107 447.462c-1.562 3.764-3.648 6.454-5.741 9.681l68.365 121.546c37.568 66.151 37.568 145.21 0.518 211.361s-103.322 105.949-177.946 105.949h-309.969c-72.536 0-140.374-40.336-177.425-105.412l-302.665-537.276c-37.572-66.15-37.572-145.21-0.522-211.36 37.050-66.157 103.324-105.952 177.946-105.952h530.708c94.451 0 181.075 49.478 231.174 131.763 50.618 82.285 55.834 184.474 15.13 272.136l-49.574 107.564zM283.945 35.494h-78.276c-39.66 0-74.623 20.979-94.452 56.474-19.83 34.957-19.308 76.909 0.522 112.403l302.665 537.276c19.308 34.42 55.837 55.932 94.452 55.932h309.972c39.661 0 74.624-20.975 94.451-56.47 19.827-34.958 19.309-76.908-0.525-112.403l-303.185-537.276c-19.308-34.419-55.315-55.936-93.93-55.936h-231.695zM886.669 121.011c-32.358-53.248-88.717-85.517-149.773-85.517h-47.482c1.043 2.15 2.605 3.763 3.648 5.92l176.902 313.544 27.136-57.544c25.574-57.011 21.92-123.162-10.432-176.403z" />
<glyph unicode="&#xe90c;" glyph-name="search1" d="M398.878 796.444c124.75 0 226.251-102.084 226.251-227.556 0-47.25-14.5-92.736-41.945-131.527l-22.277-31.46-31.278-22.375c-38.555-27.611-83.778-42.194-130.75-42.194-124.779 0-226.251 102.084-226.251 227.556s101.474 227.556 226.251 227.556zM398.878 910.222c-187.444 0-339.388-152.82-339.388-341.333s151.945-341.333 339.388-341.333c73.25 0 140.889 23.57 196.334 63.264l272.555-274.124c11.083-11.14 25.584-16.695 40.084-16.695s28.999 5.556 40.055 16.695c22.139 22.254 22.139 58.332 0 80.583l-272.555 274.124c39.472 55.778 62.889 123.819 62.889 197.486 0 188.514-151.945 341.333-339.362 341.333v0z" />
<glyph unicode="&#xe90d;" glyph-name="betterdocs-category-box" horiz-adv-x="965" d="M899.657 933.669h-835.291c-35.109 0-65.829-27.794-65.829-65.829v-835.291c0-35.109 30.72-65.829 65.829-65.829h835.291c35.109 0 65.829 30.72 65.829 65.829v835.291c0 38.034-26.331 65.829-65.829 65.829zM930.377 806.4v-773.851c0-16.091-16.091-30.72-30.72-30.72h-835.291c-16.091 0-30.72 16.091-30.72 30.72v835.291c0 16.091 16.091 30.72 30.72 30.72h835.291c16.091 0 30.72-16.091 30.72-30.72v-61.44zM304.274 581.12h-149.211c-17.554 0-30.72-13.166-30.72-30.72v-175.543c1.463-10.24 5.851-17.554 11.703-23.406 5.851-4.389 11.703-7.314 19.017-7.314h152.137c17.554 0 27.794 13.166 27.794 27.794v178.469c0 17.554-14.629 30.72-30.72 30.72zM304.274 374.857h-144.823v172.617h144.823v-172.617zM204.8 475.794h49.737c8.777 0 14.629 7.314 14.629 14.629 0 8.777-7.314 14.629-14.629 14.629h-49.737c-8.777 0-14.629-7.314-14.629-14.629s5.851-14.629 14.629-14.629zM204.8 412.891h49.737c8.777 0 14.629 7.314 14.629 14.629 0 8.777-7.314 14.629-14.629 14.629h-49.737c-8.777 0-14.629-7.314-14.629-14.629s5.851-14.629 14.629-14.629zM555.886 581.12h-147.749c-17.554 0-30.72-13.166-30.72-30.72v-175.543c1.463-10.24 5.851-17.554 11.703-23.406 5.851-4.389 11.703-7.314 19.017-7.314h150.674c17.554 0 27.794 13.166 27.794 27.794v178.469c1.463 17.554-13.166 30.72-30.72 30.72zM555.886 374.857h-144.823v172.617h144.823v-172.617zM457.874 475.794h49.737c8.777 0 14.629 7.314 14.629 14.629 0 8.777-7.314 14.629-14.629 14.629h-49.737c-8.777 0-14.629-7.314-14.629-14.629s5.851-14.629 14.629-14.629zM457.874 412.891h49.737c8.777 0 14.629 7.314 14.629 14.629 0 8.777-7.314 14.629-14.629 14.629h-49.737c-8.777 0-14.629-7.314-14.629-14.629s5.851-14.629 14.629-14.629zM808.96 581.12h-147.749c-17.554 0-30.72-13.166-30.72-30.72v-175.543c1.463-10.24 5.851-17.554 11.703-23.406 5.851-4.389 11.703-7.314 19.017-7.314h150.674c17.554 0 27.794 13.166 27.794 27.794v178.469c0 17.554-13.166 30.72-30.72 30.72zM808.96 374.857h-144.823v172.617h144.823c0 0 0-172.617 0-172.617zM710.949 475.794h49.737c8.777 0 14.629 7.314 14.629 14.629 0 8.777-7.314 14.629-14.629 14.629h-49.737c-8.777 0-14.629-7.314-14.629-14.629s5.851-14.629 14.629-14.629zM710.949 412.891h49.737c8.777 0 14.629 7.314 14.629 14.629 0 8.777-7.314 14.629-14.629 14.629h-49.737c-8.777 0-14.629-7.314-14.629-14.629s5.851-14.629 14.629-14.629zM304.274 310.491h-149.211c-17.554 0-30.72-13.166-30.72-30.72v-175.543c1.463-10.24 5.851-17.554 11.703-23.406 5.851-4.389 11.703-7.314 19.017-7.314h152.137c17.554 0 27.794 13.166 27.794 27.794v177.006c0 17.554-14.629 32.183-30.72 32.183zM304.274 104.229h-144.823v171.154h144.823v-171.154zM204.8 205.166h49.737c8.777 0 14.629 7.314 14.629 14.629s-7.314 14.629-14.629 14.629h-49.737c-8.777 0-14.629-7.314-14.629-14.629s5.851-14.629 14.629-14.629zM204.8 142.263h49.737c8.777 0 14.629 7.314 14.629 14.629 0 8.777-7.314 14.629-14.629 14.629h-49.737c-8.777 0-14.629-7.314-14.629-14.629s5.851-14.629 14.629-14.629zM555.886 310.491h-147.749c-17.554 0-30.72-13.166-30.72-30.72v-175.543c1.463-10.24 5.851-17.554 11.703-23.406 5.851-4.389 11.703-7.314 19.017-7.314h150.674c17.554 0 27.794 13.166 27.794 27.794v177.006c1.463 17.554-13.166 32.183-30.72 32.183zM555.886 104.229h-144.823v171.154h144.823v-171.154zM457.874 205.166h49.737c8.777 0 14.629 7.314 14.629 14.629s-7.314 14.629-14.629 14.629h-49.737c-8.777 0-14.629-7.314-14.629-14.629s5.851-14.629 14.629-14.629zM457.874 142.263h49.737c8.777 0 14.629 7.314 14.629 14.629 0 8.777-7.314 14.629-14.629 14.629h-49.737c-8.777 0-14.629-7.314-14.629-14.629s5.851-14.629 14.629-14.629zM808.96 310.491h-147.749c-17.554 0-30.72-13.166-30.72-30.72v-175.543c1.463-10.24 5.851-17.554 11.703-23.406 5.851-4.389 11.703-7.314 19.017-7.314h150.674c17.554 0 27.794 13.166 27.794 27.794v177.006c0 17.554-13.166 32.183-30.72 32.183zM808.96 104.229h-144.823v171.154h144.823c0 0 0-171.154 0-171.154zM710.949 205.166h49.737c8.777 0 14.629 7.314 14.629 14.629s-7.314 14.629-14.629 14.629h-49.737c-8.777 0-14.629-7.314-14.629-14.629s5.851-14.629 14.629-14.629zM710.949 142.263h49.737c8.777 0 14.629 7.314 14.629 14.629 0 8.777-7.314 14.629-14.629 14.629h-49.737c-8.777 0-14.629-7.314-14.629-14.629s5.851-14.629 14.629-14.629zM807.497 809.326h-650.971c-19.017 0-35.109-16.091-35.109-35.109v-80.457c2.926-11.703 7.314-20.48 14.629-26.331 5.851-5.851 13.166-8.777 21.943-8.777h653.897c19.017 0 30.72 16.091 30.72 30.72v86.309c0 19.017-16.091 33.646-35.109 33.646zM807.497 693.76h-554.423v77.531h554.423v-77.531z" />
<glyph unicode="&#xe90e;" glyph-name="article" d="M810 810.667h-596q-36 0-61-25t-25-61v-596q0-36 25-61t61-25h596q36 0 61 25t25 61v596q0 36-25 61t-61 25zM598 212.667h-300v86h300v-86zM726 384.667h-428v84h428v-84zM726 554.667h-428v86h428v-86z" />
<glyph unicode="&#xe90f;" glyph-name="uniE90F" d="M964.267 900.267h-904.533c-8.533 0-17.067 4.267-17.067 12.8s8.533 17.067 17.067 17.067h904.533c8.533 0 17.067-8.533 17.067-17.067s-8.533-12.8-17.067-12.8z" />
<glyph unicode="&#xe910;" glyph-name="uniE910" d="M964.267 793.6h-913.067c-8.533 0-17.067 8.533-17.067 17.067s8.533 12.8 17.067 12.8h913.067c8.533 0 17.067-8.533 17.067-17.067s-8.533-12.8-17.067-12.8z" />
<glyph unicode="&#xe911;" glyph-name="uniE911" d="M964.267 686.933h-913.067c-8.533 0-17.067 8.533-17.067 17.067s8.533 12.8 17.067 12.8h913.067c8.533 0 17.067-8.533 17.067-17.067s-8.533-12.8-17.067-12.8z" />
<glyph unicode="&#xe912;" glyph-name="uniE912" d="M964.267 584.533h-921.6c-8.533 0-17.067 8.533-17.067 17.067s12.8 12.8 17.067 12.8h917.333c8.533 0 17.067-8.533 17.067-17.067s-4.267-12.8-12.8-12.8z" />
<glyph unicode="&#xe913;" glyph-name="uniE913" d="M268.8 477.867h-226.133c-8.533 0-17.067 8.533-17.067 17.067s8.533 17.067 17.067 17.067h226.133c8.533 0 17.067-8.533 17.067-17.067s-8.533-17.067-17.067-17.067z" />
<glyph unicode="&#xe914;" glyph-name="uniE914" d="M964.267 477.867h-226.133c-8.533 0-17.067 8.533-17.067 17.067s8.533 17.067 17.067 17.067h226.133c8.533 0 17.067-8.533 17.067-17.067s-8.533-17.067-17.067-17.067z" />
<glyph unicode="&#xe915;" glyph-name="uniE915" d="M964.267 371.2h-221.867c-8.533 0-17.067 8.533-17.067 17.067s8.533 17.067 17.067 17.067h221.867c8.533 0 17.067-8.533 17.067-17.067s-8.533-17.067-17.067-17.067z" />
<glyph unicode="&#xe916;" glyph-name="uniE916" d="M964.267 256h-221.867c-8.533 0-17.067 8.533-17.067 17.067s8.533 17.067 17.067 17.067h221.867c8.533 0 17.067-8.533 17.067-17.067s-8.533-17.067-17.067-17.067z" />
<glyph unicode="&#xe917;" glyph-name="uniE917" d="M964.267 145.067h-221.867c-8.533 0-17.067 8.533-17.067 17.067s8.533 17.067 17.067 17.067h221.867c8.533 0 17.067-8.533 17.067-17.067s-8.533-17.067-17.067-17.067z" />
<glyph unicode="&#xe918;" glyph-name="uniE918" d="M964.267 25.6h-221.867c-8.533 0-17.067 8.533-17.067 17.067s8.533 17.067 17.067 17.067h221.867c8.533 0 17.067-8.533 17.067-17.067s-8.533-17.067-17.067-17.067z" />
<glyph unicode="&#xe919;" glyph-name="uniE919" d="M362.667 8.533c-46.933 0-89.6 17.067-123.733 51.2s-51.2 76.8-51.2 128 17.067 93.867 51.2 128l157.867 162.133c46.933 46.933 128 46.933 174.933 0 21.333-25.6 34.133-55.467 34.133-89.6s-12.8-64-34.133-89.6l-157.867-162.133c-25.6-29.867-72.533-29.867-98.133 0-12.8 12.8-21.333 29.867-21.333 51.2s8.533 38.4 21.333 51.2l157.867 162.133c8.533 8.533 21.333 8.533 25.6 0 8.533-8.533 8.533-21.333 0-25.6l-157.867-166.4c-4.267-4.267-8.533-17.067-8.533-25.6s4.267-17.067 8.533-25.6c12.8-12.8 34.133-12.8 42.667 0l157.867 162.133c17.067 17.067 25.6 38.4 25.6 59.733s-8.533 46.933-25.6 59.733c-29.867 34.133-85.333 34.133-119.467 0l-157.867-162.133c-25.6-25.6-38.4-59.733-38.4-98.133s12.8-72.533 38.4-98.133c51.2-51.2 140.8-51.2 192 0l157.867 162.133c8.533 8.533 21.333 8.533 25.6 0 8.533-8.533 8.533-21.333 0-25.6l-157.867-162.133c-25.6-29.867-72.533-46.933-119.467-46.933z" />
<glyph unicode="&#xe91a;" glyph-name="uniE91A" d="M964.267 887.467h-900.267c-8.533 0-12.8 8.533-12.8 12.8s4.267 17.067 12.8 17.067h900.267c8.533 0 17.067-8.533 17.067-17.067s-8.533-12.8-17.067-12.8z" />
<glyph unicode="&#xe91b;" glyph-name="uniE91B" d="M964.267 780.8h-900.267c-8.533 0-17.067 8.533-17.067 17.067s8.533 12.8 12.8 12.8h900.267c8.533 0 12.8-8.533 12.8-12.8s0-17.067-8.533-17.067z" />
<glyph unicode="&#xe91c;" glyph-name="uniE91C" d="M964.267 678.4h-900.267c-8.533 0-12.8 8.533-12.8 12.8s8.533 12.8 12.8 12.8h900.267c8.533 0 12.8-8.533 12.8-12.8s-4.267-12.8-12.8-12.8z" />
<glyph unicode="&#xe91d;" glyph-name="uniE91D" d="M964.267 576h-904.533c-8.533 0-17.067 4.267-17.067 12.8s8.533 12.8 12.8 12.8h904.533c8.533 0 12.8-8.533 12.8-12.8s0-12.8-8.533-12.8z" />
<glyph unicode="&#xe91e;" glyph-name="uniE91E" d="M281.6 469.333h-221.867c-8.533 0-12.8 8.533-12.8 12.8s8.533 12.8 12.8 12.8h221.867c8.533 0 12.8-8.533 12.8-12.8s-4.267-12.8-12.8-12.8z" />
<glyph unicode="&#xe91f;" glyph-name="uniE91F" d="M964.267 469.333h-580.267c-8.533 0-12.8 8.533-12.8 12.8s8.533 12.8 12.8 12.8h580.267c8.533 0 12.8-8.533 12.8-12.8s-4.267-12.8-12.8-12.8z" />
<glyph unicode="&#xe920;" glyph-name="uniE920" d="M460.8 213.333h-371.2c-17.067 0-34.133 17.067-34.133 34.133v115.2c0 17.067 12.8 34.133 34.133 34.133h371.2c17.067 0 34.133-17.067 34.133-34.133v-115.2c-4.267-17.067-17.067-34.133-34.133-34.133zM89.6 362.667l4.267-115.2h366.933l-4.267 115.2h-366.933zM460.8 362.667v0 0z" />
<glyph unicode="&#xe921;" glyph-name="uniE921" d="M162.133 307.2c0-7.069-5.731-12.8-12.8-12.8s-12.8 5.731-12.8 12.8c0 7.069 5.731 12.8 12.8 12.8s12.8-5.731 12.8-12.8z" />
<glyph unicode="&#xe922;" glyph-name="uniE922" d="M371.2 294.4h-162.133c-8.533 0-12.8 8.533-12.8 12.8s4.267 12.8 12.8 12.8h162.133c8.533 0 12.8-4.267 12.8-12.8s-4.267-12.8-12.8-12.8z" />
<glyph unicode="&#xe923;" glyph-name="uniE923" d="M460.8-21.333h-371.2c-17.067 0-34.133 17.067-34.133 34.133v115.2c0 17.067 12.8 34.133 34.133 34.133h371.2c17.067 0 34.133-17.067 34.133-34.133v-115.2c-4.267-21.333-17.067-34.133-34.133-34.133zM89.6 128l4.267-115.2h366.933l-4.267 110.933h-366.933zM460.8 128v0 0z" />
<glyph unicode="&#xe924;" glyph-name="uniE924" d="M162.133 68.267c0-7.069-5.731-12.8-12.8-12.8s-12.8 5.731-12.8 12.8c0 7.069 5.731 12.8 12.8 12.8s12.8-5.731 12.8-12.8z" />
<glyph unicode="&#xe925;" glyph-name="uniE925" d="M371.2 55.467h-162.133c-8.533 0-12.8 8.533-12.8 12.8s8.533 12.8 12.8 12.8h162.133c8.533 0 12.8-8.533 12.8-12.8s-4.267-12.8-12.8-12.8z" />
<glyph unicode="&#xe926;" glyph-name="uniE926" d="M951.467 213.333h-371.2c-17.067 0-34.133 17.067-34.133 34.133v115.2c0 17.067 12.8 34.133 34.133 34.133h371.2c17.067 0 34.133-17.067 34.133-34.133v-115.2c-4.267-17.067-17.067-34.133-34.133-34.133zM580.267 362.667l4.267-115.2h366.933l-4.267 115.2h-366.933zM951.467 362.667v0 0z" />
<glyph unicode="&#xe927;" glyph-name="uniE927" d="M652.8 307.2c0-7.069-5.731-12.8-12.8-12.8s-12.8 5.731-12.8 12.8c0 7.069 5.731 12.8 12.8 12.8s12.8-5.731 12.8-12.8z" />
<glyph unicode="&#xe928;" glyph-name="uniE928" d="M861.867 294.4h-162.133c-8.533 0-12.8 8.533-12.8 12.8s8.533 12.8 12.8 12.8h162.133c8.533 0 12.8-8.533 12.8-12.8s-4.267-12.8-12.8-12.8z" />
<glyph unicode="&#xe929;" glyph-name="uniE929" d="M951.467-21.333h-371.2c-17.067 0-34.133 17.067-34.133 34.133v115.2c0 17.067 12.8 34.133 34.133 34.133h371.2c17.067 0 34.133-17.067 34.133-34.133v-115.2c-4.267-21.333-17.067-34.133-34.133-34.133zM580.267 128l4.267-115.2h366.933l-4.267 110.933h-366.933zM951.467 128v0 0z" />
<glyph unicode="&#xe92a;" glyph-name="uniE92A" d="M652.8 68.267c0-7.069-5.731-12.8-12.8-12.8s-12.8 5.731-12.8 12.8c0 7.069 5.731 12.8 12.8 12.8s12.8-5.731 12.8-12.8z" />
<glyph unicode="&#xe92b;" glyph-name="uniE92B" d="M861.867 55.467h-162.133c-8.533 0-12.8 8.533-12.8 12.8s8.533 12.8 12.8 12.8h162.133c8.533 0 12.8-8.533 12.8-12.8s-4.267-12.8-12.8-12.8z" />
<glyph unicode="&#xe938;" glyph-name="qrcode" d="M320 896h-256v-256h256v256zM384 960v0-384h-384v384h384zM128 832h128v-128h-128zM960 896h-256v-256h256v256zM1024 960v0-384h-384v384h384zM768 832h128v-128h-128zM320 256h-256v-256h256v256zM384 320v0-384h-384v384h384zM128 192h128v-128h-128zM448 960h64v-64h-64zM512 896h64v-64h-64zM448 832h64v-64h-64zM512 768h64v-64h-64zM448 704h64v-64h-64zM512 640h64v-64h-64zM448 576h64v-64h-64zM448 448h64v-64h-64zM512 384h64v-64h-64zM448 320h64v-64h-64zM512 256h64v-64h-64zM448 192h64v-64h-64zM512 128h64v-64h-64zM448 64h64v-64h-64zM512 0h64v-64h-64zM960 448h64v-64h-64zM64 448h64v-64h-64zM128 512h64v-64h-64zM0 512h64v-64h-64zM256 512h64v-64h-64zM320 448h64v-64h-64zM384 512h64v-64h-64zM576 448h64v-64h-64zM640 512h64v-64h-64zM704 448h64v-64h-64zM768 512h64v-64h-64zM832 448h64v-64h-64zM896 512h64v-64h-64zM960 320h64v-64h-64zM576 320h64v-64h-64zM640 384h64v-64h-64zM704 320h64v-64h-64zM832 320h64v-64h-64zM896 384h64v-64h-64zM960 192h64v-64h-64zM576 192h64v-64h-64zM640 256h64v-64h-64zM768 256h64v-64h-64zM832 192h64v-64h-64zM896 256h64v-64h-64zM960 64h64v-64h-64zM640 128h64v-64h-64zM704 64h64v-64h-64zM768 128h64v-64h-64zM832 64h64v-64h-64zM640 0h64v-64h-64zM768 0h64v-64h-64zM896 0h64v-64h-64z" />
<glyph unicode="&#xe93f;" glyph-name="credit-card" d="M928 832h-832c-52.8 0-96-43.2-96-96v-576c0-52.8 43.2-96 96-96h832c52.8 0 96 43.2 96 96v576c0 52.8-43.2 96-96 96zM96 768h832c17.346 0 32-14.654 32-32v-96h-896v96c0 17.346 14.654 32 32 32zM928 128h-832c-17.346 0-32 14.654-32 32v288h896v-288c0-17.346-14.654-32-32-32zM128 320h64v-128h-64zM256 320h64v-128h-64zM384 320h64v-128h-64z" />
<glyph unicode="&#xe954;" glyph-name="printer" d="M256 896h512v-128h-512v128zM960 704h-896c-35.2 0-64-28.8-64-64v-320c0-35.2 28.794-64 64-64h192v-256h512v256h192c35.2 0 64 28.8 64 64v320c0 35.2-28.8 64-64 64zM128 512c-35.346 0-64 28.654-64 64s28.654 64 64 64 64-28.654 64-64-28.652-64-64-64zM704 64h-384v320h384v-320z" />
<glyph unicode="&#xe96c;" glyph-name="bubbles" horiz-adv-x="1152" d="M1088 58.834c0-45.5 26.028-84.908 64-104.184v-15.938c-10.626-1.454-21.472-2.224-32.5-2.224-68.008 0-129.348 28.528-172.722 74.264-26.222-6.982-54.002-10.752-82.778-10.752-159.058 0-288 114.616-288 256s128.942 256 288 256c159.058 0 288-114.616 288-256 0-55.348-19.764-106.592-53.356-148.466-6.824-14.824-10.644-31.312-10.644-48.7zM512 960c278.458 0 504.992-180.614 511.836-405.52-49.182 21.92-103.586 33.52-159.836 33.52-95.56 0-185.816-33.446-254.138-94.178-70.846-62.972-109.862-147.434-109.862-237.822 0-44.672 9.544-87.888 27.736-127.788-5.228-0.126-10.468-0.212-15.736-0.212-27.156 0-53.81 1.734-79.824 5.044-109.978-109.978-241.25-129.7-368.176-132.596v26.916c68.536 33.578 128 94.74 128 164.636 0 9.754-0.758 19.33-2.164 28.696-115.796 76.264-189.836 192.754-189.836 323.304 0 229.75 229.23 416 512 416z" />
<glyph unicode="&#xe96d;" glyph-name="bubbles2" horiz-adv-x="1152" d="M480 960v0c265.096 0 480-173.914 480-388.448s-214.904-388.448-480-388.448c-25.458 0-50.446 1.62-74.834 4.71-103.106-102.694-222.172-121.108-341.166-123.814v25.134c64.252 31.354 116 88.466 116 153.734 0 9.106-0.712 18.048-2.030 26.794-108.558 71.214-177.97 179.988-177.97 301.89 0 214.534 214.904 388.448 480 388.448zM996 89.314c0-55.942 36.314-104.898 92-131.772v-21.542c-103.126 2.318-197.786 18.102-287.142 106.126-21.14-2.65-42.794-4.040-64.858-4.040-95.47 0-183.408 25.758-253.614 69.040 144.674 0.506 281.26 46.854 384.834 130.672 52.208 42.252 93.394 91.826 122.414 147.348 30.766 58.866 46.366 121.582 46.366 186.406 0 10.448-0.45 20.836-1.258 31.168 72.57-59.934 117.258-141.622 117.258-231.676 0-104.488-60.158-197.722-154.24-258.764-1.142-7.496-1.76-15.16-1.76-22.966z" />
<glyph unicode="&#xe9ba;" glyph-name="list" d="M0 960h256v-256h-256zM384 896h640v-128h-640zM0 576h256v-256h-256zM384 512h640v-128h-640zM0 192h256v-256h-256zM384 128h640v-128h-640z" />
<glyph unicode="&#xe9cd;" glyph-name="attachment" d="M665.832 632.952l-64.952 64.922-324.81-324.742c-53.814-53.792-53.814-141.048 0-194.844 53.804-53.792 141.060-53.792 194.874 0l389.772 389.708c89.714 89.662 89.714 235.062 0 324.726-89.666 89.704-235.112 89.704-324.782 0l-409.23-409.178c-0.29-0.304-0.612-0.576-0.876-0.846-125.102-125.096-125.102-327.856 0-452.906 125.054-125.056 327.868-125.056 452.988 0 0.274 0.274 0.516 0.568 0.82 0.876l0.032-0.034 279.332 279.292-64.986 64.92-279.33-279.262c-0.296-0.268-0.564-0.57-0.846-0.844-89.074-89.058-233.98-89.058-323.076 0-89.062 89.042-89.062 233.922 0 322.978 0.304 0.304 0.604 0.582 0.888 0.846l-0.046 0.060 409.28 409.166c53.712 53.738 141.144 53.738 194.886 0 53.712-53.734 53.712-141.148 0-194.84l-389.772-389.7c-17.936-17.922-47.054-17.922-64.972 0-17.894 17.886-17.894 47.032 0 64.92l324.806 324.782z" />
<glyph unicode="&#xea72;" glyph-name="insert-template" d="M384 768h128v-64h-128zM576 768h128v-64h-128zM896 768v-256h-192v64h128v128h-64v64zM320 576h128v-64h-128zM512 576h128v-64h-128zM192 704v-128h64v-64h-128v256h192v-64zM384 384h128v-64h-128zM576 384h128v-64h-128zM896 384v-256h-192v64h128v128h-64v64zM320 192h128v-64h-128zM512 192h128v-64h-128zM192 320v-128h64v-64h-128v256h192v-64zM960 896h-896v-896h896v896zM1024 960v0-1024h-1024v1024h1024z" />
</font>
</defs>
</svg>
