<?xml version="1.0" standalone="no"?>
<!DOCTYPE svg PUBLIC "-//W3C//DTD SVG 1.1//EN" "http://www.w3.org/Graphics/SVG/1.1/DTD/svg11.dtd" >
<svg xmlns="http://www.w3.org/2000/svg">
<metadata>Generated by IcoMoon</metadata>
<defs>
<font id="wpsp" horiz-adv-x="1024">
<font-face units-per-em="1024" ascent="960" descent="-64" />
<missing-glyph horiz-adv-x="1024" />
<glyph unicode="&#x20;" horiz-adv-x="512" d="" />
<glyph unicode="&#xe900;" glyph-name="auto-sc" d="M984 256c22.099 0 40 17.901 40 40v424c0 88.22-71.779 160-160 160h-52v40c0 22.1-17.901 40-40 40s-40-17.9-40-40v-40h-182v40c0 22.1-17.901 40-40 40s-40-17.9-40-40v-40h-180v40c0 22.1-17.9 40-40 40s-40-17.9-40-40v-40h-50c-88.22 0-160-71.78-160-160v-624c0-88.221 71.78-160 160-160h704c88.221 0 160 71.779 160 160 0 22.099-17.901 40-40 40s-40-17.901-40-40c0-44.118-35.882-80-80-80h-704c-44.12 0-80 35.882-80 80v624c0 44.12 35.88 80 80 80h50v-40c0-22.1 17.9-40 40-40s40 17.9 40 40v40h180v-40c0-22.1 17.901-40 40-40s40 17.9 40 40v40h182v-40c0-22.1 17.901-40 40-40s40 17.9 40 40v40h52c44.118 0 80-35.88 80-80v-424c0-22.099 17.901-40 40-40zM689.478 541.28l-197.158-275.402c-5.379-6.24-12.141-7.6-15.741-7.84-3.718-0.259-10.941 0.221-17.139 6.122l-127.642 122.56c-15.939 15.299-41.259 14.781-56.559-1.139-15.3-15.942-14.78-41.261 1.14-56.56l127.761-122.682c19.139-18.221 44.678-28.339 70.96-28.339 2.259 0 4.518 0.080 6.778 0.221 28.621 1.898 55.36 15.84 73.341 38.198 0.461 0.579 0.922 1.162 1.341 1.779l197.958 276.522c12.861 17.958 8.72 42.96-9.238 55.798-17.962 12.861-42.96 8.72-55.821-9.238h0.019z" />
<glyph unicode="&#xe901;" glyph-name="search" d="M450.945 959.993c-248.644 0-450.945-202.3-450.945-450.945 0-248.658 202.3-450.943 450.945-450.943 248.658 0 450.943 202.284 450.943 450.943 0 248.644-202.284 450.945-450.943 450.945zM450.945 141.351c-202.744 0-367.693 164.948-367.693 367.695 0 202.744 164.949 367.695 367.693 367.695s367.692-164.949 367.692-367.693c0-202.743-164.948-367.697-367.692-367.697zM1011.801 7.066l-238.653 238.653c-16.265 16.265-42.598 16.265-58.863 0-16.259-16.247-16.259-42.61 0-58.857l238.658-238.658c8.129-8.129 18.773-12.197 29.429-12.197 10.644 0 21.299 4.068 29.429 12.197 16.265 16.247 16.265 42.615 0 58.863z" />
<glyph unicode="&#xe902;" glyph-name="comment" d="M1023.517 409.532c1.633-39.023-12.282-77.103-38.688-105.887-26.41-28.778-63.153-45.908-102.173-47.63-2.284-0.106-4.561-0.159-6.834-0.159-10.369 0.005-20.707 1.126-30.834 3.346-30.051-46.399-69.458-86.017-115.697-116.316s-98.294-50.611-152.832-59.643c-6.447-18.952-19.317-35.051-36.383-45.521-17.060-10.47-37.247-14.651-57.065-11.813-19.818 2.833-38.021 12.505-51.465 27.335-13.444 14.836-21.283 33.9-22.162 53.898s5.257 39.676 17.347 55.632c12.091 15.956 29.376 27.187 48.868 31.748s39.964 2.172 57.881-6.759c17.916-8.932 32.15-23.841 40.236-42.155 76.783 14.201 146.152 54.897 196.011 114.989 49.855 60.098 77.048 135.783 76.825 213.868 0 184.476-150.078 334.556-334.553 334.556s-334.556-150.081-334.556-334.556c-0.010-57.043 14.568-113.143 42.349-162.961 0.942-1.643 1.648-3.414 2.099-5.254 2.683-7.458 2.396-15.659-0.801-22.916-3.198-7.251-9.062-12.996-16.378-16.045-17.915-7.542-37.156-11.421-56.592-11.421-2.287 0-4.58 0.053-6.876 0.159-39.005 1.744-75.728 18.884-102.114 47.667-26.387 28.778-40.285 66.841-38.647 105.853 0.659 15.556 0.291 29.436-0.067 42.857-0.335 12.637-0.684 25.704-0.11 39.341 1.713 38.089 18.098 74.039 45.722 100.319s64.346 40.852 102.474 40.662c61.225 140.081 201.102 238.231 363.499 238.231 162.394 0 302.277-98.15 363.5-238.233 38.132 0.218 74.865-14.341 102.496-40.621 27.626-26.28 44.005-62.238 45.695-100.334 0.576-13.656 0.228-26.723-0.111-39.361-0.354-13.423-0.723-27.31-0.063-42.876zM771.725 474.466c-0.016-39.791-9.17-79.046-26.753-114.74-17.59-35.691-43.138-66.868-74.679-91.127s-68.232-40.944-107.242-48.777c-39.015-7.838-79.303-6.606-117.764 3.599l-105.128-60.716c-5.304-3.060-11.398-4.482-17.51-4.081-6.112 0.397-11.968 2.6-16.827 6.331-4.86 3.726-8.504 8.815-10.473 14.614-1.969 5.803-2.173 12.055-0.588 17.969l26.868 100.234c-44.494 48.090-69.252 111.173-69.345 176.692 0 143.253 116.503 259.787 259.716 259.787s259.725-116.533 259.725-259.787zM439.793 474.466c0 8.214-3.263 16.090-9.070 21.897s-13.684 9.070-21.897 9.070h-0.052c-6.122-0.012-12.103-1.837-17.189-5.247s-9.045-8.25-11.38-13.91c-2.335-5.66-2.941-11.884-1.739-17.887s4.155-11.517 8.489-15.841c4.333-4.325 9.851-7.269 15.857-8.459s12.229-0.573 17.885 1.772c5.655 2.346 10.489 6.315 13.888 11.406s5.215 11.077 5.215 17.199h-0.006zM542.973 474.466c0 1.013-0.058 2.027-0.164 3.035-0.094 1.011-0.248 2.018-0.454 3.013-0.184 0.992-0.433 1.971-0.745 2.932-0.285 0.97-0.634 1.92-1.010 2.87-0.37 0.949-0.824 1.837-1.299 2.725-0.47 0.893-0.989 1.762-1.549 2.601-0.561 0.849-1.168 1.669-1.819 2.456-0.634 0.789-1.316 1.54-2.040 2.25-0.704 0.723-1.464 1.404-2.251 2.064-0.788 0.62-1.612 1.238-2.457 1.797-0.84 0.56-1.708 1.077-2.6 1.548-0.888 0.475-1.819 0.909-2.748 1.3-0.93 0.39-1.882 0.727-2.849 1.011-1.928 0.621-3.921 1.022-5.946 1.198-3.029 0.292-6.090 0.146-9.081-0.433-0.996-0.203-1.98-0.458-2.95-0.765-0.968-0.283-1.919-0.622-2.849-1.011-0.929-0.392-1.858-0.826-2.746-1.3s-1.755-0.992-2.603-1.548c-0.849-0.557-1.673-1.177-2.434-1.797-0.804-0.66-1.549-1.342-2.271-2.064-0.724-0.711-1.407-1.461-2.046-2.25s-1.238-1.608-1.794-2.456c-0.568-0.84-1.091-1.709-1.569-2.601-0.477-0.885-0.904-1.794-1.282-2.725-0.392-0.939-0.736-1.897-1.032-2.87-0.287-0.949-0.535-1.941-0.741-2.932-0.204-0.996-0.356-2.002-0.457-3.013s-0.144-2.024-0.144-3.035 0.044-2.043 0.144-3.056c0.102-1.005 0.255-2.004 0.457-2.995 0.206-0.992 0.454-1.981 0.741-2.952 0.296-0.966 0.64-1.917 1.032-2.849 0.378-0.938 0.805-1.855 1.282-2.745 0.473-0.888 1.011-1.755 1.569-2.601 0.555-0.842 1.154-1.656 1.794-2.437 0.642-0.791 1.325-1.549 2.046-2.271 0.723-0.702 1.466-1.404 2.271-2.043 0.777-0.645 1.59-1.244 2.434-1.796 0.849-0.557 1.713-1.094 2.603-1.569 1.793-0.935 3.665-1.709 5.595-2.313 0.968-0.289 1.959-0.537 2.95-0.743 1.99-0.408 4.018-0.607 6.048-0.599 8.203 0.022 16.067 3.279 21.886 9.063 1.427 1.449 2.717 3.024 3.858 4.708 0.561 0.847 1.073 1.713 1.549 2.601s0.909 1.816 1.299 2.745c0.397 0.929 0.723 1.9 1.010 2.849 0.312 0.968 0.561 1.953 0.745 2.952 0.206 0.991 0.354 1.989 0.454 2.995 0.106 1.017 0.159 2.037 0.159 3.059l0.005-0.004zM646.197 474.466c0 8.214-3.261 16.090-9.069 21.897s-13.683 9.070-21.896 9.070h-0.058c-6.125-0.012-12.103-1.838-17.187-5.248s-9.048-8.25-11.379-13.91c-2.336-5.66-2.944-11.884-1.739-17.887 1.199-6.003 4.154-11.516 8.488-15.84s9.851-7.269 15.856-8.458c6.004-1.19 12.229-0.573 17.885 1.772s10.486 6.315 13.889 11.407c3.399 5.091 5.211 11.076 5.211 17.198z" />
<glyph unicode="&#xe903;" glyph-name="dots" d="M393.846 448c0-65.142 53.012-118.154 118.154-118.154s118.154 53.012 118.154 118.154c0 65.142-53.012 118.154-118.154 118.154s-118.154-53.012-118.154-118.154zM393.846 54.154c0-65.137 53.012-118.154 118.154-118.154s118.154 53.017 118.154 118.154c0 65.142-53.012 118.154-118.154 118.154s-118.154-53.012-118.154-118.154zM393.846 841.846c0-65.142 53.012-118.154 118.154-118.154s118.154 53.012 118.154 118.154c0 65.142-53.012 118.154-118.154 118.154s-118.154-53.012-118.154-118.154z" />
<glyph unicode="&#xe904;" glyph-name="manual-sc" d="M772 500c22.093 0 40 17.907 40 40s-17.907 40-40 40c-22.093 0-40-17.907-40-40s17.907-40 40-40zM864 880h-52v40c0 22.1-17.901 40-40 40s-40-17.9-40-40v-40h-182v40c0 22.1-17.901 40-40 40s-40-17.9-40-40v-40h-180v40c0 22.1-17.9 40-40 40s-40-17.9-40-40v-40h-50c-88.22 0-160-71.78-160-160v-624c0-88.221 71.78-160 160-160h306c22.099 0 40 17.901 40 40s-17.901 40-40 40h-306c-44.12 0-80 35.882-80 80v624c0 44.12 35.88 80 80 80h50v-40c0-22.1 17.9-40 40-40s40 17.9 40 40v40h180v-40c0-22.1 17.901-40 40-40s40 17.9 40 40v40h182v-40c0-22.1 17.901-40 40-40s40 17.9 40 40v40h52c44.118 0 80-35.88 80-80v-228c0-22.099 17.901-40 40-40s40 17.901 40 40v228c0 88.22-71.779 160-160 160zM782 420c-133.44 0-242-108.56-242-242s108.56-242 242-242c133.44 0 242 108.56 242 242s-108.56 242-242 242zM782 16c-89.322 0-162 72.678-162 162s72.678 162 162 162c89.322 0 162-72.678 162-162s-72.678-162-162-162zM840 218h-18v42c0 22.099-17.901 40-40 40s-40-17.901-40-40v-82c0-22.099 17.901-40 40-40h58c22.099 0 40 17.901 40 40s-17.901 40-40 40zM598 500c22.093 0 40 17.907 40 40s-17.907 40-40 40c-22.093 0-40-17.907-40-40s17.907-40 40-40zM424 326c22.093 0 40 17.907 40 40s-17.907 40-40 40c-22.093 0-40-17.907-40-40s17.907-40 40-40zM250 500c22.092 0 40 17.907 40 40s-17.908 40-40 40c-22.092 0-40-17.907-40-40s17.908-40 40-40zM250 326c22.092 0 40 17.907 40 40s-17.908 40-40 40c-22.092 0-40-17.907-40-40s17.908-40 40-40zM250 152c22.092 0 40 17.907 40 40s-17.908 40-40 40c-22.092 0-40-17.907-40-40s17.908-40 40-40zM424 152c22.093 0 40 17.907 40 40s-17.907 40-40 40c-22.093 0-40-17.907-40-40s17.907-40 40-40zM424 500c22.093 0 40 17.907 40 40s-17.907 40-40 40c-22.093 0-40-17.907-40-40s17.907-40 40-40z" />
<glyph unicode="&#xe905;" glyph-name="missed-sc" d="M597.741 326.334c22.080 0 39.98 17.898 39.98 39.977s-17.901 39.98-39.98 39.98c-22.080 0-39.977-17.901-39.977-39.98s17.898-39.977 39.977-39.977zM597.741 500.242c22.080 0 39.98 17.901 39.98 39.98s-17.901 39.977-39.98 39.977c-22.080 0-39.977-17.898-39.977-39.977s17.898-39.98 39.977-39.98zM423.841 326.334c22.080 0 39.977 17.898 39.977 39.977s-17.898 39.98-39.977 39.98c-22.080 0-39.98-17.901-39.98-39.98s17.901-39.977 39.98-39.977zM423.841 500.242c22.080 0 39.977 17.901 39.977 39.98s-17.898 39.977-39.977 39.977c-22.080 0-39.98-17.898-39.98-39.977s17.901-39.98 39.98-39.98zM423.841 152.425c22.080 0 39.977 17.901 39.977 39.98s-17.898 39.977-39.977 39.977c-22.080 0-39.98-17.898-39.98-39.977s17.901-39.98 39.98-39.98zM771.645 500.242c22.080 0 39.98 17.901 39.98 39.98s-17.901 39.977-39.98 39.977c-22.080 0-39.98-17.898-39.98-39.977s17.901-39.98 39.98-39.98zM249.936 500.242c22.080 0 39.979 17.901 39.979 39.98s-17.9 39.977-39.979 39.977c-22.080 0-39.979-17.898-39.979-39.977s17.9-39.98 39.979-39.98zM249.936 152.425c22.080 0 39.979 17.901 39.979 39.98s-17.9 39.977-39.979 39.977c-22.080 0-39.979-17.898-39.979-39.977s17.9-39.98 39.979-39.98zM863.598 880.042h-51.97v39.979c0 22.089-17.891 39.979-39.98 39.979s-39.98-17.891-39.98-39.979v-39.979h-181.903v39.979c0 22.089-17.891 39.979-39.977 39.979-22.090 0-39.98-17.891-39.98-39.979v-39.979h-179.905v39.979c0 22.089-17.891 39.979-39.979 39.979s-39.979-17.891-39.979-39.979v-39.979h-49.973c-88.173 0-159.916-71.743-159.916-159.916v-623.672c0-88.174 71.743-159.917 159.916-159.917h261.863c22.086 0 39.977 17.891 39.977 39.98s-17.891 39.98-39.977 39.98h-261.863c-44.097 0-79.958 35.861-79.958 79.956v623.672c0 44.097 35.861 79.957 79.958 79.957h49.973v-39.979c0-22.089 17.891-39.979 39.979-39.979s39.979 17.891 39.979 39.979v39.979h179.905v-39.979c0-22.089 17.891-39.979 39.98-39.979 22.086 0 39.977 17.891 39.977 39.979v39.979h181.903v-39.979c0-22.089 17.891-39.979 39.98-39.979s39.98 17.891 39.98 39.979v39.979h51.97c44.098 0 79.96-35.861 79.96-79.957v-239.874c0-22.090 17.891-39.98 39.977-39.98 22.090 0 39.98 17.891 39.98 39.98v239.874c0 88.173-71.743 159.916-159.917 159.916zM249.936 326.334c22.080 0 39.979 17.898 39.979 39.977s-17.9 39.98-39.979 39.98c-22.080 0-39.979-17.901-39.979-39.98s17.9-39.977 39.979-39.977zM646.287 54.817l15.571-28.245c8.496-15.411 26.927-22.368 43.497-16.413l39.359 14.154c8.595-6.534 17.872-12.074 27.685-16.512l7.616-42.316c3.078-17.072 17.933-29.484 35.263-29.484h32.242c17.61 0 32.601 12.794 35.381 30.162l6.595 41.218c11.994 5.299 23.168 12.234 33.263 20.63l40.719-12.054c16.63-4.918 34.38 2.778 42.175 18.272l14.474 28.802c7.898 15.734 3.219 34.863-11.053 45.157l-34.482 24.848c0.061 1.798 0.099 3.597 0.099 5.376 0 2.198-0.061 4.419-0.16 6.618-0.038 0.778-0.099 1.558-0.141 2.339-0.058 0.819-0.080 1.658-0.138 2.477l33.34 27.087c13.453 10.934 17.171 29.922 8.797 45.116l-16.432 29.804c-8.614 15.651-27.465 22.547-44.156 16.173l-38.681-14.774c-3.638 2.72-7.437 5.238-11.315 7.597-0.058 0.038-0.138 0.080-0.198 0.118-1.638 1.002-3.318 1.939-4.998 2.88-0.48 0.259-0.96 0.541-1.437 0.8-1.482 0.8-2.998 1.558-4.518 2.317-0.72 0.362-1.459 0.72-2.198 1.062-0.701 0.32-1.379 0.698-2.080 0.998l-7.616 42.316c-3.078 17.072-17.91 29.487-35.263 29.487h-34.041c-17.872 0-33.001-13.174-35.481-30.866l-5.738-40.978c-10.653-4.816-20.688-10.934-29.865-18.23l-41.797 12.374c-16.63 4.918-34.38-2.778-42.175-18.272l-15.293-30.402c-8.016-15.971-3.059-35.401 11.632-45.554l33.503-23.149c-0.118-2.419-0.179-4.858-0.179-7.318 0-2.198 0.061-4.397 0.16-6.595 0.038-0.781 0.099-1.558 0.138-2.339 0.061-0.8 0.080-1.619 0.141-2.419l-33.461-27.164c-13.453-10.934-17.171-29.925-8.797-45.116l0.042 0.019zM759.847 142.389c0 0.16 0.019 0.32 0.042 0.499 0.080 1.2 0.179 2.381 0.298 3.581 0 0.099 0.022 0.218 0.042 0.32 0.141 1.258 0.32 2.496 0.541 3.738 0 0.080 0.019 0.16 0.038 0.24 0.221 1.238 0.461 2.458 0.739 3.696 2.998 13.075 9.574 24.81 18.672 34.082 0.218 0.24 0.438 0.461 0.678 0.701 0.72 0.72 1.459 1.418 2.218 2.118 0.16 0.141 0.32 0.278 0.461 0.419 1.501 1.36 3.059 2.64 4.678 3.859 0.118 0.099 0.259 0.198 0.381 0.301 2.598 1.936 5.315 3.677 8.154 5.254 0.221 0.122 0.442 0.262 0.682 0.381 0.899 0.48 1.798 0.941 2.717 1.398 0.32 0.16 0.621 0.301 0.941 0.442 1.44 0.678 2.899 1.299 4.397 1.878 0.621 0.24 1.238 0.48 1.859 0.701 0.72 0.259 1.421 0.499 2.16 0.72 0.998 0.317 1.997 0.618 3.018 0.877 5.997 1.642 12.314 2.518 18.832 2.518 6.515 0 13.072-0.938 19.19-2.637 0.998-0.282 1.997-0.579 2.998-0.899 0.579-0.179 1.158-0.381 1.718-0.579 0.88-0.301 1.738-0.64 2.579-0.979 0.797-0.32 1.597-0.662 2.378-1.002 0.861-0.378 1.718-0.778 2.579-1.2 0.618-0.298 1.238-0.618 1.859-0.957 0.678-0.362 1.36-0.742 2.019-1.12 0.579-0.32 1.158-0.659 1.718-1.002 1.078-0.659 2.138-1.338 3.178-2.058 0.522-0.358 1.021-0.72 1.539-1.101 0.701-0.518 1.421-1.037 2.099-1.578 0.461-0.362 0.918-0.701 1.36-1.078 1.040-0.861 2.058-1.741 3.059-2.64 0.32-0.301 0.64-0.598 0.957-0.918 0.781-0.739 1.562-1.501 2.301-2.278 8.736-9.056 15.091-20.39 18.109-33.023 0.24-0.979 0.461-1.958 0.64-2.96 0.080-0.419 0.16-0.858 0.24-1.28 0.16-0.938 0.32-1.898 0.442-2.838 0.061-0.438 0.118-0.858 0.16-1.299 0.118-0.998 0.198-1.978 0.278-2.976 0.019-0.381 0.061-0.762 0.080-1.162 0.080-1.379 0.122-2.739 0.122-4.118 0-2.477-0.122-4.957-0.381-7.414 0-0.122-0.038-0.221-0.038-0.339-0.122-1.101-0.262-2.202-0.422-3.299-0.058-0.442-0.16-0.88-0.24-1.318-0.118-0.742-0.259-1.482-0.4-2.202-2.557-12.314-8.294-23.488-16.31-32.62-1.040-1.2-2.118-2.358-3.219-3.459-0.24-0.24-0.48-0.461-0.72-0.678-0.877-0.842-1.757-1.661-2.678-2.461-0.48-0.419-0.938-0.838-1.437-1.238-1.002-0.838-2.019-1.638-3.059-2.419-0.64-0.48-1.299-0.941-1.958-1.398-0.56-0.4-1.139-0.781-1.722-1.162-1.078-0.698-2.179-1.379-3.296-2.019-0.662-0.378-1.299-0.758-1.981-1.117-0.72-0.381-1.459-0.762-2.198-1.12-0.781-0.381-1.558-0.762-2.358-1.101-0.838-0.378-1.699-0.739-2.56-1.098-1.018-0.419-2.058-0.8-3.117-1.181-0.522-0.179-1.021-0.358-1.539-0.518-1.459-0.48-2.938-0.922-4.438-1.299-5.638-1.421-11.533-2.198-17.61-2.198-6.637 0-13.075 0.918-19.171 2.618-1.021 0.278-2.038 0.579-3.040 0.918-0.579 0.179-1.158 0.381-1.718 0.579-0.88 0.32-1.76 0.659-2.637 1.002-0.88 0.358-1.76 0.72-2.621 1.098-0.758 0.339-1.539 0.701-2.278 1.059-0.678 0.32-1.338 0.682-2 1.021-0.618 0.32-1.238 0.678-1.837 1.021-0.96 0.538-1.882 1.098-2.819 1.677-0.72 0.461-1.44 0.922-2.141 1.402-0.618 0.419-1.197 0.858-1.798 1.277-0.598 0.442-1.2 0.899-1.798 1.36-0.541 0.419-1.078 0.838-1.6 1.261-0.979 0.819-1.939 1.658-2.877 2.518-0.461 0.419-0.899 0.838-1.341 1.28-0.659 0.637-1.299 1.277-1.917 1.939-8.717 9.053-15.053 20.41-18.074 33.020-0.218 0.979-0.438 1.939-0.64 2.918-0.080 0.419-0.16 0.842-0.218 1.28-0.16 0.941-0.32 1.901-0.442 2.858-0.058 0.422-0.118 0.861-0.16 1.28-0.118 1.002-0.198 2-0.278 2.979-0.019 0.381-0.061 0.758-0.080 1.139-0.080 1.36-0.122 2.739-0.122 4.118 0 1.318 0.042 2.637 0.122 3.978l0.019 0.019z" />
<glyph unicode="&#xe906;" d="M1024 448c0-255.562-187.238-467.379-432-505.779v357.779h119.299l22.701 148h-142v96.038c0 40.502 19.84 79.962 83.44 79.962h64.56v126c0 0-58.598 10-114.621 10-116.938 0-193.379-70.88-193.379-199.2v-112.8h-130v-148h130v-357.779c-244.76 38.4-432 250.218-432 505.779 0 282.76 229.24 512 512 512 282.762 0 512-229.24 512-512z" />
<glyph unicode="&#xe907;" glyph-name="pro" d="M62.711 278.103c-20.763 134.965-41.526 269.924-62.289 404.887-4.605 29.918 29.437 50.323 53.651 32.161 64.69-48.517 129.375-97.030 194.064-145.548 21.299-15.974 51.644-10.776 66.41 11.377l161.562 242.347c17.076 25.61 54.704 25.61 71.775 0l161.564-242.347c14.768-22.152 45.11-27.348 66.41-11.377 64.69 48.517 129.374 97.030 194.063 145.548 24.217 18.162 58.259-2.242 53.657-32.161-20.766-134.963-41.529-269.922-62.291-404.887h-898.576zM914.434 53.465h-804.876c-25.873 0-46.848 20.976-46.848 46.849v102.91h898.577v-102.91c-0.005-25.873-20.98-46.849-46.853-46.849z" />
<glyph unicode="&#xe908;" glyph-name="puzzle" d="M703.011-32h-191.009v97.95c0.030 9.057-1.775 18.030-5.309 26.369-3.532 8.345-8.718 15.882-15.242 22.17-16.436 16.201-40.35 25.306-65.505 24.94-22.378-0.212-43.964-8.309-60.964-22.862-11.141-9.857-24.405-26.914-24.405-52.327v-96.236h-189.383c-31.598 0.035-61.892 12.599-84.238 34.945s-34.911 52.645-34.948 84.24v189.382h97.95c19.629 0 38.721 8.399 53.763 23.569 8.37 8.434 14.985 18.445 19.471 29.446s6.751 22.783 6.669 34.666c-0.642 45.405-38.012 83.74-81.62 83.74h-96.233v191.437c-0.062 15.602 3.045 31.052 9.135 45.42s15.030 27.343 26.286 38.149c22.475 21.682 52.532 33.722 83.763 33.557h135.511v31.028c0 18.646 3.714 37.11 10.926 54.305s17.777 32.786 31.077 45.855c13.299 13.068 29.070 23.36 46.392 30.27s35.844 10.296 54.489 9.972c76.050-1.329 137.911-65.098 137.911-142.132v-29.292h135.51c15.488 0.166 30.847-2.761 45.183-8.61 14.342-5.85 27.367-14.5 38.312-25.452s19.6-23.973 25.454-38.31c5.847-14.338 8.772-29.698 8.608-45.183v-135.511h29.268c78.39 0 142.157-62.14 142.157-138.511 0-78.449-62.973-142.282-140.394-142.282h-31.030v-135.511c0-65.725-52.735-119.185-117.557-119.185z" />
<glyph unicode="&#xe909;" glyph-name="arrow" d="M1010.373 481.48l-325.818 325.822c-8.783 8.479-20.541 13.17-32.745 13.064-12.202-0.107-23.877-5.001-32.507-13.631s-13.525-20.304-13.631-32.508c-0.107-12.204 4.585-23.961 13.064-32.74l246.372-246.369h-818.562c-12.345 0-24.184-4.904-32.913-13.633s-13.633-20.568-13.633-32.913c0-12.345 4.904-24.184 13.633-32.912s20.568-13.633 32.913-13.633h818.562l-246.372-246.366c-4.446-4.294-7.992-9.433-10.431-15.109-2.44-5.683-3.724-11.793-3.778-17.972s1.125-12.309 3.464-18.027c2.34-5.719 5.796-10.92 10.167-15.29s9.567-7.827 15.288-10.166c5.72-2.339 11.85-3.519 18.030-3.464 6.176 0.056 12.286 1.341 17.969 3.778 5.677 2.437 10.815 5.983 15.109 10.431l325.818 325.822c8.728 8.728 13.628 20.566 13.628 32.908s-4.901 24.18-13.628 32.909z" />
<glyph unicode="&#xe90a;" glyph-name="angle-down" d="M1002.789 688.698c-6.795 6.856-14.885 12.297-23.801 16.010s-18.476 5.625-28.131 5.625c-9.655 0-19.215-1.912-28.131-5.625-8.909-3.714-16.998-9.155-23.801-16.010l-334.993-334.994c-6.8-6.856-14.89-12.297-23.803-16.010s-18.473-5.625-28.129-5.625c-9.656 0-19.216 1.912-28.129 5.625s-17.003 9.155-23.802 16.010l-334.994 334.994c-6.8 6.856-14.89 12.297-23.803 16.010s-18.473 5.625-28.129 5.625c-9.656 0-19.216-1.912-28.129-5.625s-17.003-9.155-23.802-16.010c-13.623-13.704-21.269-32.242-21.269-51.566s7.646-37.862 21.269-51.566l335.726-335.726c41.143-41.092 96.914-64.173 155.063-64.173s113.919 23.081 155.063 64.173l335.724 335.726c13.627 13.704 21.27 32.243 21.27 51.566s-7.643 37.862-21.27 51.566z" />
<glyph unicode="&#xe90b;" glyph-name="angle-up" d="M21.271 207.331c6.798-6.855 14.887-12.296 23.799-16.009s18.472-5.624 28.125-5.624c9.655 0 19.214 1.912 28.126 5.624s17 9.153 23.799 16.009l334.955 334.955c6.799 6.855 14.888 12.296 23.8 16.009s18.472 5.624 28.126 5.624c9.654 0 19.213-1.913 28.125-5.624s17-9.153 23.8-16.009l334.955-334.955c6.798-6.855 14.887-12.296 23.799-16.009 8.915-3.713 18.472-5.624 28.125-5.624s19.21 1.912 28.122 5.624c8.913 3.713 17.006 9.153 23.802 16.009 13.623 13.702 21.267 32.239 21.267 51.56s-7.645 37.858-21.267 51.56l-335.687 335.687c-41.138 41.087-96.903 64.166-155.045 64.166s-113.907-23.078-155.045-64.166l-335.688-335.687c-13.622-13.702-21.267-32.239-21.267-51.56s7.646-37.858 21.267-51.56z" />
<glyph unicode="&#xe90c;" glyph-name="calendar" d="M615.441-64h-484.465c-34.726 0.038-68.020 13.844-92.575 38.401s-38.366 57.852-38.401 92.576v714.418c0.036 34.726 13.845 68.020 38.401 92.575s57.849 38.365 92.575 38.401h762.046c34.724-0.036 68.019-13.845 92.576-38.401s38.363-57.849 38.401-92.575v-436.811c0.045-17.21-3.321-34.261-9.907-50.162s-16.263-30.336-28.463-42.471l-277.581-277.581c-12.135-12.199-26.564-21.871-42.459-28.463-15.895-6.585-32.939-9.95-50.149-9.907zM130.978 840.93c-15.785-0.015-30.92-6.292-42.081-17.453s-17.438-26.296-17.453-42.081v-714.418c0.015-15.788 6.292-30.92 17.453-42.084 11.162-11.157 26.296-17.438 42.081-17.451h484.465c15.781 0.038 30.907 6.306 42.090 17.444l277.581 277.581c5.55 5.512 9.95 12.078 12.942 19.305 2.997 7.233 4.528 14.98 4.502 22.81v436.811c-0.012 15.785-6.294 30.92-17.451 42.081-11.164 11.162-26.297 17.438-42.084 17.453h-762.046zM273.861 745.674c-9.473 0.002-18.557 3.767-25.256 10.465s-10.463 15.783-10.465 25.256v142.884c0 9.474 3.763 18.559 10.462 25.259s15.785 10.462 25.259 10.462c9.474 0 18.559-3.763 25.259-10.462s10.462-15.785 10.462-25.259v-142.884c-0.002-9.473-3.767-18.557-10.465-25.256s-15.783-10.463-25.256-10.465zM512 745.674c-9.473 0.002-18.557 3.767-25.256 10.465s-10.463 15.783-10.465 25.256v142.884c0 9.474 3.763 18.559 10.462 25.259s15.785 10.462 25.259 10.462c9.474 0 18.559-3.763 25.259-10.462s10.462-15.785 10.462-25.259v-142.884c-0.002-9.473-3.767-18.557-10.465-25.256s-15.783-10.463-25.256-10.465zM750.139 745.674c-9.475 0.002-18.556 3.767-25.256 10.465s-10.465 15.783-10.465 25.256v142.884c0 9.474 3.766 18.559 10.465 25.259 6.693 6.699 15.781 10.462 25.256 10.462s18.563-3.763 25.256-10.462c6.7-6.699 10.465-15.785 10.465-25.259v-142.884c0-9.473-3.766-18.557-10.465-25.256s-15.781-10.463-25.256-10.465zM988.279 602.791h-952.557c-9.474 0-18.559 3.763-25.259 10.462s-10.462 15.785-10.462 25.259c0 9.474 3.763 18.559 10.462 25.259s15.785 10.462 25.259 10.462h952.557c9.475 0 18.563-3.763 25.256-10.462 6.7-6.699 10.465-15.785 10.465-25.259s-3.766-18.559-10.465-25.259c-6.693-6.699-15.781-10.462-25.256-10.462zM654.884-55.42c-9.475 0.007-18.556 3.766-25.256 10.465s-10.465 15.788-10.465 25.256v277.187c0.026 22.099 8.814 43.284 24.443 58.906 15.622 15.628 36.807 24.417 58.906 24.443h277.206c9.475 0 18.563-3.766 25.261-10.465 6.7-6.693 10.46-15.781 10.46-25.256s-3.76-18.563-10.46-25.256c-6.7-6.7-15.788-10.465-25.261-10.465h-277.206c-3.143-0.038-6.154-1.302-8.377-3.531-2.229-2.223-3.493-5.233-3.531-8.377v-277.187c0-9.468-3.766-18.556-10.465-25.256s-15.781-10.46-25.256-10.465z" />
<glyph unicode="&#xe90d;" glyph-name="clock" d="M694.427 357.553l-142.774 107.080v218.124c0 21.932-17.728 39.66-39.66 39.66s-39.66-17.728-39.66-39.66v-237.955c0-12.492 5.87-24.272 15.863-31.728l158.636-118.979c7.138-5.354 15.468-7.932 23.756-7.932 12.096 0 23.994 5.434 31.768 15.904 13.17 17.492 9.6 42.359-7.93 55.486zM512 960c-282.334 0-512-229.666-512-512s229.666-512 512-512c282.334 0 512 229.666 512 512s-229.666 512-512 512zM512 15.317c-238.55 0-432.682 194.132-432.682 432.683s194.132 432.682 432.682 432.682c238.59 0 432.683-194.132 432.683-432.682s-194.132-432.683-432.683-432.683z" />
<glyph unicode="&#xe90e;" glyph-name="close" d="M50.009-63.995c-9.89-0.003-19.559 2.929-27.783 8.424s-14.634 13.303-18.419 22.441c-3.785 9.137-4.775 19.192-2.845 28.892s6.694 18.61 13.688 25.603l923.985 923.985c9.379 9.378 22.098 14.647 35.359 14.647s25.981-5.269 35.359-14.647c9.377-9.378 14.647-22.097 14.647-35.359s-5.27-25.982-14.647-35.359l-923.985-923.985c-4.639-4.649-10.151-8.335-16.219-10.847s-12.573-3.802-19.141-3.793zM973.991-63.995c-6.568-0.009-13.073 1.28-19.141 3.793-6.068 2.511-11.58 6.198-16.219 10.847l-923.985 923.985c-9.378 9.378-14.647 22.097-14.647 35.359s5.269 25.982 14.647 35.359c9.378 9.378 22.097 14.647 35.359 14.647s25.982-5.269 35.359-14.647l923.985-923.985c6.994-6.993 11.758-15.903 13.688-25.603s0.94-19.756-2.845-28.892c-3.786-9.138-10.195-16.947-18.419-22.441s-17.893-8.426-27.784-8.424z" />
<glyph unicode="&#xe90f;" glyph-name="copy" d="M920.81 960.001h-581.314c-27.335-0.104-53.522-11.009-72.85-30.338s-30.234-45.514-30.338-72.85v-133.12h-133.12c-27.335-0.104-53.522-11.009-72.85-30.338s-30.234-45.514-30.338-72.85v-581.314c0.104-27.342 11.009-53.528 30.338-72.853 19.329-19.331 45.514-30.233 72.85-30.338h581.314c27.342 0.105 53.528 11.007 72.853 30.338 19.331 19.325 30.233 45.511 30.338 72.853v133.117h133.117c27.342 0.105 53.528 11.007 72.853 30.338 19.331 19.325 30.233 45.511 30.338 72.853v581.314c-0.105 27.335-11.007 53.522-30.338 72.85-19.325 19.329-45.511 30.234-72.853 30.338zM708.924 39.192c0-6.477-2.57-12.694-7.148-17.273s-10.797-7.148-17.273-7.148h-581.314c-6.475 0-12.687 2.57-17.266 7.148s-7.153 10.797-7.153 17.273v581.314c0 6.475 2.572 12.687 7.153 17.266s10.79 7.153 17.266 7.153h581.314c6.477 0 12.694-2.572 17.273-7.153s7.148-10.79 7.148-17.266v-581.314zM945.232 275.5c0-6.477-2.57-12.694-7.148-17.273s-10.797-7.148-17.273-7.148h-133.117v369.428c-0.105 27.335-11.007 53.522-30.338 72.85-19.325 19.329-45.511 30.234-72.853 30.338h-369.424v133.12c0 6.475 2.572 12.687 7.153 17.266s10.79 7.153 17.266 7.153h581.314c6.477 0 12.694-2.572 17.273-7.153s7.148-10.79 7.148-17.266v-581.314z" />
<glyph unicode="&#xe910;" glyph-name="delete" d="M881.12 733.771c0 19.718-16.003 35.721-35.721 35.721h-666.789c-19.718 0-35.721-16.003-35.721-35.721v-642.978c0-41.058 16.289-80.444 45.341-109.449 29.005-29.056 68.394-45.344 109.449-45.344h428.651c41.056 0 80.447 16.289 109.452 45.344 29.048 29.005 45.337 68.391 45.337 109.449 0 214.326 0 642.978 0 642.978zM809.678 698.050v-607.257c0-22.097-8.758-43.294-24.431-58.918-15.622-15.667-36.816-24.433-58.916-24.433-121.069 0-307.581 0-428.651 0-22.099 0-43.294 8.766-58.915 24.433-15.67 15.625-24.433 36.822-24.433 58.918v607.257h595.347zM726.32 698.046c19.718 0 35.721 16.003 35.721 35.721 0 0 0 47.628 0 95.255 0 34.721-13.812 68.061-38.341 92.637-24.576 24.528-57.915 38.341-92.636 38.341-70.87 0-167.27 0-238.14 0-34.721 0-68.060-13.813-92.636-38.341-24.529-24.576-38.341-57.916-38.341-92.637v-95.255c0-19.718 16.003-35.721 35.721-35.721h428.651zM690.599 769.488h-357.209v59.535c0 15.813 6.287 30.911 17.432 42.104 11.193 11.145 26.291 17.432 42.103 17.432h238.14c15.812 0 30.91-6.287 42.103-17.432 11.145-11.193 17.432-26.291 17.432-42.104v-59.535zM893.023 769.491h-762.047c-19.718 0-35.721-16.003-35.721-35.721s16.003-35.721 35.721-35.721h762.047c19.718 0 35.721 16.003 35.721 35.721s-16.003 35.721-35.721 35.721zM357.215 519.445v-333.398c0-19.718 16.003-35.721 35.721-35.721s35.721 16.003 35.721 35.721v333.398c0 19.718-16.003 35.721-35.721 35.721s-35.721-16.003-35.721-35.721zM595.349 519.445v-333.398c0-19.718 16.003-35.721 35.721-35.721s35.721 16.003 35.721 35.721v333.398c0 19.718-16.003 35.721-35.721 35.721s-35.721-16.003-35.721-35.721z" />
<glyph unicode="&#xe911;" glyph-name="edit" d="M100.313 219.797c-10.088 0-20.157 3.846-27.861 11.546-15.389 15.392-15.389 40.337 0 55.722l615.823 615.827c15.369 15.389 40.337 15.389 55.722 0 15.392-15.389 15.392-40.334 0-55.722l-615.823-615.827c-7.684-7.684-17.773-11.546-27.861-11.546zM39.457-63.993c-2.739 0-5.517 0.292-8.295 0.883-21.28 4.571-34.836 25.52-30.265 46.8l60.885 283.79c4.571 21.28 25.615 34.799 46.797 30.268 21.28-4.571 34.836-25.515 30.265-46.795l-60.885-283.798c-3.96-18.498-20.315-31.148-38.501-31.148zM323.214-3.108c-10.088 0-20.157 3.846-27.861 11.546-15.389 15.392-15.389 40.337 0 55.722l615.821 615.805c15.369 15.389 40.337 15.389 55.722 0 15.392-15.389 15.392-40.334 0-55.722l-615.801-615.805c-7.704-7.7-17.793-11.546-27.881-11.546zM39.393-64.001c-18.187 0-34.521 12.65-38.501 31.155-4.552 21.28 8.985 42.222 30.265 46.793l283.794 60.885c21.3 4.516 42.245-9.001 46.797-30.265 4.552-21.28-8.985-42.222-30.265-46.793l-283.794-60.885c-2.778-0.615-5.556-0.89-8.295-0.89zM827.574 501.245c-10.088 0-20.177 3.842-27.861 11.546l-222.908 222.909c-15.389 15.389-15.389 40.334 0 55.722 15.369 15.389 40.355 15.389 55.724 0l222.907-222.909c15.392-15.389 15.392-40.334 0-55.722-7.684-7.704-17.773-11.546-27.861-11.546zM939.042 612.7c-10.088 0-20.177 3.842-27.877 11.546-15.392 15.389-15.392 40.334 0 55.742 21.927 21.93 34.009 51.624 34.009 83.584s-12.082 61.653-34.009 83.584c-21.95 21.95-51.647 34.028-83.607 34.028s-61.65-12.078-83.584-34.028c-15.369-15.389-40.314-15.408-55.738 0-15.392 15.389-15.392 40.334 0 55.742 36.807 36.826 86.279 57.102 139.322 57.102 53.027 0 102.523-20.275 139.329-57.102 36.823-36.807 57.102-86.283 57.102-139.326s-20.279-102.519-57.102-139.326c-7.668-7.684-17.757-11.546-27.845-11.546z" />
<glyph unicode="&#xe912;" glyph-name="file" d="M275.349 660.088c14.802 0 29 5.88 39.466 16.349s16.35 24.665 16.35 39.466v187.087c-6.738-5.099-12.876-10.942-18.307-17.415l-183.961-211.647c-3.524-4.43-6.807-9.051-9.822-13.84h156.277zM888.854 892.273c-11.31 11.454-24.81 20.519-39.69 26.656s-30.841 9.217-46.938 9.066h-404.089v-212.091c0-32.565-12.936-63.799-35.966-86.826s-54.261-35.966-86.826-35.966h-176.37v-502.322c0-32.566 12.935-63.801 35.966-86.828 23.027-23.023 54.261-35.965 86.826-35.965h580.463c16.121 0 32.089 3.178 46.992 9.349 14.896 6.166 28.429 15.21 39.831 26.612s20.451 24.941 26.617 39.837c6.172 14.896 9.349 30.864 9.349 46.992v714.412c0.028 16.183-3.155 32.212-9.36 47.159-6.21 14.947-15.321 28.512-26.806 39.912zM543.254 235.906h-178.602c-8.882 0-17.4 3.53-23.679 9.81s-9.81 14.798-9.81 23.676c0 8.884 3.527 17.404 9.81 23.682s14.797 9.807 23.679 9.807h178.602c8.882 0 17.4-3.524 23.678-9.807s9.81-14.798 9.81-23.682c0-8.878-3.527-17.398-9.81-23.676s-14.797-9.81-23.678-9.81zM721.857 414.51h-357.208c-8.882 0-17.4 3.527-23.679 9.81s-9.81 14.797-9.81 23.678c0 8.882 3.527 17.4 9.81 23.678s14.797 9.81 23.679 9.81h357.208c8.884 0 17.398-3.527 23.676-9.81s9.81-14.797 9.81-23.678c0-8.882-3.53-17.4-9.81-23.678s-14.792-9.81-23.676-9.81z" />
<glyph unicode="&#xe913;" glyph-name="prev" d="M247.152 419.9l473.632-472.324c15.514-15.462 40.64-15.437 56.134 0.083 15.475 15.52 15.437 40.653-0.083 56.134l-445.438 444.208 445.457 444.207c15.514 15.48 15.558 40.602 0.077 56.122-7.763 7.78-17.939 11.67-28.115 11.67-10.144 0-20.282-3.864-28.032-11.59l-473.632-472.309c-7.474-7.436-11.668-17.556-11.668-28.1s4.206-20.652 11.668-28.102z" />
<glyph unicode="&#xe914;" glyph-name="comment1" d="M511.996-64c-7.601 0-362.295 0-362.295 0-22.914 0-42.019 10.712-51.109 28.657-9.087 17.942-6.417 39.686 7.143 58.161l45.533 61.855c-96.545 95.882-151.268 226.357-151.268 363.327 0 282.317 229.68 512 511.995 512 282.323 0 512.005-229.683 512.005-512 0-282.32-229.683-512-512.005-512zM511.996 14.384c239.099 0 433.621 194.517 433.621 433.616 0 239.097-194.522 433.616-433.621 433.616-239.094 0-433.611-194.52-433.611-433.616 0-126.318 54.957-246.114 150.782-328.679l27.497-23.69-59.807-81.247zM375.504 448c0-30.125-24.419-54.55-54.547-54.55-30.133 0-54.558 24.424-54.558 54.55 0 30.133 24.424 54.558 54.558 54.558 30.128 0 54.547-24.427 54.547-54.558zM566.572 448c0-30.127-24.423-54.55-54.55-54.55s-54.55 24.423-54.55 54.55c0 30.127 24.423 54.55 54.55 54.55s54.55-24.423 54.55-54.55zM757.65 448c0-30.128-24.424-54.552-54.552-54.552s-54.552 24.424-54.552 54.552c0 30.128 24.424 54.552 54.552 54.552s54.552-24.424 54.552-54.552z" />
<glyph unicode="&#xe915;" glyph-name="ok" d="M1000.206 792.631c-31.682 31.725-83.129 31.705-114.856 0l-516.927-516.948-229.754 229.752c-31.725 31.725-83.15 31.725-114.875 0s-31.725-83.151 0-114.876l287.179-287.178c15.853-15.853 36.639-23.799 57.427-23.799s41.596 7.927 57.448 23.799l574.359 574.378c31.725 31.703 31.725 83.151 0 114.874z" />
<glyph unicode="&#xe916;" glyph-name="sidebar" d="M492.296-64h-416.801c-15.661 0.010-30.677 5.626-41.751 15.606s-17.302 23.517-17.313 37.631v390.406h475.865v-443.643zM75.495 960h416.801v-443.643h-475.865v390.406c0.013 14.116 6.239 27.65 17.313 37.632s26.091 15.593 41.751 15.605zM1007.57 900.936v-905.663c-0.010-15.66-5.114-30.675-14.187-41.751-9.078-11.072-21.383-17.297-34.219-17.312h-341.61v1023.791h341.61c12.836-0.013 25.141-6.239 34.219-17.313s14.177-26.091 14.187-41.751z" />
<glyph unicode="&#xe917;" glyph-name="info" d="M547.693 495.627c0 19.728-15.993 35.721-35.721 35.721s-35.721-15.993-35.721-35.721v-285.767c0-19.73 15.993-35.716 35.721-35.716s35.721 15.986 35.721 35.716v285.767zM511.999 959.998c-282.769 0-511.999-229.229-511.999-511.999 0-282.772 229.229-511.998 511.999-511.998 282.767 0 512.001 229.226 512.001 511.998 0 282.768-229.234 511.999-512.001 511.999zM71.442 447.999c0 243.312 197.245 440.556 440.557 440.556 243.31 0 440.559-197.245 440.559-440.556s-197.249-440.556-440.559-440.556c-243.314 0-440.557 197.245-440.557 440.556zM559.627 638.504c0-26.304-21.323-47.627-47.627-47.627s-47.628 21.324-47.628 47.627c0 26.304 21.323 47.627 47.628 47.627s47.627-21.324 47.627-47.627z" />
<glyph unicode="&#xe918;" glyph-name="next" d="M776.849 476.101l-473.631 472.32c-15.518 15.466-40.642 15.44-56.134-0.080-15.48-15.518-15.44-40.656 0.080-56.134l445.441-444.209-445.457-444.203c-15.518-15.482-15.558-40.608-0.080-56.128 7.766-7.776 17.94-11.667 28.114-11.667 10.148 0 20.282 3.866 28.034 11.59l473.633 472.308c7.475 7.436 11.667 17.556 11.667 28.1s-4.205 20.652-11.667 28.102z" />
<glyph unicode="&#xe919;" glyph-name="manage-pro" d="M877.302 229.342c-28.899 0-57.152-8.57-81.184-24.628-24.029-16.058-42.762-38.88-53.821-65.582s-13.952-56.083-8.314-84.428c5.639-28.346 19.556-54.384 39.991-74.823 20.438-20.435 46.473-34.352 74.823-39.991 28.346-5.639 57.729-2.745 84.428 8.314 26.701 11.062 49.523 29.792 65.582 53.821 16.058 24.032 24.628 52.284 24.628 81.187 0 38.756-15.395 75.923-42.8 103.328s-64.573 42.8-103.331 42.8zM877.302 10.149c-14.447 0-28.576 4.285-40.593 12.313s-21.378 19.44-26.909 32.791c-5.53 13.35-6.98 28.042-4.16 42.214 2.823 14.172 9.78 27.194 19.997 37.411 10.221 10.217 23.238 17.177 37.411 19.997s28.864 1.369 42.214-4.16c13.35-5.53 24.762-14.893 32.791-26.909s12.313-26.144 12.313-40.593c0-19.379-7.697-37.965-21.398-51.668s-32.288-21.398-51.668-21.398zM950.358 886.935h-73.065v36.533c0 9.689-3.85 18.981-10.702 25.832s-16.141 10.701-25.831 10.701c-9.69 0-18.982-3.849-25.834-10.701s-10.702-16.143-10.702-25.832v-36.533h-146.128v36.533c0 9.689-3.85 18.981-10.702 25.832s-16.141 10.701-25.831 10.701c-9.69 0-18.982-3.849-25.834-10.701s-10.702-16.143-10.702-25.832v-36.533h-146.128v36.533c0 9.689-3.85 18.981-10.702 25.832s-16.144 10.701-25.831 10.701c-9.69 0-18.982-3.849-25.834-10.701s-10.702-16.143-10.702-25.832v-36.533h-146.128v36.533c0 9.689-3.849 18.981-10.701 25.832s-16.143 10.701-25.832 10.701c-9.689 0-18.981-3.849-25.833-10.701s-10.701-16.143-10.701-25.832v-36.533h-73.064c-19.378 0-37.962-7.698-51.665-21.4s-21.4-32.286-21.4-51.665v-803.712c0-19.376 7.699-37.961 21.4-51.664s32.286-21.398 51.665-21.398h341.577c9.69 0 18.982 3.847 25.834 10.697s10.702 16.144 10.702 25.834c0 9.69-3.85 18.982-10.702 25.834-6.852 6.848-16.144 10.697-25.834 10.697h-341.577v584.52h876.776v-49.318c0-9.69 3.847-18.982 10.697-25.834s16.144-10.702 25.834-10.702c9.69 0 18.982 3.85 25.834 10.702s10.697 16.144 10.697 25.834v268.512c0 19.378-7.697 37.962-21.398 51.665s-32.288 21.4-51.664 21.4zM73.58 667.741v146.129h73.064c0-9.689 3.849-18.981 10.701-25.833s16.143-10.701 25.833-10.701c9.689 0 18.981 3.849 25.832 10.701s10.701 16.143 10.701 25.833h146.128c0-9.689 3.85-18.981 10.702-25.833s16.144-10.701 25.834-10.701c9.687 0 18.979 3.849 25.831 10.701s10.702 16.143 10.702 25.833h146.128c0-9.689 3.85-18.981 10.702-25.833s16.144-10.701 25.834-10.701c9.69 0 18.979 3.849 25.831 10.701s10.702 16.143 10.702 25.833h146.128c0-9.689 3.85-18.981 10.702-25.833s16.144-10.701 25.834-10.701c9.69 0 18.979 3.849 25.831 10.701s10.702 16.143 10.702 25.833h73.065v-146.129h-876.776zM722.030 268.075c5.767-3.555 12.406-5.439 19.181-5.439 6.771 0 13.414 1.885 19.177 5.439 21.053 13.44 44.297 23.084 68.682 28.495 6.586 1.481 12.631 4.755 17.465 9.462 4.839 4.708 8.274 10.662 9.933 17.206l12.788 52.24h16.074l12.788-51.875c1.658-6.542 5.094-12.495 9.933-17.203 4.836-4.711 10.88-7.984 17.465-9.465 15.828-3.795 31.155-9.433 45.664-16.803 8.771-4.166 18.835-4.679 27.981-1.424s16.624 10.006 20.79 18.774c4.166 8.771 4.679 18.835 1.424 27.981s-10.006 16.624-18.778 20.79c-12.522 6.138-25.462 11.389-38.724 15.709l-13.517 58.82c-2 8.106-6.717 15.28-13.363 20.333-6.647 5.050-14.822 7.674-23.168 7.43h-73.065c-8.346 0.243-16.522-2.381-23.168-7.43-6.647-5.053-11.363-12.227-13.363-20.333l-14.615-58.454c-16.969-5.456-33.465-12.3-49.318-20.457l-51.875 31.053c-6.98 4.179-15.152 5.91-23.226 4.915-8.074-0.992-15.585-4.65-21.343-10.394l-51.875-51.878c-5.744-5.757-9.405-13.267-10.397-21.34s0.74-16.249 4.915-23.226l31.053-51.878c-8.157-15.849-14.999-32.345-20.457-49.318l-58.451-14.611c-7.715-2.163-14.509-6.806-19.327-13.209s-7.398-14.215-7.34-22.227v-73.065c-0.243-8.346 2.381-16.522 7.43-23.168 5.053-6.647 12.227-11.363 20.333-13.363l58.82-14.615c4.32-13.261 9.571-26.199 15.709-38.724 2.96-6.217 7.619-11.468 13.434-15.155 5.817-3.684 12.56-5.649 19.446-5.667 5.565-0.023 11.062 1.225 16.074 3.652 8.701 4.186 15.392 11.648 18.611 20.752 3.216 9.104 2.698 19.113-1.442 27.837-7.369 14.512-13.008 29.84-16.803 45.667-1.481 6.583-4.755 12.631-9.465 17.465-4.708 4.836-10.662 8.274-17.203 9.933l-51.875 13.882v16.074l51.875 12.788c6.542 1.658 12.495 5.094 17.203 9.933 4.711 4.836 7.984 10.88 9.465 17.465 5.411 24.384 15.056 47.63 28.495 68.682 3.555 5.764 5.436 12.406 5.436 19.177 0 6.775-1.882 13.414-5.436 19.181l-27.401 45.664 11.325 11.325 46.032-27.398z" />
<glyph unicode="&#xe91a;" glyph-name="missed-pro" d="M467.070 244.999c5.671-5.663 13.36-8.851 21.381-8.851 8.016 0 15.703 3.178 21.375 8.851l107.946 107.946c11.811 11.811 11.811 30.954 0 42.765-11.805 11.805-30.954 11.805-42.759 0l-86.563-86.563-39.469 39.469c-11.811 11.805-30.954 11.805-42.765 0-11.805-11.805-11.805-30.954 0-42.765l60.851-60.851zM512.020 80.321c132.351 0 240.022 107.68 240.022 240.031s-107.671 240.022-240.022 240.022c-132.358 0-240.030-107.671-240.030-240.022s107.679-240.031 240.030-240.031zM512.020 499.907c99.008 0 179.555-80.547 179.555-179.555s-80.547-179.561-179.555-179.561c-99.008 0-179.561 80.554-179.561 179.561s80.554 179.555 179.561 179.555zM914.457 895.617h-55.149v34.149c0 16.695-13.539 30.235-30.234 30.235-16.698 0-30.238-13.539-30.238-30.235v-34.149h-59.411v34.149c0 16.695-13.539 30.235-30.244 30.235-16.695 0-30.234-13.539-30.234-30.235v-34.149h-333.875v34.149c0 16.695-13.539 30.235-30.244 30.235-16.695 0-30.235-13.539-30.235-30.235v-34.149h-59.414v34.149c0 16.695-13.539 30.235-30.243 30.235-16.695 0-30.235-13.539-30.235-30.235v-34.149h-55.156c-53.914 0-97.781-43.867-97.781-97.789v-764.045c0-53.917 43.867-97.782 97.781-97.782h804.907c53.92 0 97.779 43.865 97.779 97.782v764.045c0 53.922-43.865 97.789-97.779 97.789zM951.763 33.782c0-20.572-16.736-37.314-37.305-37.314h-804.907c-20.57 0-37.312 16.742-37.312 37.314v610.419h879.524v-610.419zM72.239 797.827c0 20.578 16.742 37.312 37.312 37.312h55.156v-34.148c0-16.695 13.539-30.235 30.243-30.235 16.695 0 30.235 13.539 30.235 30.235v34.148h59.414v-34.148c0-16.695 13.539-30.235 30.243-30.235 16.696 0 30.236 13.539 30.236 30.235v34.148h333.875v-34.148c0-16.695 13.539-30.235 30.241-30.235 16.698 0 30.238 13.539 30.238 30.235v34.148h59.411v-34.148c0-16.695 13.539-30.235 30.238-30.235 16.702 0 30.241 13.539 30.241 30.235v34.148h55.142c20.569 0 37.311-16.734 37.311-37.312v-93.149h-879.53v93.149z" />
<glyph unicode="&#xe91b;" glyph-name="advance-pro" d="M467.071 244.999c5.671-5.663 13.36-8.851 21.381-8.851 8.016 0 15.703 3.178 21.375 8.851l107.946 107.946c11.811 11.811 11.811 30.954 0 42.765-11.805 11.805-30.954 11.805-42.759 0l-86.563-86.563-39.469 39.469c-11.811 11.805-30.954 11.805-42.765 0-11.805-11.805-11.805-30.954 0-42.765l60.851-60.851zM512.020 80.32c132.351 0 240.022 107.68 240.022 240.031s-107.671 240.022-240.022 240.022c-132.358 0-240.030-107.671-240.030-240.022s107.679-240.031 240.030-240.031zM512.020 499.907c99.008 0 179.555-80.547 179.555-179.555s-80.547-179.561-179.555-179.561c-99.008 0-179.561 80.554-179.561 179.561s80.554 179.555 179.561 179.555zM914.458 895.617h-55.149v34.149c0 16.695-13.539 30.235-30.234 30.235-16.698 0-30.238-13.539-30.238-30.235v-34.149h-59.411v34.149c0 16.695-13.539 30.235-30.244 30.235-16.695 0-30.234-13.539-30.234-30.235v-34.149h-333.875v34.149c0 16.695-13.539 30.235-30.244 30.235-16.695 0-30.235-13.539-30.235-30.235v-34.149h-59.414v34.149c0 16.695-13.539 30.235-30.243 30.235-16.695 0-30.235-13.539-30.235-30.235v-34.149h-55.156c-53.914 0-97.781-43.867-97.781-97.789v-764.045c0-53.917 43.867-97.782 97.781-97.782h804.907c53.92 0 97.779 43.865 97.779 97.782v764.045c0 53.922-43.865 97.789-97.779 97.789zM951.763 33.782c0-20.572-16.736-37.314-37.305-37.314h-804.907c-20.57 0-37.312 16.742-37.312 37.314v610.419h879.524v-610.419zM72.24 797.827c0 20.578 16.742 37.312 37.312 37.312h55.156v-34.148c0-16.695 13.539-30.235 30.243-30.235 16.695 0 30.235 13.539 30.235 30.235v34.148h59.414v-34.148c0-16.695 13.539-30.235 30.243-30.235 16.696 0 30.236 13.539 30.236 30.235v34.148h333.875v-34.148c0-16.695 13.539-30.235 30.241-30.235 16.698 0 30.238 13.539 30.238 30.235v34.148h59.411v-34.148c0-16.695 13.539-30.235 30.238-30.235 16.702 0 30.241 13.539 30.241 30.235v34.148h55.142c20.569 0 37.311-16.734 37.311-37.312v-93.149h-879.53v93.149z" />
<glyph unicode="&#xe91c;" d="M711.299 300l22.701 148h-142v96.042c0 40.49 19.837 79.958 83.437 79.958h64.563v126c0 0-58.592 10-114.611 10-116.95 0-193.389-70.88-193.389-199.2v-112.8h-130v-148h130v-357.779c26.067-4.090 52.784-6.221 80-6.221s53.933 2.131 80 6.221v357.779h119.299z" />
<glyph unicode="&#xe91d;" glyph-name="twitter-3" d="M715.584 552.416c0.192-4.512 0.32-9.024 0.32-13.6 0-138.784-105.664-298.848-298.88-298.848-59.328 0-114.528 17.376-161.024 47.168 8.224-0.96 16.576-1.44 25.056-1.44 49.216 0 94.496 16.768 130.464 44.96-45.984 0.832-84.768 31.2-98.144 72.928 6.432-1.216 12.992-1.856 19.776-1.856 9.568 0 18.848 1.28 27.68 3.68-48.064 9.632-84.256 52.096-84.256 102.976v1.344c14.144-7.872 30.368-12.608 47.584-13.152-28.192 18.848-46.752 51.008-46.752 87.424 0 19.264 5.184 37.312 14.24 52.832 51.808-63.552 129.216-105.376 216.512-109.76-1.792 7.68-2.72 15.712-2.72 23.936 0 58.016 47.040 105.056 105.024 105.056 30.24 0 57.536-12.768 76.672-33.184 23.936 4.704 46.432 13.44 66.72 25.472-7.84-24.512-24.512-45.088-46.176-58.112 21.248 2.56 41.472 8.192 60.32 16.544-14.080-21.056-31.904-39.552-52.416-54.368zM512 960c-282.784 0-512-229.216-512-512 0-282.752 229.216-512 512-512s512 229.248 512 512c0 282.784-229.216 512-512 512z" />
<glyph unicode="&#xe91e;" glyph-name="sp-icon" d="M435.191 12.809c-239.777 0-435.191 195.413-435.191 435.191s195.414 435.191 435.191 435.191c75.893 0 149.951-19.431 214.845-57.194 20.165-11.732 27.132-37.029 15.399-56.461-11.733-20.165-37.030-27.131-56.462-15.398-52.428 30.064-112.921 46.196-173.782 46.196-193.582-0.366-351.599-158.018-351.599-351.599s157.652-351.599 351.599-351.599c98.623 0 189.548 39.596 256.641 111.089 15.767 16.866 42.163 17.599 58.662 2.2 16.866-15.765 17.599-42.162 2.2-58.662-82.125-88.357-197.614-138.585-317.868-138.585l0.365-0.368zM381.663 532.692l-88.357 80.293c-16.866 15.399-43.262 14.298-58.662-2.565-15.399-16.866-14.298-43.262 2.568-58.662l95.69-86.892c7.333 27.865 24.93 52.429 48.761 67.827zM912.178 791.528c-14.298 17.965-40.697 21.265-58.662 6.966l-340.965-269.472c22.73-16.866 39.228-41.798 44.361-70.76l348.301 275.339c18.698 14.298 21.263 40.329 6.966 58.294v-0.366zM480.284 502.986c-10.632 5.867-22.73 9.165-35.562 9.165-11.733 0-22.365-2.565-31.897-6.966-26.031-12.099-43.262-38.129-43.262-68.192v-4.768c2.565-39.228 34.831-70.392 75.16-70.392s70.392 28.964 74.792 66.725c0.734 2.568 0.734 5.867 0.734 9.167 0 27.863-15.765 52.793-39.596 65.627l-0.368-0.368zM1011.169 544.43h-104.857c-6.966 0-12.831-5.864-12.831-12.831v-93.124c0-6.966 5.867-12.831 12.831-12.831h104.857c6.966 0 12.831 5.867 12.831 12.831v93.124c0 6.967-5.867 12.831-12.831 12.831zM839.951 544.43h-104.857c-6.966 0-12.831-5.864-12.831-12.831v-93.124c0-6.966 5.867-12.831 12.831-12.831h104.857c6.966 0 12.831 5.867 12.831 12.831v93.124c0.365 6.967-5.133 12.831-12.831 12.831zM839.951 390.796h-104.857c-6.966 0-12.831-5.867-12.831-12.831v-93.124c0-6.967 5.867-12.831 12.831-12.831h104.857c6.966 0 12.831 5.864 12.831 12.831v93.124c0.365 7.333-5.133 12.831-12.831 12.831zM1011.169 390.796h-104.857c-6.966 0-12.831-5.867-12.831-12.831v-93.124c0-6.967 5.867-12.831 12.831-12.831h104.857c6.966 0 12.831 5.864 12.831 12.831v93.124c0 7.333-5.867 12.831-12.831 12.831z" />
<glyph unicode="&#xe91f;" glyph-name="linkedin" d="M1023.998 337.376v-378.633h-219.526v353.263c0 88.701-31.697 149.272-111.178 149.272-60.655 0-96.691-40.781-112.601-80.271-5.78-14.109-7.267-33.705-7.267-53.497v-368.75h-219.541c0 0 2.947 598.307 0 660.239h219.559v-93.562c-0.442-0.737-1.067-1.457-1.458-2.161h1.458v2.161c29.17 44.89 81.198 109.065 197.846 109.065 144.43 0 252.71-94.365 252.71-297.126zM124.226 937.257c-75.095 0-124.226-49.294-124.226-114.059 0-63.39 47.706-114.108 121.344-114.108h1.425c76.569 0 124.176 50.718 124.176 114.108-1.457 64.765-47.607 114.059-122.719 114.059zM13.048-41.258h219.458v660.257h-219.458v-660.257z" />
<glyph unicode="&#xe920;" glyph-name="instagram" d="M328.004 960c-29.856-1.353-59.856-4.353-90-9-44.662-7.345-85.329-24.012-121.998-49.999-71.247-57.546-108.246-132.545-110.998-224.997-1.779-45.649-3.446-90.983-5-135.998 0-61.333 0-122.664 0-183.997 1.532-46.349 3.199-93.014 5-139.998 4.852-104.621 51.185-184.286 138.998-238.996 58.386-27.873 119.72-41.539 183.997-40.999 123.998 0 247.996 0 371.994 0 21.011 1.792 42.345 3.46 63.999 5.001 84.996 8.314 153.329 45.98 204.997 112.998 33.783 52.489 52.115 109.822 54.999 171.997 0 149.997 0 299.995 0 449.992-2.606 22.541-6.275 45.207-11 67.999-26.778 100.776-89.777 167.109-188.997 198.997-41.655 10.401-83.655 16.068-125.999 17-123.331 0-246.662 0-369.993 0zM362.003 866.001c101.334 0.333 202.666 0 303.995-1 32.777-0.337 65.442-2.337 98-6 79.895-10.582 131.56-54.247 154.998-130.998 5.567-20.302 8.9-40.967 9.999-61.998 4-145.999 4-291.996 0-437.994-0.626-73.625-31.626-129.958-92.999-168.997-44.343-20.436-91.010-29.768-139.998-28-134.682-3.64-269.346-2.973-403.994 1.999-111.888 7.231-175.553 66.23-190.997 176.998-1.912 23.965-3.245 47.964-4 71.999-1.333 110.664-1.333 221.331 0 331.995-1.601 48.799 5.732 96.132 22 141.997 27.559 56.647 72.558 90.314 134.998 100.998 36.141 4.991 72.141 7.991 107.998 9zM502.001 618.004c91.33-1.032 150.329-45.031 176.998-131.998 13.093-71.397-8.572-129.73-65-174.997-70.825-45.57-140.158-43.569-207.997 6.001-66.623 63.674-78.955 136.674-36.999 218.996 31.372 48.373 75.703 75.707 132.998 82z" />
<glyph unicode="&#xe921;" glyph-name="instagram-main" d="M512.041 960c-139.047 0-156.502-0.609-211.111-3.092-54.507-2.499-91.714-11.126-124.266-23.787-33.679-13.076-62.243-30.571-90.7-59.038-28.482-28.462-45.977-57.026-59.094-90.69-12.697-32.563-21.335-69.785-23.787-124.266-2.442-54.615-3.082-72.074-3.082-211.126 0-139.054 0.614-156.452 3.092-211.062 2.509-54.502 11.136-91.709 23.787-124.262 13.087-33.679 30.582-62.244 59.048-90.701 28.452-28.483 57.016-46.019 90.67-59.095 32.578-12.662 69.79-21.289 124.286-23.788 54.615-2.483 72.053-3.092 211.096-3.092 139.064 0 156.462 0.609 211.072 3.092 54.502 2.499 91.75 11.126 124.329 23.788 33.664 13.076 62.188 30.612 90.634 59.095 28.483 28.457 45.972 57.021 59.095 90.685 12.585 32.568 21.228 69.786 23.788 124.268 2.452 54.61 3.092 72.018 3.092 211.072s-0.64 156.502-3.092 211.116c-2.56 54.507-11.203 91.708-23.788 124.261-13.123 33.679-30.612 62.243-59.095 90.705-28.477 28.477-56.96 45.972-90.665 59.033-32.64 12.667-69.868 21.299-124.37 23.792-54.615 2.483-72.003 3.092-211.098 3.092h0.159zM466.11 867.734c13.635 0.020 28.846 0 45.931 0 136.709 0 152.909-0.492 206.894-2.944 49.915-2.284 77.010-10.624 95.058-17.633 23.895-9.277 40.929-20.372 58.839-38.297 17.92-17.92 29.010-34.984 38.313-58.879 7.009-18.022 15.36-45.117 17.633-95.036 2.452-53.975 2.985-70.184 2.985-206.825 0-136.643-0.532-152.858-2.985-206.828-2.284-49.915-10.624-77.010-17.633-95.037-9.277-23.895-20.393-40.909-38.313-58.819-17.92-17.92-34.934-29.010-58.839-38.292-18.028-7.040-45.143-15.36-95.058-17.644-53.975-2.452-70.185-2.985-206.894-2.985-136.713 0-152.918 0.532-206.887 2.985-49.919 2.304-77.014 10.644-95.077 17.654-23.89 9.283-40.959 20.372-58.879 38.292s-29.009 34.944-38.312 58.849c-7.009 18.028-15.36 45.117-17.633 95.037-2.452 53.975-2.944 70.185-2.944 206.915 0 136.723 0.492 152.851 2.944 206.825 2.284 49.919 10.624 77.014 17.633 95.062 9.283 23.895 20.392 40.959 38.318 58.879 17.92 17.92 34.984 29.015 58.879 38.312 18.048 7.040 45.153 15.36 95.072 17.654 47.231 2.135 65.535 2.775 160.956 2.883v-0.128zM785.341 782.722c-33.915 0-61.435-27.494-61.435-61.418 0-33.92 27.52-61.439 61.435-61.439 33.92 0 61.44 27.519 61.44 61.439s-27.52 61.418-61.44 61.418zM512.041 710.935c-145.202 0-262.93-117.728-262.93-262.935s117.728-262.876 262.93-262.876c145.208 0 262.892 117.668 262.892 262.876 0 145.202-117.683 262.935-262.892 262.935zM512.041 618.669c94.254 0 170.67-76.405 170.67-170.669 0-94.254-76.416-170.67-170.67-170.67-94.258 0-170.663 76.416-170.663 170.67 0 94.263 76.405 170.669 170.663 170.669z" />
<glyph unicode="&#xe924;" glyph-name="pinterest" d="M441.148 282.722c-26.893-140.958-59.737-276.14-157.010-346.722-30.021 213.075 44.097 373.106 78.505 542.969-58.683 98.802 7.072 297.596 130.83 248.603 152.318-60.247-131.883-367.26 58.887-405.611 199.204-40.016 280.531 345.636 157.007 471.026-178.46 181.081-519.508 4.148-477.553-255.131 10.2-63.375 75.683-82.618 26.146-170.097-114.204 25.328-148.305 115.426-143.919 235.511 7.072 196.618 176.627 334.248 346.725 353.287 215.113 24.072 417.004-78.98 444.884-281.311 31.377-228.375-97.102-475.716-327.11-457.938-62.355 4.831-88.534 35.734-137.391 65.415z" />
<glyph unicode="&#xe928;" glyph-name="chat-2" d="M696.877 789.752h-100.554c3.558 44.202-11.496 89.634-45.234 123.374-61.045 61.040-160.367 61.040-221.411 0l-31.206-31.206-31.206 31.206c-61.044 61.044-160.368 61.042-221.41-0.002-29.57-29.568-45.856-68.886-45.856-110.704s16.284-81.134 45.856-110.704l75.662-75.662c-25.026-47.064-38.176-99.612-38.176-153.426 0-180.379 146.748-327.124 327.126-327.124h48.888l213.188-198.412v198.412h24.332c180.38 0 327.124 146.747 327.124 327.124s-146.751 327.124-327.124 327.124zM88.319 870.663c18.816 18.816 43.525 28.222 68.242 28.222 24.71 0 49.43-9.41 68.242-28.222l73.668-73.668 73.668 73.668c37.63 37.626 98.854 37.628 136.486-0.002 18.228-18.228 28.266-42.462 28.266-68.242 0-25.778-10.038-50.014-28.266-68.242l-210.152-210.154-210.154 210.154c-37.628 37.63-37.628 98.856 0 136.486zM696.877 195.553h-84.384v-120.54l-129.514 120.54h-72.51c-147.266 0-267.074 119.808-267.074 267.074 0 37.678 7.89 74.582 23.004 108.547l132.076-132.076 252.616 252.616c11.478 11.478 20.794 24.31 27.956 37.986h117.83c147.266 0 267.074-119.808 267.074-267.073s-119.808-267.074-267.074-267.074zM516.212 882.626c-53.164 48.911-139.358 48.911-192.52 0l-32.087-29.518-32.087 29.52c-53.163 48.911-139.357 48.911-192.518 0-53.163-48.911-53.163-128.212 0-177.123l224.606-206.644 224.607 206.641c53.158 48.911 53.158 128.212 0 177.124zM389.902 479.705h63.466v-60.052h-63.466v60.052zM530.027 479.705h63.466v-60.052h-63.466v60.052zM670.16 479.705h63.466v-60.052h-63.466v60.052z" />
<glyph unicode="&#xe929;" glyph-name="play" d="M955.404 448.002l-886.806-512.003v1024l886.806-511.998z" />
</font>
</defs>
</svg>
